  0
SECTION
  2
HEADER
  9
$ACADVER
  1
AC1015
  9
$ACADMAINTVER
 70
    20
  9
$DWGCODEPAGE
  3
ANSI_1252
  9
$INSBASE
 10
0.0
 20
0.0
 30
0.0
  9
$EXTMIN
 10
1.0
 20
1.000000000000113
 30
0.0
  9
$EXTMAX
 10
593.0
 20
419.0000000000001
 30
0.0
  9
$LIMMIN
 10
0.0
 20
0.0
  9
$LIMMAX
 10
594.0
 20
420.0
  9
$ORTHOMODE
 70
     1
  9
$REGENMODE
 70
     1
  9
$FILLMODE
 70
     1
  9
$QTEXTMODE
 70
     0
  9
$MIRRTEXT
 70
     1
  9
$LTSCALE
 40
1.0
  9
$ATTMODE
 70
     1
  9
$TEXTSIZE
 40
5.0
  9
$TRACEWID
 40
1.0
  9
$TEXTSTYLE
  7
Standard
  9
$CLAYER
  8
0
  9
$CELTYPE
  6
Continuous
  9
$CECOLOR
 62
     7
  9
$CELTSCALE
 40
1.0
  9
$DISPSILH
 70
     0
  9
$DIMSCALE
 40
1.0
  9
$DIMASZ
 40
3.72
  9
$DIMEXO
 40
0.0
  9
$DIMDLI
 40
5.0
  9
$DIMRND
 40
0.0
  9
$DIMDLE
 40
0.0
  9
$DIMEXE
 40
1.5
  9
$DIMTP
 40
0.0
  9
$DIMTM
 40
0.0
  9
$DIMTXT
 40
3.5
  9
$DIMCEN
 40
0.0
  9
$DIMTSZ
 40
0.0
  9
$DIMTOL
 70
     0
  9
$DIMLIM
 70
     0
  9
$DIMTIH
 70
     0
  9
$DIMTOH
 70
     0
  9
$DIMSE1
 70
     0
  9
$DIMSE2
 70
     0
  9
$DIMTAD
 70
     1
  9
$DIMZIN
 70
     8
  9
$DIMBLK
  1
_OPEN15
  9
$DIMASO
 70
     1
  9
$DIMSHO
 70
     1
  9
$DIMPOST
  1

  9
$DIMAPOST
  1
"
  9
$DIMALT
 70
     0
  9
$DIMALTD
 70
     2
  9
$DIMALTF
 40
0.0393700787401575
  9
$DIMLFAC
 40
1.0
  9
$DIMTOFL
 70
     1
  9
$DIMTVP
 40
0.0
  9
$DIMTIX
 70
     0
  9
$DIMSOXD
 70
     0
  9
$DIMSAH
 70
     0
  9
$DIMBLK1
  1
_OPEN15
  9
$DIMBLK2
  1
_OPEN15
  9
$DIMSTYLE
  2
phoenix
  9
$DIMCLRD
 70
     1
  9
$DIMCLRE
 70
     1
  9
$DIMCLRT
 70
     5
  9
$DIMTFAC
 40
0.6666666666666666
  9
$DIMGAP
 40
0.5
  9
$DIMJUST
 70
     0
  9
$DIMSD1
 70
     0
  9
$DIMSD2
 70
     0
  9
$DIMTOLJ
 70
     1
  9
$DIMTZIN
 70
     8
  9
$DIMALTZ
 70
     0
  9
$DIMALTTZ
 70
     0
  9
$DIMUPT
 70
     1
  9
$DIMDEC
 70
     6
  9
$DIMTDEC
 70
     6
  9
$DIMALTU
 70
     2
  9
$DIMALTTD
 70
     2
  9
$DIMTXSTY
  7
Standard
  9
$DIMAUNIT
 70
     0
  9
$DIMADEC
 70
     4
  9
$DIMALTRND
 40
0.0
  9
$DIMAZIN
 70
     2
  9
$DIMDSEP
 70
    46
  9
$DIMATFIT
 70
     0
  9
$DIMFRAC
 70
     0
  9
$DIMLDRBLK
  1
_OPEN15
  9
$DIMLUNIT
 70
     2
  9
$DIMLWD
 70
    25
  9
$DIMLWE
 70
    25
  9
$DIMTMOVE
 70
     0
  9
$LUNITS
 70
     2
  9
$LUPREC
 70
     4
  9
$SKETCHINC
 40
1.0
  9
$FILLETRAD
 40
3.299999999999999
  9
$AUNITS
 70
     0
  9
$AUPREC
 70
     0
  9
$MENU
  1
.
  9
$ELEVATION
 40
0.0
  9
$PELEVATION
 40
0.0
  9
$THICKNESS
 40
0.0
  9
$LIMCHECK
 70
     0
  9
$CHAMFERA
 40
10.0
  9
$CHAMFERB
 40
10.0
  9
$CHAMFERC
 40
20.0
  9
$CHAMFERD
 40
0.0
  9
$SKPOLY
 70
     0
  9
$TDCREATE
 40
2454179.456040035
  9
$TDUCREATE
 40
2454179.414373368
  9
$TDUPDATE
 40
2455888.365758994
  9
$TDUUPDATE
 40
2455888.324092326
  9
$TDINDWG
 40
1.5941434259
  9
$TDUSRTIMER
 40
1.5941434259
  9
$USRTIMER
 70
     1
  9
$ANGBASE
 50
0.0
  9
$ANGDIR
 70
     0
  9
$PDMODE
 70
    35
  9
$PDSIZE
 40
-2.0
  9
$PLINEWID
 40
0.0
  9
$SPLFRAME
 70
     0
  9
$SPLINETYPE
 70
     6
  9
$SPLINESEGS
 70
     8
  9
$HANDSEED
  5
BE7F1
  9
$SURFTAB1
 70
     6
  9
$SURFTAB2
 70
     6
  9
$SURFTYPE
 70
     6
  9
$SURFU
 70
     6
  9
$SURFV
 70
     6
  9
$UCSBASE
  2

  9
$UCSNAME
  2

  9
$UCSORG
 10
0.0
 20
0.0
 30
0.0
  9
$UCSXDIR
 10
1.0
 20
0.0
 30
0.0
  9
$UCSYDIR
 10
0.0
 20
1.0
 30
0.0
  9
$UCSORTHOREF
  2

  9
$UCSORTHOVIEW
 70
     0
  9
$UCSORGTOP
 10
0.0
 20
0.0
 30
0.0
  9
$UCSORGBOTTOM
 10
0.0
 20
0.0
 30
0.0
  9
$UCSORGLEFT
 10
0.0
 20
0.0
 30
0.0
  9
$UCSORGRIGHT
 10
0.0
 20
0.0
 30
0.0
  9
$UCSORGFRONT
 10
0.0
 20
0.0
 30
0.0
  9
$UCSORGBACK
 10
0.0
 20
0.0
 30
0.0
  9
$PUCSBASE
  2

  9
$PUCSNAME
  2

  9
$PUCSORG
 10
0.0
 20
0.0
 30
0.0
  9
$PUCSXDIR
 10
1.0
 20
0.0
 30
0.0
  9
$PUCSYDIR
 10
0.0
 20
1.0
 30
0.0
  9
$PUCSORTHOREF
  2

  9
$PUCSORTHOVIEW
 70
     0
  9
$PUCSORGTOP
 10
0.0
 20
0.0
 30
0.0
  9
$PUCSORGBOTTOM
 10
0.0
 20
0.0
 30
0.0
  9
$PUCSORGLEFT
 10
0.0
 20
0.0
 30
0.0
  9
$PUCSORGRIGHT
 10
0.0
 20
0.0
 30
0.0
  9
$PUCSORGFRONT
 10
0.0
 20
0.0
 30
0.0
  9
$PUCSORGBACK
 10
0.0
 20
0.0
 30
0.0
  9
$USERI1
 70
     0
  9
$USERI2
 70
     0
  9
$USERI3
 70
     0
  9
$USERI4
 70
     0
  9
$USERI5
 70
     0
  9
$USERR1
 40
0.0
  9
$USERR2
 40
0.0
  9
$USERR3
 40
0.0
  9
$USERR4
 40
0.0
  9
$USERR5
 40
0.0
  9
$WORLDVIEW
 70
     1
  9
$SHADEDGE
 70
     3
  9
$SHADEDIF
 70
    70
  9
$TILEMODE
 70
     1
  9
$MAXACTVP
 70
    64
  9
$PINSBASE
 10
0.0
 20
0.0
 30
0.0
  9
$PLIMCHECK
 70
     0
  9
$PEXTMIN
 10
1.000000000000000E+20
 20
1.000000000000000E+20
 30
1.000000000000000E+20
  9
$PEXTMAX
 10
-1.000000000000000E+20
 20
-1.000000000000000E+20
 30
-1.000000000000000E+20
  9
$PLIMMIN
 10
0.0
 20
0.0
  9
$PLIMMAX
 10
420.0
 20
297.0
  9
$UNITMODE
 70
     0
  9
$VISRETAIN
 70
     1
  9
$PLINEGEN
 70
     0
  9
$PSLTSCALE
 70
     1
  9
$TREEDEPTH
 70
  3020
  9
$CMLSTYLE
  2
Standard
  9
$CMLJUST
 70
     0
  9
$CMLSCALE
 40
20.0
  9
$PROXYGRAPHICS
 70
     1
  9
$MEASUREMENT
 70
     1
  9
$CELWEIGHT
370
    50
  9
$ENDCAPS
280
     0
  9
$JOINSTYLE
280
     0
  9
$LWDISPLAY
290
     0
  9
$INSUNITS
 70
     4
  9
$HYPERLINKBASE
  1

  9
$STYLESHEET
  1
HP_SW.ctb
  9
$XEDIT
290
     1
  9
$CEPSNTYPE
380
     0
  9
$PSTYLEMODE
290
     1
  9
$FINGERPRINTGUID
  2
{40D5FC08-43CE-4CD7-8678-251A2F94C4C7}
  9
$VERSIONGUID
  2
{2422BBD2-1F98-4896-BCBB-9EAD6932A54C}
  9
$EXTNAMES
290
     1
  9
$PSVPSCALE
 40
0.0
  9
$OLESTARTUP
290
     0
  0
ENDSEC
  0
SECTION
  2
CLASSES
  0
CLASS
  1
ACDBDICTIONARYWDFLT
  2
AcDbDictionaryWithDefault
  3
ObjectDBX Classes
 90
        0
280
     0
281
     0
  0
CLASS
  1
ACDBPLACEHOLDER
  2
AcDbPlaceHolder
  3
ObjectDBX Classes
 90
        0
280
     0
281
     0
  0
CLASS
  1
LAYOUT
  2
AcDbLayout
  3
ObjectDBX Classes
 90
        0
280
     0
281
     0
  0
CLASS
  1
PH_VARS
  2
PhoenixVars
  3
PHOENIX7010
 90
        0
280
     0
281
     0
  0
CLASS
  1
PH_GROUP
  2
PhGroup
  3
PHOENIX7010
 90
        0
280
     0
281
     0
  0
CLASS
  1
DICTIONARYVAR
  2
AcDbDictionaryVar
  3
ObjectDBX Classes
 90
        0
280
     0
281
     0
  0
CLASS
  1
TABLESTYLE
  2
AcDbTableStyle
  3
ObjectDBX Classes
 90
     4095
280
     0
281
     0
  0
CLASS
  1
SORTENTSTABLE
  2
AcDbSortentsTable
  3
ObjectDBX Classes
 90
        0
280
     0
281
     0
  0
CLASS
  1
PH_ENTDIMREACTOR
  2
EntDimReactor
  3
PHOENIX7010
 90
        0
280
     0
281
     0
  0
CLASS
  1
PH_DIMENTREACTOR
  2
DimEntReactor
  3
PHOENIX7010
 90
        0
280
     0
281
     0
  0
CLASS
  1
MATERIAL
  2
AcDbMaterial
  3
ObjectDBX Classes
 90
     1153
280
     0
281
     0
  0
CLASS
  1
VISUALSTYLE
  2
AcDbVisualStyle
  3
ObjectDBX Classes
 90
     4095
280
     0
281
     0
  0
CLASS
  1
SCALE
  2
AcDbScale
  3
ObjectDBX Classes
 90
     1153
280
     0
281
     0
  0
CLASS
  1
MLEADERSTYLE
  2
AcDbMLeaderStyle
  3
ACDB_MLEADERSTYLE_CLASS
 90
     4095
280
     0
281
     0
  0
CLASS
  1
CELLSTYLEMAP
  2
AcDbCellStyleMap
  3
ObjectDBX Classes
 90
     1152
280
     0
281
     0
  0
ENDSEC
  0
SECTION
  2
TABLES
  0
TABLE
  2
VPORT
  5
8
330
0
100
AcDbSymbolTable
 70
     1
  0
VPORT
  5
BDF37
330
8
100
AcDbSymbolTableRecord
100
AcDbViewportTableRecord
  2
*Active
 70
     0
 10
0.0
 20
0.0
 11
1.0
 21
1.0
 12
297.014011858862
 22
210.0167580357715
 13
0.0
 23
0.0
 14
10.0
 24
10.0
 15
10.0
 25
10.0
 16
0.0
 26
0.0
 36
1.0
 17
0.0
 27
0.0
 37
0.0
 40
421.2173102295221
 41
2.165509259259259
 42
50.0
 43
0.0
 44
0.0
 50
0.0
 51
0.0
 71
     0
 72
   100
 73
     1
 74
     3
 75
     0
 76
     0
 77
     0
 78
     0
281
     0
 65
     1
110
0.0
120
0.0
130
0.0
111
1.0
121
0.0
131
0.0
112
0.0
122
1.0
132
0.0
 79
     0
146
0.0
  0
ENDTAB
  0
TABLE
  2
LTYPE
  5
5
330
0
100
AcDbSymbolTable
 70
     5
  0
LTYPE
  5
14
330
5
100
AcDbSymbolTableRecord
100
AcDbLinetypeTableRecord
  2
ByBlock
 70
     0
  3

 72
    65
 73
     0
 40
0.0
  0
LTYPE
  5
15
330
5
100
AcDbSymbolTableRecord
100
AcDbLinetypeTableRecord
  2
ByLayer
 70
     0
  3

 72
    65
 73
     0
 40
0.0
  0
LTYPE
  5
16
330
5
100
AcDbSymbolTableRecord
100
AcDbLinetypeTableRecord
  2
Continuous
 70
     0
  3
Solid line
 72
    65
 73
     0
 40
0.0
  0
LTYPE
  5
378A
330
5
100
AcDbSymbolTableRecord
100
AcDbLinetypeTableRecord
  2
ACAD_ISO04W100
 70
     0
  3
____ . ____ . ____ . ____ . ____ . ____ . ____ 
 72
    65
 73
     4
 40
30.5
 49
24.0
 74
     0
 49
-3.0
 74
     0
 49
0.5
 74
     0
 49
-3.0
 74
     0
  0
LTYPE
  5
3857
330
5
100
AcDbSymbolTableRecord
100
AcDbLinetypeTableRecord
  2
ACAD_ISO02W100
 70
     0
  3
ISO Strichlinie __ __ __ __ __ __ __ __ __ __ _
 72
    65
 73
     2
 40
15.0
 49
12.0
 74
     0
 49
-3.0
 74
     0
  0
LTYPE
  5
76E2
330
5
100
AcDbSymbolTableRecord
100
AcDbLinetypeTableRecord
  2
AM_ISO02W050
 70
     0
  3
__ __ __ __ __ __ __ __ __ __ __ __ __ __ __
 72
    65
 73
     2
 40
7.5
 49
6.0
 74
     0
 49
-1.5
 74
     0
  0
LTYPE
  5
B370
330
5
100
AcDbSymbolTableRecord
100
AcDbLinetypeTableRecord
  2
AM_ISO08W050
 70
     0
  3
____ . ____ . ____ . ____ . ____ . ____ . ____
 72
    65
 73
     4
 40
18.0
 49
12.0
 74
     0
 49
-1.5
 74
     0
 49
3.0
 74
     0
 49
-1.5
 74
     0
  0
ENDTAB
  0
TABLE
  2
LAYER
  5
2
102
{ACAD_XDICTIONARY
360
378B
102
}
330
0
100
AcDbSymbolTable
 70
     4
  0
LAYER
  5
10
102
{ACAD_XDICTIONARY
360
BE734
102
}
330
2
100
AcDbSymbolTableRecord
100
AcDbLayerTableRecord
  2
0
 70
     0
 62
     7
  6
Continuous
370
    -3
390
F
  0
LAYER
  5
69
330
2
100
AcDbSymbolTableRecord
100
AcDbLayerTableRecord
  2
Defpoints
 70
     0
 62
    -7
  6
Continuous
290
     0
370
    -3
390
F
  0
LAYER
  5
B21
102
{ACAD_XDICTIONARY
360
BE736
102
}
330
2
100
AcDbSymbolTableRecord
100
AcDbLayerTableRecord
  2
PH_HILFSELEMENTE
 70
     0
 62
    -7
  6
Continuous
370
    -3
390
F
  0
LAYER
  5
BE5C9
102
{ACAD_XDICTIONARY
360
BE738
102
}
330
2
100
AcDbSymbolTableRecord
100
AcDbLayerTableRecord
  2
Bearbeitung
 70
     0
 62
     7
  6
Continuous
370
    -3
390
F
1001
AcAecLayerStandard
1000

1000

  0
ENDTAB
  0
TABLE
  2
STYLE
  5
3
330
0
100
AcDbSymbolTable
 70
     2
  0
STYLE
  5
11
330
3
100
AcDbSymbolTableRecord
100
AcDbTextStyleTableRecord
  2
Standard
 70
     0
 40
0.0
 41
1.199999999999999
 50
0.0
 71
     0
 42
5.0
  3
isocp.shx
  4

  0
STYLE
  5
B371
330
3
100
AcDbSymbolTableRecord
100
AcDbTextStyleTableRecord
  2
STD
 70
     0
 40
0.0
 41
1.0
 50
0.0
 71
     0
 42
0.0
  3
isoct.shx
  4

  0
ENDTAB
  0
TABLE
  2
VIEW
  5
6
330
0
100
AcDbSymbolTable
 70
     0
  0
ENDTAB
  0
TABLE
  2
UCS
  5
7
330
0
100
AcDbSymbolTable
 70
     0
  0
ENDTAB
  0
TABLE
  2
APPID
  5
9
330
0
100
AcDbSymbolTable
 70
     6
  0
APPID
  5
12
330
9
100
AcDbSymbolTableRecord
100
AcDbRegAppTableRecord
  2
ACAD
 70
     0
  0
APPID
  5
40
330
9
100
AcDbSymbolTableRecord
100
AcDbRegAppTableRecord
  2
PHOENIX7010
 70
     0
  0
APPID
  5
3861
330
9
100
AcDbSymbolTableRecord
100
AcDbRegAppTableRecord
  2
ACAD_PSEXT
 70
     0
  0
APPID
  5
BE5CA
330
9
100
AcDbSymbolTableRecord
100
AcDbRegAppTableRecord
  2
AcAecLayerStandard
 70
     0
  0
APPID
  5
BE775
330
9
100
AcDbSymbolTableRecord
100
AcDbRegAppTableRecord
  2
ACAD_EXEMPT_FROM_CAD_STANDARDS
 70
     0
  0
APPID
  5
BE7A9
330
9
100
AcDbSymbolTableRecord
100
AcDbRegAppTableRecord
  2
ACAD_MLEADERVER
 70
     0
  0
ENDTAB
  0
TABLE
  2
DIMSTYLE
  5
A
330
0
100
AcDbSymbolTable
 70
     5
100
AcDbDimStyleTable
 71
     3
340
47
340
48
340
27
  0
DIMSTYLE
105
27
330
A
100
AcDbSymbolTableRecord
100
AcDbDimStyleTableRecord
  2
ISO-25
 70
     0
 41
2.5
 42
0.625
 43
3.75
 44
1.25
 73
     0
 74
     0
 77
     1
 78
     8
140
2.5
141
2.5
143
0.03937007874016
147
0.625
171
     3
172
     1
271
     2
272
     2
274
     3
278
    44
283
     0
284
     8
340
11
  0
DIMSTYLE
105
47
102
{ACAD_REACTORS
330
AF9E0
330
B0C41
330
B8AFA
102
}
330
A
100
AcDbSymbolTableRecord
100
AcDbDimStyleTableRecord
  2
phoenix
 70
     0
  4
"
 41
3.72
 42
0.0
 43
5.0
 44
1.5
 73
     0
 74
     0
 77
     1
 78
     8
 79
     2
140
2.5
141
0.0
143
0.0393700787401575
146
0.6666666666666666
147
0.5
172
     1
176
     1
177
     1
178
     5
179
     4
271
     6
272
     6
284
     8
288
     1
289
     0
340
11
341
41
342
41
371
    25
372
    25
  0
DIMSTYLE
105
48
330
A
100
AcDbSymbolTableRecord
100
AcDbDimStyleTableRecord
  2
phoenix$4
 70
     0
  4
"
 41
3.72
 42
0.0
 43
2.0
 44
1.5
 73
     0
 74
     0
 77
     1
 78
     8
140
3.5
141
0.0
143
0.0393700787401575
146
0.6666666666666666
147
2.0
176
     1
177
     1
178
     5
271
     2
272
     2
277
     6
284
     8
288
     1
289
     0
340
11
341
41
342
41
371
    25
372
    25
  0
DIMSTYLE
105
385F
330
A
100
AcDbSymbolTableRecord
100
AcDbDimStyleTableRecord
  2
STANDARD
 70
     0
 41
2.5
 42
0.625
 43
3.75
 44
1.25
 73
     0
 74
     0
 77
     1
 78
     8
140
2.5
141
2.5
143
0.0394
147
0.625
171
     4
172
     1
273
     8
274
     4
277
     6
340
11
  0
DIMSTYLE
105
3860
330
A
100
AcDbSymbolTableRecord
100
AcDbDimStyleTableRecord
  2
ISO-35
 70
     0
 41
3.5
 42
0.0
 43
5.0
 44
1.5
 46
1.5
 73
     0
 74
     0
 77
     1
 78
     8
140
2.5
141
0.0
143
0.0394
146
0.7
147
0.4
171
     4
172
     1
176
     1
177
     1
178
     5
271
     2
272
     2
273
     8
274
     4
288
     1
289
     0
340
11
341
3851
342
3851
371
    25
372
    25
  0
ENDTAB
  0
TABLE
  2
BLOCK_RECORD
  5
1
330
0
100
AcDbSymbolTable
 70
    17
  0
BLOCK_RECORD
  5
1F
102
{ACAD_XDICTIONARY
360
839D
102
}
330
1
100
AcDbSymbolTableRecord
100
AcDbBlockTableRecord
  2
*Model_Space
340
22
  0
BLOCK_RECORD
  5
1B
330
1
100
AcDbSymbolTableRecord
100
AcDbBlockTableRecord
  2
*Paper_Space
340
1E
  0
BLOCK_RECORD
  5
23
330
1
100
AcDbSymbolTableRecord
100
AcDbBlockTableRecord
  2
*Paper_Space0
340
26
  0
BLOCK_RECORD
  5
41
330
1
100
AcDbSymbolTableRecord
100
AcDbBlockTableRecord
  2
_OPEN15
340
0
102
{BLKREFS
331
BE5B1
331
BE5B2
331
BE5BA
331
BE5BB
331
BE5C3
331
BE5C4
102
}
  0
BLOCK_RECORD
  5
5C
330
1
100
AcDbSymbolTableRecord
100
AcDbBlockTableRecord
  2
_Open30
340
0
  0
BLOCK_RECORD
  5
62
330
1
100
AcDbSymbolTableRecord
100
AcDbBlockTableRecord
  2
_Open90
340
0
  0
BLOCK_RECORD
  5
3786
330
1
100
AcDbSymbolTableRecord
100
AcDbBlockTableRecord
  2
PH_GRPBLK
340
0
102
{BLKREFS
331
BE6A2
331
BE6A5
331
BE6A9
331
BE731
102
}
  0
BLOCK_RECORD
  5
3851
330
1
100
AcDbSymbolTableRecord
100
AcDbBlockTableRecord
  2
_Open
340
0
  0
BLOCK_RECORD
  5
3BCDD
330
1
100
AcDbSymbolTableRecord
100
AcDbBlockTableRecord
  2
_Origin
340
0
  0
BLOCK_RECORD
  5
AF9E1
330
1
100
AcDbSymbolTableRecord
100
AcDbBlockTableRecord
  2
*D7
340
0
  0
BLOCK_RECORD
  5
B0C42
330
1
100
AcDbSymbolTableRecord
100
AcDbBlockTableRecord
  2
*D8
340
0
  0
BLOCK_RECORD
  5
B8AFB
330
1
100
AcDbSymbolTableRecord
100
AcDbBlockTableRecord
  2
*D9
340
0
  0
ENDTAB
  0
ENDSEC
  0
SECTION
  2
BLOCKS
  0
BLOCK
  5
20
330
1F
100
AcDbEntity
  8
0
100
AcDbBlockBegin
  2
*Model_Space
 70
     0
 10
0.0
 20
0.0
 30
0.0
  3
*Model_Space
  1

  0
ENDBLK
  5
21
330
1F
100
AcDbEntity
  8
0
100
AcDbBlockEnd
  0
BLOCK
  5
1C
330
1B
100
AcDbEntity
 67
     1
  8
0
100
AcDbBlockBegin
  2
*Paper_Space
 70
     0
 10
0.0
 20
0.0
 30
0.0
  3
*Paper_Space
  1

  0
ENDBLK
  5
1D
330
1B
100
AcDbEntity
 67
     1
  8
0
100
AcDbBlockEnd
  0
BLOCK
  5
24
330
23
100
AcDbEntity
 67
     1
  8
0
100
AcDbBlockBegin
  2
*Paper_Space0
 70
     0
 10
0.0
 20
0.0
 30
0.0
  3
*Paper_Space0
  1

  0
ENDBLK
  5
25
330
23
100
AcDbEntity
 67
     1
  8
0
100
AcDbBlockEnd
  0
BLOCK
  5
45
330
41
100
AcDbEntity
  8
0
100
AcDbBlockBegin
  2
_OPEN15
 70
     0
 10
1.0
 20
0.0
 30
0.0
  3
_OPEN15
  1

  0
LINE
  5
42
330
41
100
AcDbEntity
  8
0
  6
ByBlock
 62
     0
100
AcDbLine
 10
0.0
 20
0.0
 30
0.0
 11
1.0
 21
0.0
 31
0.0
  0
LINE
  5
43
330
41
100
AcDbEntity
  8
0
  6
ByBlock
 62
     0
100
AcDbLine
 10
1.0
 20
0.0
 30
0.0
 11
0.0
 21
0.1316524975873958
 31
0.0
  0
LINE
  5
44
330
41
100
AcDbEntity
  8
0
  6
ByBlock
 62
     0
100
AcDbLine
 10
1.0
 20
0.0
 30
0.0
 11
0.0
 21
-0.1316524975873958
 31
0.0
  0
ENDBLK
  5
46
330
41
100
AcDbEntity
  8
0
100
AcDbBlockEnd
  0
BLOCK
  5
60
330
5C
100
AcDbEntity
  8
0
 62
     7
370
    50
100
AcDbBlockBegin
  2
_Open30
 70
     0
 10
0.0
 20
0.0
 30
0.0
  3
_Open30
  1

  0
LINE
  5
5D
330
5C
100
AcDbEntity
  8
0
  6
Continuous
 62
     0
370
    -2
100
AcDbLine
 10
-1.0
 20
0.26794919
 30
0.0
 11
0.0
 21
0.0
 31
0.0
  0
LINE
  5
5E
330
5C
100
AcDbEntity
  8
0
  6
Continuous
 62
     0
370
    -2
100
AcDbLine
 10
0.0
 20
0.0
 30
0.0
 11
-1.0
 21
-0.26794919
 31
0.0
  0
LINE
  5
5F
330
5C
100
AcDbEntity
  8
0
  6
Continuous
 62
     0
370
    -2
100
AcDbLine
 10
0.0
 20
0.0
 30
0.0
 11
-1.0
 21
0.0
 31
0.0
  0
ENDBLK
  5
61
330
5C
100
AcDbEntity
  8
0
 62
     7
370
    50
100
AcDbBlockEnd
  0
BLOCK
  5
66
330
62
100
AcDbEntity
  8
0
 62
     7
370
    50
100
AcDbBlockBegin
  2
_Open90
 70
     0
 10
0.0
 20
0.0
 30
0.0
  3
_Open90
  1

  0
LINE
  5
63
330
62
100
AcDbEntity
  8
0
  6
Continuous
 62
     0
370
    -2
100
AcDbLine
 10
-0.5
 20
0.5
 30
0.0
 11
0.0
 21
0.0
 31
0.0
  0
LINE
  5
64
330
62
100
AcDbEntity
  8
0
  6
Continuous
 62
     0
370
    -2
100
AcDbLine
 10
0.0
 20
0.0
 30
0.0
 11
-0.5
 21
-0.5
 31
0.0
  0
LINE
  5
65
330
62
100
AcDbEntity
  8
0
  6
Continuous
 62
     0
370
    -2
100
AcDbLine
 10
0.0
 20
0.0
 30
0.0
 11
-1.0
 21
0.0
 31
0.0
  0
ENDBLK
  5
67
330
62
100
AcDbEntity
  8
0
 62
     7
370
    50
100
AcDbBlockEnd
  0
BLOCK
  5
3787
330
3786
100
AcDbEntity
  8
0
 62
     7
370
    50
100
AcDbBlockBegin
  2
PH_GRPBLK
 70
     0
 10
0.0
 20
0.0
 30
0.0
  3
PH_GRPBLK
  1

  0
POINT
  5
3788
330
3786
100
AcDbEntity
  8
Defpoints
  6
Continuous
 62
     0
370
    50
100
AcDbPoint
 10
0.0
 20
0.0
 30
0.0
  0
ENDBLK
  5
3789
330
3786
100
AcDbEntity
  8
0
 62
     7
370
    50
100
AcDbBlockEnd
  0
BLOCK
  5
3852
330
3851
100
AcDbEntity
  8
0
100
AcDbBlockBegin
  2
_Open
 70
     0
 10
0.0
 20
0.0
 30
0.0
  3
_Open
  1

  0
LINE
  5
3853
330
3851
100
AcDbEntity
  8
0
 62
     0
370
    -2
100
AcDbLine
 10
-1.0
 20
0.1666666666666666
 30
0.0
 11
0.0
 21
0.0
 31
0.0
  0
LINE
  5
3854
330
3851
100
AcDbEntity
  8
0
 62
     0
370
    -2
100
AcDbLine
 10
-1.0
 20
-0.1666666666666666
 30
0.0
 11
0.0
 21
0.0
 31
0.0
  0
LINE
  5
3855
330
3851
100
AcDbEntity
  8
0
 62
     0
370
    -2
100
AcDbLine
 10
0.0
 20
0.0
 30
0.0
 11
-1.0
 21
0.0
 31
0.0
  0
ENDBLK
  5
3856
330
3851
100
AcDbEntity
  8
0
100
AcDbBlockEnd
  0
BLOCK
  5
3BCE0
330
3BCDD
100
AcDbEntity
  8
0
 62
     1
370
    25
100
AcDbBlockBegin
  2
_Origin
 70
     0
 10
0.0
 20
0.0
 30
0.0
  3
_Origin
  1

  0
CIRCLE
  5
3BCDE
330
3BCDD
100
AcDbEntity
  8
0
  6
ByBlock
 62
     0
370
    -2
100
AcDbCircle
 10
0.0
 20
0.0
 30
0.0
 40
0.5
  0
LINE
  5
3BCDF
330
3BCDD
100
AcDbEntity
  8
0
  6
ByBlock
 62
     0
370
    -2
100
AcDbLine
 10
0.0
 20
0.0
 30
0.0
 11
-1.0
 21
0.0
 31
0.0
  0
ENDBLK
  5
3BCE1
330
3BCDD
100
AcDbEntity
  8
0
 62
     1
370
    25
100
AcDbBlockEnd
  0
BLOCK
  5
AF9EB
330
AF9E1
100
AcDbEntity
  8
0
 62
     1
370
    25
100
AcDbBlockBegin
  2
*D7
 70
     1
 10
0.0
 20
0.0
 30
0.0
  3
*D7
  1

  0
LINE
  5
BE5C0
330
AF9E1
100
AcDbEntity
  8
0
  6
Continuous
 62
     1
370
    25
100
AcDbLine
 10
451.3008234426552
 20
373.7050724649363
 30
0.0
 11
451.3008234426552
 21
387.7043872323147
 31
0.0
  0
LINE
  5
BE5C1
330
AF9E1
100
AcDbEntity
  8
0
  6
Continuous
 62
     1
370
    25
100
AcDbLine
 10
139.9008234426551
 20
373.7050724649362
 30
0.0
 11
139.9008234426551
 21
387.7043872323147
 31
0.0
  0
LINE
  5
BE5C2
330
AF9E1
100
AcDbEntity
  8
0
  6
Continuous
 62
     1
370
    25
100
AcDbLine
 10
447.5808234426551
 20
386.2043872323147
 30
0.0
 11
143.6208234426551
 21
386.2043872323147
 31
0.0
  0
INSERT
  5
BE5C3
330
AF9E1
100
AcDbEntity
  8
0
  6
Continuous
 62
     1
370
    25
100
AcDbBlockReference
  2
_OPEN15
 10
451.3008234426552
 20
386.2043872323147
 30
0.0
 41
3.72
 42
3.72
 43
3.72
  0
INSERT
  5
BE5C4
330
AF9E1
100
AcDbEntity
  8
0
  6
Continuous
 62
     1
370
    25
100
AcDbBlockReference
  2
_OPEN15
 10
139.9008234426551
 20
386.2043872323147
 30
0.0
 41
3.72
 42
3.72
 43
3.72
 50
180.0
  0
MTEXT
  5
BE5C5
330
AF9E1
100
AcDbEntity
  8
0
  6
Continuous
 62
     5
370
    35
100
AcDbMText
 10
295.6008234426552
 20
389.2043872323147
 30
0.0
 40
5.0
 41
0.0
 71
     5
 72
     1
  1
\A1;311.4
 73
     1
 44
1.0
1001
ACAD
1000
MTEXTBEGIN
1070
    73
1070
     1
1070
    44
1040
1.0
1070
    74
1070
     0
1000
MTEXTEND
  0
POINT
  5
BE5C6
330
AF9E1
100
AcDbEntity
  8
Defpoints
  6
Continuous
 62
     0
370
    50
100
AcDbPoint
 10
451.3008234426552
 20
373.7050724649363
 30
0.0
  0
POINT
  5
BE5C7
330
AF9E1
100
AcDbEntity
  8
Defpoints
  6
Continuous
 62
     0
370
    50
100
AcDbPoint
 10
139.9008234426551
 20
373.7050724649362
 30
0.0
  0
POINT
  5
BE5C8
330
AF9E1
100
AcDbEntity
  8
Defpoints
  6
Continuous
 62
     0
370
    50
100
AcDbPoint
 10
139.9008234426551
 20
386.2043872323147
 30
0.0
  0
ENDBLK
  5
AF9EC
330
AF9E1
100
AcDbEntity
  8
0
 62
     1
370
    25
100
AcDbBlockEnd
  0
BLOCK
  5
B0C4C
330
B0C42
100
AcDbEntity
  8
0
 62
     1
370
    25
100
AcDbBlockBegin
  2
*D8
 70
     1
 10
0.0
 20
0.0
 30
0.0
  3
*D8
  1

  0
LINE
  5
BE5B7
330
B0C42
100
AcDbEntity
  8
0
  6
Continuous
 62
     1
370
    25
100
AcDbLine
 10
450.8015086752778
 20
374.2043872323135
 30
0.0
 11
464.8008234426551
 21
374.2043872323135
 31
0.0
  0
LINE
  5
BE5B8
330
B0C42
100
AcDbEntity
  8
0
  6
Continuous
 62
     1
370
    25
100
AcDbLine
 10
450.8015086752777
 20
301.8543872323136
 30
0.0
 11
464.8008234426551
 21
301.8543872323136
 31
0.0
  0
LINE
  5
BE5B9
330
B0C42
100
AcDbEntity
  8
0
  6
Continuous
 62
     1
370
    25
100
AcDbLine
 10
463.3008234426552
 20
370.4843872323135
 30
0.0
 11
463.3008234426552
 21
305.5743872323136
 31
0.0
  0
INSERT
  5
BE5BA
330
B0C42
100
AcDbEntity
  8
0
  6
Continuous
 62
     1
370
    25
100
AcDbBlockReference
  2
_OPEN15
 10
463.3008234426552
 20
374.2043872323135
 30
0.0
 41
3.72
 42
3.72
 43
3.72
 50
90.0
  0
INSERT
  5
BE5BB
330
B0C42
100
AcDbEntity
  8
0
  6
Continuous
 62
     1
370
    25
100
AcDbBlockReference
  2
_OPEN15
 10
463.3008234426552
 20
301.8543872323136
 30
0.0
 41
3.72
 42
3.72
 43
3.72
 50
270.0
  0
MTEXT
  5
BE5BC
330
B0C42
100
AcDbEntity
  8
0
  6
Continuous
 62
     5
370
    35
100
AcDbMText
 10
460.3003313166708
 20
338.0293872323137
 30
0.0
 40
5.0
 41
0.0
 71
     5
 72
     1
  1
\A1;72.35
 11
0.0000000000000001
 21
1.0
 31
0.0
 73
     1
 44
1.0
1001
ACAD
1000
MTEXTBEGIN
1070
    73
1070
     1
1070
    44
1040
1.0
1070
    74
1070
     0
1000
MTEXTEND
  0
POINT
  5
BE5BD
330
B0C42
100
AcDbEntity
  8
Defpoints
  6
Continuous
 62
     0
370
    50
100
AcDbPoint
 10
450.8015086752778
 20
374.2043872323135
 30
0.0
  0
POINT
  5
BE5BE
330
B0C42
100
AcDbEntity
  8
Defpoints
  6
Continuous
 62
     0
370
    50
100
AcDbPoint
 10
450.8015086752777
 20
301.8543872323136
 30
0.0
  0
POINT
  5
BE5BF
330
B0C42
100
AcDbEntity
  8
Defpoints
  6
Continuous
 62
     0
370
    50
100
AcDbPoint
 10
463.3008234426552
 20
301.8543872323136
 30
0.0
  0
ENDBLK
  5
B0C4D
330
B0C42
100
AcDbEntity
  8
0
 62
     1
370
    25
100
AcDbBlockEnd
  0
BLOCK
  5
B8B07
330
B8AFB
100
AcDbEntity
  8
0
 62
     7
370
    50
100
AcDbBlockBegin
  2
*D9
 70
     1
 10
0.0
 20
0.0
 30
0.0
  3
*D9
  1

  0
LINE
  5
BE5AE
330
B8AFB
100
AcDbEntity
  8
0
  6
Continuous
 62
     1
370
    25
100
AcDbLine
 10
44.45345928324195
 20
299.6638359262396
 30
0.0
 11
44.45345928324195
 21
288.3543872323137
 31
0.0
  0
LINE
  5
BE5AF
330
B8AFB
100
AcDbEntity
  8
0
  6
Continuous
 62
     1
370
    25
100
AcDbLine
 10
64.24818760206836
 20
301.8543872323136
 30
0.0
 11
64.24818760206836
 21
288.3543872323137
 31
0.0
  0
LINE
  5
BE5B0
330
B8AFB
100
AcDbEntity
  8
0
  6
Continuous
 62
     1
370
    25
100
AcDbLine
 10
48.17345928324195
 20
289.8543872323137
 30
0.0
 11
60.52818760206836
 21
289.8543872323137
 31
0.0
  0
INSERT
  5
BE5B1
330
B8AFB
100
AcDbEntity
  8
0
  6
Continuous
 62
     1
370
    25
100
AcDbBlockReference
  2
_OPEN15
 10
44.45345928324195
 20
289.8543872323137
 30
0.0
 41
3.72
 42
3.72
 43
3.72
 50
180.0
  0
INSERT
  5
BE5B2
330
B8AFB
100
AcDbEntity
  8
0
  6
Continuous
 62
     1
370
    25
100
AcDbBlockReference
  2
_OPEN15
 10
64.24818760206836
 20
289.8543872323137
 30
0.0
 41
3.72
 42
3.72
 43
3.72
  0
MTEXT
  5
BE5B3
330
B8AFB
100
AcDbEntity
  8
0
  6
Continuous
 62
     5
370
    35
100
AcDbMText
 10
54.35082344265516
 20
292.8543872323137
 30
0.0
 40
5.0
 41
0.0
 71
     5
 72
     1
  1
\A1;19.8
 73
     1
 44
1.0
1001
ACAD
1000
MTEXTBEGIN
1070
    73
1070
     1
1070
    44
1040
1.0
1070
    74
1070
     0
1000
MTEXTEND
  0
POINT
  5
BE5B4
330
B8AFB
100
AcDbEntity
  8
Defpoints
  6
Continuous
 62
     0
370
    50
100
AcDbPoint
 10
44.45345928324195
 20
299.6638359262396
 30
0.0
  0
POINT
  5
BE5B5
330
B8AFB
100
AcDbEntity
  8
Defpoints
  6
Continuous
 62
     0
370
    50
100
AcDbPoint
 10
64.24818760206836
 20
301.8543872323136
 30
0.0
  0
POINT
  5
BE5B6
330
B8AFB
100
AcDbEntity
  8
Defpoints
  6
Continuous
 62
     0
370
    50
100
AcDbPoint
 10
64.24818760206836
 20
289.8543872323137
 30
0.0
  0
ENDBLK
  5
B8B08
330
B8AFB
100
AcDbEntity
  8
0
 62
     7
370
    50
100
AcDbBlockEnd
  0
ENDSEC
  0
SECTION
  2
ENTITIES
  0
LINE
  5
AF5F0
330
1F
100
AcDbEntity
  8
0
  6
ACAD_ISO04W100
 62
     1
370
    25
100
AcDbLine
 10
295.6008234426552
 20
376.2043872323136
 30
0.0
 11
295.6008234426552
 21
299.8543872323136
 31
0.0
1001
PHOENIX7010
1002
{
1070
    41
1040
1.0
1002
}
  0
LINE
  5
AF5F6
330
1F
100
AcDbEntity
  8
0
  6
ACAD_ISO04W100
 62
     1
370
    25
100
AcDbLine
 10
295.6008234426552
 20
136.2043872323135
 30
0.0
 11
295.6008234426552
 21
59.85438723231351
 31
0.0
1001
PHOENIX7010
1002
{
1070
    41
1040
1.0
1002
}
  0
LINE
  5
AF5F8
102
{ACAD_REACTORS
330
FF58
102
}
330
1F
100
AcDbEntity
  8
0
  6
ACAD_ISO04W100
 62
     1
 48
0.1431142605795652
370
    25
100
AcDbLine
 10
145.8008234426551
 20
303.2678451543469
 30
0.0
 11
145.8008234426551
 21
312.14092931028
 31
0.0
1001
PHOENIX7010
1002
{
1070
    41
1040
1.0
1002
}
  0
LINE
  5
AF5F9
102
{ACAD_REACTORS
330
FF58
102
}
330
1F
100
AcDbEntity
  8
0
  6
ACAD_ISO04W100
 62
     1
 48
0.1431142605795652
370
    25
100
AcDbLine
 10
150.2373655206216
 20
307.7043872323135
 30
0.0
 11
141.3642813646886
 21
307.7043872323135
 31
0.0
1001
PHOENIX7010
1002
{
1070
    41
1040
1.0
1002
}
  0
LINE
  5
AF5FA
102
{ACAD_REACTORS
330
FF58
102
}
330
1F
100
AcDbEntity
  8
0
  6
ACAD_ISO04W100
 62
     1
 48
0.1431142605795652
370
    25
100
AcDbLine
 10
445.4008234426551
 20
303.2678451543469
 30
0.0
 11
445.4008234426551
 21
312.14092931028
 31
0.0
1001
PHOENIX7010
1002
{
1070
    41
1040
1.0
1002
}
  0
LINE
  5
AF5FB
102
{ACAD_REACTORS
330
FF58
102
}
330
1F
100
AcDbEntity
  8
0
  6
ACAD_ISO04W100
 62
     1
 48
0.1431142605795652
370
    25
100
AcDbLine
 10
449.8373655206217
 20
307.7043872323135
 30
0.0
 11
440.9642813646886
 21
307.7043872323135
 31
0.0
1001
PHOENIX7010
1002
{
1070
    41
1040
1.0
1002
}
  0
LINE
  5
AF5FC
102
{ACAD_REACTORS
330
FF58
102
}
330
1F
100
AcDbEntity
  8
0
  6
ACAD_ISO04W100
 62
     1
 48
0.1431142605795652
370
    25
100
AcDbLine
 10
445.4008234426551
 20
123.917845154347
 30
0.0
 11
445.4008234426551
 21
132.7909293102801
 31
0.0
1001
PHOENIX7010
1002
{
1070
    41
1040
1.0
1002
}
  0
LINE
  5
AF5FD
102
{ACAD_REACTORS
330
FF58
102
}
330
1F
100
AcDbEntity
  8
0
  6
ACAD_ISO04W100
 62
     1
 48
0.1431142605795652
370
    25
100
AcDbLine
 10
449.8373655206217
 20
128.3543872323136
 30
0.0
 11
440.9642813646886
 21
128.3543872323136
 31
0.0
1001
PHOENIX7010
1002
{
1070
    41
1040
1.0
1002
}
  0
LINE
  5
AF5FE
102
{ACAD_REACTORS
330
FF58
102
}
330
1F
100
AcDbEntity
  8
0
  6
ACAD_ISO04W100
 62
     1
 48
0.1431142605795652
370
    25
100
AcDbLine
 10
145.8008234426551
 20
123.9178451543469
 30
0.0
 11
145.8008234426551
 21
132.79092931028
 31
0.0
1001
PHOENIX7010
1002
{
1070
    41
1040
1.0
1002
}
  0
LINE
  5
AF5FF
102
{ACAD_REACTORS
330
FF58
102
}
330
1F
100
AcDbEntity
  8
0
  6
ACAD_ISO04W100
 62
     1
 48
0.1431142605795652
370
    25
100
AcDbLine
 10
150.2373655206216
 20
128.3543872323135
 30
0.0
 11
141.3642813646886
 21
128.3543872323135
 31
0.0
1001
PHOENIX7010
1002
{
1070
    41
1040
1.0
1002
}
  0
ELLIPSE
  5
AF603
102
{ACAD_REACTORS
330
FF58
102
}
330
1F
100
AcDbEntity
  8
0
100
AcDbEllipse
 10
489.6505155866512
 20
219.493805828217
 30
0.0
 11
0.0000000000000917
 21
800.4999999999997
 31
0.0
210
0.0
220
0.0
230
1.0
 40
0.0524077792830412
 41
1.382014875418653
 42
1.453696109767215
1001
PHOENIX7010
1002
{
1070
    41
1040
1.0
1002
}
  0
LINE
  5
AF604
102
{ACAD_REACTORS
330
FF58
102
}
330
1F
100
AcDbEntity
  8
0
100
AcDbLine
 10
447.4448006734187
 20
370.7159745496239
 30
0.0
 11
143.7568462118918
 21
370.7159745496241
 31
0.0
1001
PHOENIX7010
1002
{
1070
    41
1040
1.0
1002
}
  0
LINE
  5
AF605
102
{ACAD_REACTORS
330
FF58
102
}
330
1F
100
AcDbEntity
  8
0
  6
Continuous
 62
     1
100
AcDbLine
 10
143.7568462118918
 20
369.9050071500183
 30
0.0
 11
447.4448006734187
 21
369.9050071500182
 31
0.0
1001
PHOENIX7010
1002
{
1070
    41
1040
1.0
1002
}
  0
ELLIPSE
  5
AF606
102
{ACAD_REACTORS
330
FF58
102
}
330
1F
100
AcDbEntity
  8
0
  6
Continuous
 62
     1
100
AcDbEllipse
 10
102.5497608334138
 20
219.493805828217
 30
0.0
 11
0.0000000000000918
 21
801.5
 31
0.0
210
0.0
220
0.0
230
1.0
 40
0.0523423921597935
 41
4.829489197412369
 42
4.901170431760932
1001
PHOENIX7010
1002
{
1070
    41
1040
1.0
1002
}
  0
ELLIPSE
  5
AF607
102
{ACAD_REACTORS
330
FF58
102
}
330
1F
100
AcDbEntity
  8
0
100
AcDbEllipse
 10
108.4511312986592
 20
219.493805828217
 30
0.0
 11
0.0000000000000061
 21
-800.4999999999997
 31
0.0
210
0.0
220
0.0
230
1.0
 40
0.0524077792830412
 41
1.679148030157655
 42
1.68290367958736
1001
PHOENIX7010
1002
{
1070
    41
1040
1.0
1002
}
  0
ELLIPSE
  5
AF608
102
{ACAD_REACTORS
330
FF58
102
}
330
1F
100
AcDbEntity
  8
0
  6
Continuous
 62
     1
100
AcDbEllipse
 10
109.4497608334138
 20
219.493805828217
 30
0.0
 11
0.0000000000000068
 21
801.5
 31
0.0
210
0.0
220
0.0
230
1.0
 40
0.0523423921597935
 41
4.820740683747448
 42
4.824496333177152
1001
PHOENIX7010
1002
{
1070
    41
1040
1.0
1002
}
  0
ARC
  5
AF609
102
{ACAD_REACTORS
330
FF58
102
}
330
1F
100
AcDbEntity
  8
0
  6
Continuous
 62
     1
100
AcDbCircle
 10
147.1264578794646
 20
309.1227356415467
 30
0.0
 40
4.012546729158239
100
AcDbArc
 50
0.5285724825091302
 51
90.08702927055059
1001
PHOENIX7010
1002
{
1070
    41
1040
1.0
1002
}
  0
ARC
  5
AF60A
102
{ACAD_REACTORS
330
FF58
102
}
330
1F
100
AcDbEntity
  8
0
100
AcDbCircle
 10
147.1324585163139
 20
309.0118784879316
 30
0.0
 40
3.007961259719249
100
AcDbArc
 50
0.6857654981126935
 51
90.2303958908636
1001
PHOENIX7010
1002
{
1070
    41
1040
1.0
1002
}
  0
LINE
  5
AF60B
102
{ACAD_REACTORS
330
FF58
102
}
330
1F
100
AcDbEntity
  8
0
  6
Continuous
 62
     1
100
AcDbLine
 10
147.1203630347208
 20
313.13527774183
 30
0.0
 11
144.2148811737393
 21
313.13527774183
 31
0.0
1001
PHOENIX7010
1002
{
1070
    41
1040
1.0
1002
}
  0
LINE
  5
AF60C
102
{ACAD_REACTORS
330
FF58
102
}
330
1F
100
AcDbEntity
  8
0
100
AcDbLine
 10
144.2148811737393
 20
312.0198154286431
 30
0.0
 11
147.1203630347208
 21
312.0198154286431
 31
0.0
1001
PHOENIX7010
1002
{
1070
    41
1040
1.0
1002
}
  0
LINE
  5
AF60D
102
{ACAD_REACTORS
330
FF58
102
}
330
1F
100
AcDbEntity
  8
0
100
AcDbLine
 10
139.9008234426552
 20
368.2043872323137
 30
0.0
 11
139.9008234426552
 21
302.353701999691
 31
0.0
1001
PHOENIX7010
1002
{
1070
    41
1040
1.0
1002
}
  0
ELLIPSE
  5
AF60E
102
{ACAD_REACTORS
330
FF58
102
}
330
1F
100
AcDbEntity
  8
0
100
AcDbEllipse
 10
140.4015096156541
 20
302.3550734053126
 30
0.0
 11
-0.3545231217175234
 21
-0.3545231217175433
 31
0.0
210
0.0
220
0.0
230
1.0
 40
0.9972646886342372
 41
5.499156671652476
 42
7.067213942706631
1001
PHOENIX7010
1002
{
1070
    41
1040
1.0
1002
}
  0
LINE
  5
AF60F
102
{ACAD_REACTORS
330
FF58
102
}
330
1F
100
AcDbEntity
  8
0
100
AcDbLine
 10
140.4001382100325
 20
301.8543872323136
 30
0.0
 11
450.8015086752778
 21
301.8543872323136
 31
0.0
1001
PHOENIX7010
1002
{
1070
    41
1040
1.0
1002
}
  0
ELLIPSE
  5
AF610
102
{ACAD_REACTORS
330
B1630
330
FF58
102
}
330
1F
100
AcDbEntity
  8
0
100
AcDbEllipse
 10
450.8001372696561
 20
302.3550734053126
 30
0.0
 11
0.3545231217175433
 21
-0.3545231217175234
 31
0.0
210
0.0
220
0.0
230
1.0
 40
0.9972646886342372
 41
5.499156671652458
 42
7.067213942706598
1001
PHOENIX7010
1002
{
1070
    41
1040
1.0
1002
}
  0
LINE
  5
AF611
102
{ACAD_REACTORS
330
FF58
102
}
330
1F
100
AcDbEntity
  8
0
100
AcDbLine
 10
451.3008234426552
 20
302.3537019996908
 30
0.0
 11
451.3008234426552
 21
368.2043872323135
 31
0.0
1001
PHOENIX7010
1002
{
1070
    41
1040
1.0
1002
}
  0
ELLIPSE
  5
AF612
102
{ACAD_REACTORS
330
FF58
102
}
330
1F
100
AcDbEntity
  8
0
100
AcDbEllipse
 10
143.7428463539929
 20
312.5464101436514
 30
0.0
 11
-0.7090462434350667
 21
-0.7090462434350665
 31
0.0
210
0.0
220
0.0
230
1.0
 40
0.9972646886342372
 41
6.27232599958662
 42
7.067213942706649
1001
PHOENIX7010
1002
{
1070
    41
1040
1.0
1002
}
  0
LINE
  5
AF613
102
{ACAD_REACTORS
330
FF58
102
}
330
1F
100
AcDbEntity
  8
0
100
AcDbLine
 10
143.7401035427495
 20
311.5450377976534
 30
0.0
 11
146.6455854037312
 21
311.5450377976534
 31
0.0
1001
PHOENIX7010
1002
{
1070
    41
1040
1.0
1002
}
  0
ELLIPSE
  5
AF614
102
{ACAD_REACTORS
330
FF58
102
}
330
1F
100
AcDbEntity
  8
0
100
AcDbEllipse
 10
146.6373569700011
 20
308.5409207596596
 30
0.0
 11
2.127138730305176
 21
2.127138730305225
 31
0.0
210
0.0
220
0.0
230
0.9999999999999998
 40
0.9972646886342369
 41
5.49915667165252
 42
7.067213942706628
1001
PHOENIX7010
1002
{
1070
    41
1040
1.0
1002
}
  0
LINE
  5
AF615
102
{ACAD_REACTORS
330
FF58
102
}
330
1F
100
AcDbEntity
  8
0
100
AcDbLine
 10
149.6414740079949
 20
308.5491491933896
 30
0.0
 11
149.6414740079949
 21
305.5436673324079
 31
0.0
1001
PHOENIX7010
1002
{
1070
    41
1040
1.0
1002
}
  0
ELLIPSE
  5
AF616
102
{ACAD_REACTORS
330
FF58
102
}
330
1F
100
AcDbEntity
  8
0
100
AcDbEllipse
 10
150.6428463539928
 20
305.5464101436514
 30
0.0
 11
-0.7090462434350667
 21
-0.7090462434350665
 31
0.0
210
0.0
220
0.0
230
1.0
 40
0.9972646886342372
 41
5.499156671652529
 42
6.294044614772576
1001
PHOENIX7010
1002
{
1070
    41
1040
1.0
1002
}
  0
LINE
  5
AF617
102
{ACAD_REACTORS
330
FF58
102
}
330
1F
100
AcDbEntity
  8
0
100
AcDbLine
 10
448.8008234426551
 20
305.2030167670682
 30
0.0
 11
448.4750723677274
 21
305.528767841996
 31
0.0
1001
PHOENIX7010
1002
{
1070
    41
1040
1.0
1002
}
  0
ELLIPSE
  5
AF618
102
{ACAD_REACTORS
330
FF58
102
}
330
1F
100
AcDbEntity
  8
0
100
AcDbEllipse
 10
447.7994510966573
 20
305.2057595783115
 30
0.0
 11
0.7090462434350667
 21
-0.709046243435067
 31
0.0
210
0.0
220
0.0
230
1.0
 40
0.9972646886342372
 41
5.499156671652523
 42
7.067213942706643
1001
PHOENIX7010
1002
{
1070
    41
1040
1.0
1002
}
  0
LINE
  5
AF619
102
{ACAD_REACTORS
330
FF58
102
}
330
1F
100
AcDbEntity
  8
0
100
AcDbLine
 10
142.4008234426552
 20
305.2030167670682
 30
0.0
 11
142.4008234426552
 21
370.0747382493513
 31
0.0
1001
PHOENIX7010
1002
{
1070
    41
1040
1.0
1002
}
  0
LINE
  5
AF61A
102
{ACAD_REACTORS
330
FF58
102
}
330
1F
100
AcDbEntity
  8
0
100
AcDbLine
 10
142.4008234426552
 20
370.0747382493513
 30
0.0
 11
142.7582166771371
 21
369.7173450148694
 31
0.0
1001
PHOENIX7010
1002
{
1070
    41
1040
1.0
1002
}
  0
ELLIPSE
  5
AF61B
102
{ACAD_REACTORS
330
FF58
102
}
330
1F
100
AcDbEntity
  8
0
100
AcDbEllipse
 10
101.5511312986592
 20
219.493805828217
 30
0.0
 11
-0.0000000000000917
 21
-800.4999999999997
 31
0.0
210
0.0
220
0.0
230
1.0
 40
0.0524077792830412
 41
1.687896543822577
 42
1.759577778171139
1001
PHOENIX7010
1002
{
1070
    41
1040
1.0
1002
}
  0
LINE
  5
AF61C
102
{ACAD_REACTORS
330
FF58
102
}
330
1F
100
AcDbEntity
  8
0
100
AcDbLine
 10
142.726574517583
 20
312.5287678419961
 30
0.0
 11
143.2162516389846
 21
313.0184449633977
 31
0.0
1001
PHOENIX7010
1002
{
1070
    41
1040
1.0
1002
}
  0
ELLIPSE
  5
AF61D
102
{ACAD_REACTORS
330
FF58
102
}
330
1F
100
AcDbEntity
  8
0
100
AcDbEllipse
 10
143.4021957886531
 20
305.2057595783115
 30
0.0
 11
-0.709046243435067
 21
-0.7090462434350667
 31
0.0
210
0.0
220
0.0
230
1.0
 40
0.9972646886342372
 41
5.499156671652529
 42
7.067213942706621
1001
PHOENIX7010
1002
{
1070
    41
1040
1.0
1002
}
  0
LINE
  5
AF61E
102
{ACAD_REACTORS
330
FF58
102
}
330
1F
100
AcDbEntity
  8
0
100
AcDbLine
 10
142.726574517583
 20
305.528767841996
 30
0.0
 11
142.4008234426552
 21
305.2030167670682
 31
0.0
1001
PHOENIX7010
1002
{
1070
    41
1040
1.0
1002
}
  0
LINE
  5
AF61F
102
{ACAD_REACTORS
330
FF58
102
}
330
1F
100
AcDbEntity
  8
0
100
AcDbLine
 10
447.4764428329727
 20
304.5301383072414
 30
0.0
 11
447.8021939079005
 21
304.2043872323136
 31
0.0
1001
PHOENIX7010
1002
{
1070
    41
1040
1.0
1002
}
  0
LINE
  5
AF620
102
{ACAD_REACTORS
330
FF58
102
}
330
1F
100
AcDbEntity
  8
0
100
AcDbLine
 10
447.8021939079006
 20
304.2043872323136
 30
0.0
 11
143.3994529774097
 21
304.2043872323136
 31
0.0
1001
PHOENIX7010
1002
{
1070
    41
1040
1.0
1002
}
  0
LINE
  5
AF621
102
{ACAD_REACTORS
330
FF58
102
}
330
1F
100
AcDbEntity
  8
0
100
AcDbLine
 10
143.3994529774097
 20
304.2043872323136
 30
0.0
 11
143.7252040523376
 21
304.5301383072414
 31
0.0
1001
PHOENIX7010
1002
{
1070
    41
1040
1.0
1002
}
  0
LINE
  5
AF622
102
{ACAD_REACTORS
330
FF58
102
}
330
1F
100
AcDbEntity
  8
0
100
AcDbLine
 10
151.1561663138632
 20
305.0611005687671
 30
0.0
 11
150.6252040523376
 21
304.5301383072414
 31
0.0
1001
PHOENIX7010
1002
{
1070
    41
1040
1.0
1002
}
  0
LINE
  5
AF623
102
{ACAD_REACTORS
330
FF58
102
}
330
1F
100
AcDbEntity
  8
0
100
AcDbLine
 10
151.1561663138632
 20
305.0611005687671
 30
0.0
 11
440.0454805714471
 21
305.0611005687671
 31
0.0
1001
PHOENIX7010
1002
{
1070
    41
1040
1.0
1002
}
  0
LINE
  5
AF624
102
{ACAD_REACTORS
330
FF58
102
}
330
1F
100
AcDbEntity
  8
0
100
AcDbLine
 10
440.5764428329728
 20
304.5301383072414
 30
0.0
 11
440.0454805714471
 21
305.0611005687671
 31
0.0
1001
PHOENIX7010
1002
{
1070
    41
1040
1.0
1002
}
  0
LINE
  5
AF625
102
{ACAD_REACTORS
330
FF58
102
}
330
1F
100
AcDbEntity
  8
0
100
AcDbLine
 10
143.7252040523376
 20
304.5301383072414
 30
0.0
 11
150.6252040523376
 21
304.5301383072414
 31
0.0
1001
PHOENIX7010
1002
{
1070
    41
1040
1.0
1002
}
  0
LINE
  5
AF626
102
{ACAD_REACTORS
330
FF58
102
}
330
1F
100
AcDbEntity
  8
0
  6
Continuous
 62
     1
100
AcDbLine
 10
149.9415204562517
 20
304.8297271676678
 30
0.0
 11
143.7252040523376
 21
304.8297271676678
 31
0.0
1001
PHOENIX7010
1002
{
1070
    41
1040
1.0
1002
}
  0
ARC
  5
AF627
102
{ACAD_REACTORS
330
FF58
102
}
330
1F
100
AcDbEntity
  8
0
100
AcDbCircle
 10
150.6658877300389
 20
305.5528837292874
 30
0.0
 40
1.023554277968308
100
AcDbArc
 50
224.9520776932804
 51
267.7220384978255
1001
PHOENIX7010
1002
{
1070
    41
1040
1.0
1002
}
  0
ELLIPSE
  5
AF628
102
{ACAD_REACTORS
330
FF58
102
}
330
1F
100
AcDbEntity
  8
0
100
AcDbEllipse
 10
143.7271240202079
 20
305.5306878098664
 30
0.0
 11
-0.7078841575959134
 21
-0.7078841575958848
 31
0.0
210
0.0
220
0.0
230
1.0
 40
0.9989018310397099
 41
5.499156671652547
 42
7.067213942706656
1001
PHOENIX7010
1002
{
1070
    41
1040
1.0
1002
}
  0
ELLIPSE
  5
AF629
102
{ACAD_REACTORS
330
FF58
102
}
330
1F
100
AcDbEntity
  8
0
  6
Continuous
 62
     1
100
AcDbEllipse
 10
143.7271240202079
 20
305.5306878098664
 30
0.0
 11
-0.4963323704045468
 21
-0.4963323704045467
 31
0.0
210
0.0
220
0.0
230
1.0
 40
0.9972646886342372
 41
5.499156671652518
 42
7.067213942706656
1001
PHOENIX7010
1002
{
1070
    41
1040
1.0
1002
}
  0
LINE
  5
AF62A
102
{ACAD_REACTORS
330
FF58
102
}
330
1F
100
AcDbEntity
  8
0
100
AcDbLine
 10
142.726574517583
 20
312.5287678419961
 30
0.0
 11
142.726574517583
 21
305.528767841996
 31
0.0
1001
PHOENIX7010
1002
{
1070
    41
1040
1.0
1002
}
  0
ARC
  5
AF62B
102
{ACAD_REACTORS
330
FF58
102
}
330
1F
100
AcDbEntity
  8
0
100
AcDbCircle
 10
143.7493199396289
 20
312.5694515196973
 30
0.0
 40
1.023554277968199
100
AcDbArc
 50
182.2779615021745
 51
225.0479223066459
1001
PHOENIX7010
1002
{
1070
    41
1040
1.0
1002
}
  0
LINE
  5
AF62C
102
{ACAD_REACTORS
330
FF58
102
}
330
1F
100
AcDbEntity
  8
0
  6
Continuous
 62
     1
100
AcDbLine
 10
143.0261633780094
 20
305.528767841996
 30
0.0
 11
143.0261633780094
 21
311.8450842459102
 31
0.0
1001
PHOENIX7010
1002
{
1070
    41
1040
1.0
1002
}
  0
ELLIPSE
  5
AF62D
102
{ACAD_REACTORS
330
FF58
102
}
330
1F
100
AcDbEntity
  8
0
100
AcDbEllipse
 10
440.5588005313175
 20
305.5464101436513
 30
0.0
 11
0.7090462434350665
 21
-0.7090462434350667
 31
0.0
210
0.0
220
0.0
230
1.0
 40
0.9972646886342372
 41
6.272325999586622
 42
7.067213942706643
1001
PHOENIX7010
1002
{
1070
    41
1040
1.0
1002
}
  0
LINE
  5
AF62E
102
{ACAD_REACTORS
330
FF58
102
}
330
1F
100
AcDbEntity
  8
0
100
AcDbLine
 10
441.5601728773153
 20
305.5436673324079
 30
0.0
 11
441.5601728773153
 21
308.5491491933896
 31
0.0
1001
PHOENIX7010
1002
{
1070
    41
1040
1.0
1002
}
  0
ELLIPSE
  5
AF62F
102
{ACAD_REACTORS
330
FF58
102
}
330
1F
100
AcDbEntity
  8
0
100
AcDbEllipse
 10
444.5642899153092
 20
308.5409207596596
 30
0.0
 11
-2.127138730305194
 21
2.127138730305205
 31
0.0
210
0.0
220
0.0
230
1.0
 40
0.9972646886342372
 41
5.499156671652536
 42
7.067213942706645
1001
PHOENIX7010
1002
{
1070
    41
1040
1.0
1002
}
  0
LINE
  5
AF630
102
{ACAD_REACTORS
330
FF58
102
}
330
1F
100
AcDbEntity
  8
0
100
AcDbLine
 10
444.5560614815791
 20
311.5450377976534
 30
0.0
 11
447.4615433425608
 21
311.5450377976534
 31
0.0
1001
PHOENIX7010
1002
{
1070
    41
1040
1.0
1002
}
  0
ELLIPSE
  5
AF631
102
{ACAD_REACTORS
330
FF58
102
}
330
1F
100
AcDbEntity
  8
0
100
AcDbEllipse
 10
447.4588005313176
 20
312.5464101436512
 30
0.0
 11
0.7090462434350665
 21
-0.7090462434350667
 31
0.0
210
0.0
220
0.0
230
1.0
 40
0.9972646886342372
 41
5.49915667165255
 42
6.294044614772554
1001
PHOENIX7010
1002
{
1070
    41
1040
1.0
1002
}
  0
LINE
  5
AF632
102
{ACAD_REACTORS
330
FF58
102
}
330
1F
100
AcDbEntity
  8
0
  6
Continuous
 62
     1
100
AcDbLine
 10
447.4764428329727
 20
304.8297271676678
 30
0.0
 11
441.2601264290585
 21
304.8297271676678
 31
0.0
1001
PHOENIX7010
1002
{
1070
    41
1040
1.0
1002
}
  0
LINE
  5
AF633
102
{ACAD_REACTORS
330
FF58
102
}
330
1F
100
AcDbEntity
  8
0
100
AcDbLine
 10
440.5764428329728
 20
304.5301383072414
 30
0.0
 11
447.4764428329729
 21
304.5301383072414
 31
0.0
1001
PHOENIX7010
1002
{
1070
    41
1040
1.0
1002
}
  0
ARC
  5
AF634
102
{ACAD_REACTORS
330
FF58
102
}
330
1F
100
AcDbEntity
  8
0
100
AcDbCircle
 10
440.5358885867421
 20
305.5525883572457
 30
0.0
 40
1.023254001527056
100
AcDbArc
 50
272.2713772642659
 51
315.0545065446236
1001
PHOENIX7010
1002
{
1070
    41
1040
1.0
1002
}
  0
ELLIPSE
  5
AF635
102
{ACAD_REACTORS
330
FF58
102
}
330
1F
100
AcDbEntity
  8
0
  6
Continuous
 62
     1
100
AcDbEllipse
 10
447.4745228651024
 20
305.5306878098664
 30
0.0
 11
0.4963323704045467
 21
-0.4963323704045468
 31
0.0
210
0.0
220
0.0
230
1.0
 40
0.9972646886342372
 41
5.499156671652515
 42
7.067213942706654
1001
PHOENIX7010
1002
{
1070
    41
1040
1.0
1002
}
  0
ELLIPSE
  5
AF636
102
{ACAD_REACTORS
330
FF58
102
}
330
1F
100
AcDbEntity
  8
0
100
AcDbEllipse
 10
447.4745228651024
 20
305.5306878098664
 30
0.0
 11
0.7078841575959132
 21
-0.707884157595885
 31
0.0
210
0.0
220
0.0
230
1.0
 40
0.9989018310397099
 41
5.499156671652515
 42
7.067213942706623
1001
PHOENIX7010
1002
{
1070
    41
1040
1.0
1002
}
  0
LINE
  5
AF637
102
{ACAD_REACTORS
330
FF58
102
}
330
1F
100
AcDbEntity
  8
0
  6
Continuous
 62
     1
100
AcDbLine
 10
448.175483507301
 20
311.8450842459102
 30
0.0
 11
448.175483507301
 21
305.528767841996
 31
0.0
1001
PHOENIX7010
1002
{
1070
    41
1040
1.0
1002
}
  0
ARC
  5
AF638
102
{ACAD_REACTORS
330
FF58
102
}
330
1F
100
AcDbEntity
  8
0
100
AcDbCircle
 10
447.4523269456817
 20
312.5694515196972
 30
0.0
 40
1.023554277968019
100
AcDbArc
 50
314.9520776932712
 51
357.7220384978255
1001
PHOENIX7010
1002
{
1070
    41
1040
1.0
1002
}
  0
LINE
  5
AF639
102
{ACAD_REACTORS
330
FF58
102
}
330
1F
100
AcDbEntity
  8
0
100
AcDbLine
 10
448.4750723677272
 20
305.528767841996
 30
0.0
 11
448.4750723677272
 21
312.5287678419961
 31
0.0
1001
PHOENIX7010
1002
{
1070
    41
1040
1.0
1002
}
  0
LINE
  5
AF63A
102
{ACAD_REACTORS
330
FF58
102
}
330
1F
100
AcDbEntity
  8
0
100
AcDbLine
 10
439.6008234426552
 20
307.2072888285967
 30
0.0
 11
439.6008234426552
 21
368.2043872323135
 31
0.0
1001
PHOENIX7010
1002
{
1070
    41
1040
1.0
1002
}
  0
LINE
  5
AF63B
102
{ACAD_REACTORS
330
FF58
102
}
330
1F
100
AcDbEntity
  8
0
100
AcDbLine
 10
151.6008234426551
 20
368.2043872323137
 30
0.0
 11
151.6008234426551
 21
307.207288828597
 31
0.0
1001
PHOENIX7010
1002
{
1070
    41
1040
1.0
1002
}
  0
ELLIPSE
  5
AF63C
102
{ACAD_REACTORS
330
FF58
102
}
330
1F
100
AcDbEntity
  8
0
100
AcDbEllipse
 10
151.1561663138632
 20
306.0597301035218
 30
0.0
 11
-0.7071067811865369
 21
0.7071067811865445
 31
0.0
210
0.0
220
0.0
230
1.0
 40
0.9972646886342374
 41
0.7867676912679053
 42
2.354824962321954
1001
PHOENIX7010
1002
{
1070
    41
1040
1.0
1002
}
  0
ELLIPSE
  5
AF63D
102
{ACAD_REACTORS
330
FF58
102
}
330
1F
100
AcDbEntity
  8
0
100
AcDbEllipse
 10
144.2148811737393
 20
313.0184449633977
 30
0.0
 11
-0.7071067811865389
 21
0.7071067811865463
 31
0.0
210
0.0
220
0.0
230
1.0
 40
0.9972646886342374
 41
0.7867676912679017
 42
2.354824962321954
1001
PHOENIX7010
1002
{
1070
    41
1040
1.0
1002
}
  0
ELLIPSE
  5
AF63E
102
{ACAD_REACTORS
330
FF58
102
}
330
1F
100
AcDbEntity
  8
0
100
AcDbEllipse
 10
440.0454805714471
 20
306.0597301035218
 30
0.0
 11
-0.7071067811864679
 21
-0.7071067811866207
 31
0.0
210
0.0
220
0.0
230
1.0
 40
0.9972646886342374
 41
0.7867676912677341
 42
2.35482496232179
1001
PHOENIX7010
1002
{
1070
    41
1040
1.0
1002
}
  0
LINE
  5
AF63F
102
{ACAD_REACTORS
330
FF58
102
}
330
1F
100
AcDbEntity
  8
0
  6
Continuous
 62
     1
100
AcDbLine
 10
440.0454805714471
 20
306.1678699214796
 30
0.0
 11
440.0454805714471
 21
305.0611005687671
 31
0.0
1001
PHOENIX7010
1002
{
1070
    41
1040
1.0
1002
}
  0
LINE
  5
AF640
102
{ACAD_REACTORS
330
FF58
102
}
330
1F
100
AcDbEntity
  8
0
  6
Continuous
 62
     1
100
AcDbLine
 10
151.1561663138632
 20
305.0611005687671
 30
0.0
 11
151.1561663138632
 21
306.1678699214796
 31
0.0
1001
PHOENIX7010
1002
{
1070
    41
1040
1.0
1002
}
  0
ELLIPSE
  5
AF641
102
{ACAD_REACTORS
330
FF58
102
}
330
1F
100
AcDbEntity
  8
0
100
AcDbEllipse
 10
143.7568462118917
 20
369.7173450148695
 30
0.0
 11
-0.7071067811864661
 21
-0.707106781186619
 31
0.0
210
0.0
220
0.0
230
1.0
 40
0.9972646886342372
 41
3.928360344857527
 42
5.496417615911684
1001
PHOENIX7010
1002
{
1070
    41
1040
1.0
1002
}
  0
ELLIPSE
  5
AF642
102
{ACAD_REACTORS
330
FF58
102
}
330
1F
100
AcDbEntity
  8
0
100
AcDbEllipse
 10
447.4448006734187
 20
369.7173450148694
 30
0.0
 11
-0.7071067811865386
 21
0.7071067811865462
 31
0.0
210
0.0
220
0.0
230
1.0
 40
0.9972646886342372
 41
3.928360344857591
 42
5.496417615911748
1001
PHOENIX7010
1002
{
1070
    41
1040
1.0
1002
}
  0
ELLIPSE
  5
AF643
102
{ACAD_REACTORS
330
FF58
102
}
330
1F
100
AcDbEntity
  8
0
100
AcDbEllipse
 10
446.9867657115712
 20
313.0184449633976
 30
0.0
 11
-0.7071067811864661
 21
-0.707106781186619
 31
0.0
210
0.0
220
0.0
230
1.0
 40
0.9972646886342374
 41
0.7867676912677341
 42
2.354824962321788
1001
PHOENIX7010
1002
{
1070
    41
1040
1.0
1002
}
  0
ELLIPSE
  5
AF644
102
{ACAD_REACTORS
330
FF58
102
}
330
1F
100
AcDbEntity
  8
0
  6
Continuous
 62
     1
100
AcDbEllipse
 10
440.0454805714471
 20
306.0597301035216
 30
0.0
 11
-0.999983750841887
 21
0.0057007063026505
 31
0.0
210
0.0
220
0.0
230
1.0
 40
0.1081380813252833
 41
3.194261671790637
 42
4.713005453765508
1001
PHOENIX7010
1002
{
1070
    41
1040
1.0
1002
}
  0
ELLIPSE
  5
AF645
102
{ACAD_REACTORS
330
FF58
102
}
330
1F
100
AcDbEntity
  8
0
  6
Continuous
 62
     1
100
AcDbEllipse
 10
440.062813022815
 20
309.0478795131358
 30
0.0
 11
-0.9999825952451375
 21
0.0058999327778037
 31
0.0
210
0.0
220
0.0
230
1.0
 40
0.1118707489383363
 41
3.194283588028571
 42
4.713049021675237
1001
PHOENIX7010
1002
{
1070
    41
1040
1.0
1002
}
  0
LINE
  5
AF646
102
{ACAD_REACTORS
330
FF58
102
}
330
1F
100
AcDbEntity
  8
0
  6
Continuous
 62
     1
100
AcDbLine
 10
446.9867657115712
 20
313.13527774183
 30
0.0
 11
446.9867657115712
 21
312.0198154286431
 31
0.0
1001
PHOENIX7010
1002
{
1070
    41
1040
1.0
1002
}
  0
LINE
  5
AF647
102
{ACAD_REACTORS
330
FF58
102
}
330
1F
100
AcDbEntity
  8
0
  6
Continuous
 62
     1
100
AcDbLine
 10
444.0812838505894
 20
312.019815428643
 30
0.0
 11
444.0812838505894
 21
313.13527774183
 31
0.0
1001
PHOENIX7010
1002
{
1070
    41
1040
1.0
1002
}
  0
ELLIPSE
  5
AF648
102
{ACAD_REACTORS
330
FF58
102
}
330
1F
100
AcDbEntity
  8
0
  6
Continuous
 62
     1
100
AcDbEllipse
 10
447.4448006734186
 20
369.7173450148694
 30
0.0
 11
-0.9999498752102976
 21
0.0100123457248396
 31
0.0
210
0.0
220
0.0
230
1.0
 40
0.1876530598700954
 41
3.194900397526082
 42
4.714267919666776
1001
PHOENIX7010
1002
{
1070
    41
1040
1.0
1002
}
  0
ELLIPSE
  5
AF649
102
{ACAD_REACTORS
330
FF58
102
}
330
1F
100
AcDbEntity
  8
0
  6
Continuous
 62
     1
100
AcDbEllipse
 10
446.9867657115712
 20
313.0184449633976
 30
0.0
 11
-0.9999809958934326
 21
0.0061650508340952
 31
0.0
210
0.0
220
0.0
230
1.0
 40
0.1168305884359838
 41
3.194313905196182
 42
4.713109260465095
1001
PHOENIX7010
1002
{
1070
    41
1040
1.0
1002
}
  0
LINE
  5
AF64A
102
{ACAD_REACTORS
330
FF58
102
}
330
1F
100
AcDbEntity
  8
0
  6
Continuous
 62
     1
100
AcDbLine
 10
447.4448006734187
 20
370.7159745496239
 30
0.0
 11
447.4448006734187
 21
369.9050071500182
 31
0.0
1001
PHOENIX7010
1002
{
1070
    41
1040
1.0
1002
}
  0
LINE
  5
AF64B
102
{ACAD_REACTORS
330
FF58
102
}
330
1F
100
AcDbEntity
  8
0
  6
Continuous
 62
     1
100
AcDbLine
 10
143.7568462118917
 20
369.9050071500182
 30
0.0
 11
143.7568462118917
 21
370.7159745496241
 31
0.0
1001
PHOENIX7010
1002
{
1070
    41
1040
1.0
1002
}
  0
ELLIPSE
  5
AF64C
102
{ACAD_REACTORS
330
FF58
102
}
330
1F
100
AcDbEntity
  8
0
  6
Continuous
 62
     1
100
AcDbEllipse
 10
144.2148811737393
 20
313.0184449633977
 30
0.0
 11
-0.9999809958935127
 21
-0.0061650508340955
 31
0.0
210
0.0
220
0.0
230
1.0
 40
0.1168305884359838
 41
4.711668700304284
 42
6.230464055573197
1001
PHOENIX7010
1002
{
1070
    41
1040
1.0
1002
}
  0
ELLIPSE
  5
AF64D
102
{ACAD_REACTORS
330
FF58
102
}
330
1F
100
AcDbEntity
  8
0
  6
Continuous
 62
     1
100
AcDbEllipse
 10
143.7568462118918
 20
369.7173450148694
 30
0.0
 11
-0.9999498752103809
 21
-0.0100123457248402
 31
0.0
210
0.0
220
0.0
230
1.0
 40
0.1876530598700954
 41
4.710510041102574
 42
6.229877563243297
1001
PHOENIX7010
1002
{
1070
    41
1040
1.0
1002
}
  0
ELLIPSE
  5
AF64E
102
{ACAD_REACTORS
330
FF58
102
}
330
1F
100
AcDbEntity
  8
0
  6
Continuous
 62
     1
100
AcDbEllipse
 10
151.1561663138632
 20
306.0597301035216
 30
0.0
 11
-0.9999837508417757
 21
-0.0057007063026211
 31
0.0
210
0.0
220
0.0
230
1.0
 40
0.1081380813252831
 41
4.711772507003816
 42
6.230516288978741
1001
PHOENIX7010
1002
{
1070
    41
1040
1.0
1002
}
  0
ELLIPSE
  5
AF64F
102
{ACAD_REACTORS
330
FF58
102
}
330
1F
100
AcDbEntity
  8
0
  6
Continuous
 62
     1
100
AcDbEllipse
 10
151.1388338624954
 20
309.0478795131359
 30
0.0
 11
-0.9999825952451431
 21
-0.0058999327778041
 31
0.0
210
0.0
220
0.0
230
1.0
 40
0.1118707489383434
 41
4.711728939094141
 42
6.230494372740805
1001
PHOENIX7010
1002
{
1070
    41
1040
1.0
1002
}
  0
LINE
  5
AF650
102
{ACAD_REACTORS
330
FF58
102
}
330
1F
100
AcDbEntity
  8
0
  6
Continuous
 62
     1
100
AcDbLine
 10
147.1203630347208
 20
313.13527774183
 30
0.0
 11
147.1203630347208
 21
312.0198154286431
 31
0.0
1001
PHOENIX7010
1002
{
1070
    41
1040
1.0
1002
}
  0
LINE
  5
AF651
102
{ACAD_REACTORS
330
FF58
102
}
330
1F
100
AcDbEntity
  8
0
  6
Continuous
 62
     1
100
AcDbLine
 10
144.2148811737393
 20
312.0198154286431
 30
0.0
 11
144.2148811737393
 21
313.13527774183
 31
0.0
1001
PHOENIX7010
1002
{
1070
    41
1040
1.0
1002
}
  0
CIRCLE
  5
AF652
102
{ACAD_REACTORS
330
FF58
102
}
330
1F
100
AcDbEntity
  8
0
100
AcDbCircle
 10
145.8008234426552
 20
307.7043872323135
 30
0.0
 40
1.149999999999999
1001
PHOENIX7010
1002
{
1070
    41
1040
1.0
1002
}
  0
CIRCLE
  5
AF653
102
{ACAD_REACTORS
330
FF58
102
}
330
1F
100
AcDbEntity
  8
0
100
AcDbCircle
 10
445.4008234426551
 20
307.7043872323135
 30
0.0
 40
1.149999999999999
1001
PHOENIX7010
1002
{
1070
    41
1040
1.0
1002
}
  0
CIRCLE
  5
AF654
102
{ACAD_REACTORS
330
FF58
102
}
330
1F
100
AcDbEntity
  8
0
100
AcDbCircle
 10
145.8008234426552
 20
307.7043872323135
 30
0.0
 40
1.450000000000011
1001
PHOENIX7010
1002
{
1070
    41
1040
1.0
1002
}
  0
LINE
  5
AF655
102
{ACAD_REACTORS
330
FF58
102
}
330
1F
100
AcDbEntity
  8
0
  6
Continuous
 62
     1
100
AcDbLine
 10
143.7252040523376
 20
304.8297271676678
 30
0.0
 11
143.7252040523376
 21
304.5301383072414
 31
0.0
1001
PHOENIX7010
1002
{
1070
    41
1040
1.0
1002
}
  0
LINE
  5
AF656
102
{ACAD_REACTORS
330
FF58
102
}
330
1F
100
AcDbEntity
  8
0
  6
Continuous
 62
     1
100
AcDbLine
 10
143.0261633780094
 20
305.528767841996
 30
0.0
 11
142.726574517583
 21
305.528767841996
 31
0.0
1001
PHOENIX7010
1002
{
1070
    41
1040
1.0
1002
}
  0
CIRCLE
  5
AF657
102
{ACAD_REACTORS
330
FF58
102
}
330
1F
100
AcDbEntity
  8
0
100
AcDbCircle
 10
445.4008234426551
 20
307.7043872323135
 30
0.0
 40
1.450000000000011
1001
PHOENIX7010
1002
{
1070
    41
1040
1.0
1002
}
  0
LINE
  5
AF658
102
{ACAD_REACTORS
330
FF58
102
}
330
1F
100
AcDbEntity
  8
0
  6
Continuous
 62
     1
100
AcDbLine
 10
447.4764428329727
 20
304.5301383072414
 30
0.0
 11
447.4764428329727
 21
304.8297271676678
 31
0.0
1001
PHOENIX7010
1002
{
1070
    41
1040
1.0
1002
}
  0
LINE
  5
AF659
102
{ACAD_REACTORS
330
FF58
102
}
330
1F
100
AcDbEntity
  8
0
  6
Continuous
 62
     1
100
AcDbLine
 10
448.4750723677272
 20
305.528767841996
 30
0.0
 11
448.1754835073009
 21
305.528767841996
 31
0.0
1001
PHOENIX7010
1002
{
1070
    41
1040
1.0
1002
}
  0
LINE
  5
AF65A
102
{ACAD_REACTORS
330
FF58
102
}
330
1F
100
AcDbEntity
  8
0
100
AcDbLine
 10
64.24818760206836
 20
363.1825700628366
 30
0.0
 11
66.74818760206836
 21
363.2043872323135
 31
0.0
1001
PHOENIX7010
1002
{
1070
    41
1040
1.0
1002
}
  0
LINE
  5
AF65B
102
{ACAD_REACTORS
330
FF58
102
}
330
1F
100
AcDbEntity
  8
0
100
AcDbLine
 10
49.74478481691176
 20
308.4733863884264
 30
0.0
 11
58.24818760206835
 21
308.0277419321072
 31
0.0
1001
PHOENIX7010
1002
{
1070
    41
1040
1.0
1002
}
  0
LINE
  5
AF65D
102
{ACAD_REACTORS
330
FF58
102
}
330
1F
100
AcDbEntity
  8
0
100
AcDbLine
 10
58.24818760206835
 20
314.5188339080118
 30
0.0
 11
50.49671443673219
 21
314.9250714027792
 31
0.0
1001
PHOENIX7010
1002
{
1070
    41
1040
1.0
1002
}
  0
LINE
  5
AF65E
102
{ACAD_REACTORS
330
FF58
102
}
330
1F
100
AcDbEntity
  8
0
100
AcDbLine
 10
58.24818760206835
 20
307.5188339080118
 30
0.0
 11
58.24818760206835
 21
308.0277419321071
 31
0.0
1001
PHOENIX7010
1002
{
1070
    41
1040
1.0
1002
}
  0
LINE
  5
AF65F
102
{ACAD_REACTORS
330
FF58
102
}
330
1F
100
AcDbEntity
  8
0
100
AcDbLine
 10
58.24818760206835
 20
314.5188339080118
 30
0.0
 11
58.24818760206835
 21
308.0277419321071
 31
0.0
1001
PHOENIX7010
1002
{
1070
    41
1040
1.0
1002
}
  0
LINE
  5
AF660
102
{ACAD_REACTORS
330
FF58
102
}
330
1F
100
AcDbEntity
  8
0
100
AcDbLine
 10
64.24818760206836
 20
368.2043872323137
 30
0.0
 11
64.24818760206836
 21
311.7043872323137
 31
0.0
1001
PHOENIX7010
1002
{
1070
    41
1040
1.0
1002
}
  0
LINE
  5
AF661
102
{ACAD_REACTORS
330
FF58
102
}
330
1F
100
AcDbEntity
  8
0
100
AcDbLine
 10
66.74818760206836
 20
369.6477629052876
 30
0.0
 11
66.74818760206836
 21
363.2043872323135
 31
0.0
1001
PHOENIX7010
1002
{
1070
    41
1040
1.0
1002
}
  0
LINE
  5
AF662
102
{ACAD_REACTORS
330
FF58
102
}
330
1F
100
AcDbEntity
  8
0
100
AcDbLine
 10
49.68807280521833
 20
307.9674505149226
 30
0.0
 11
64.24818760206836
 21
307.2043872323135
 31
0.0
1001
PHOENIX7010
1002
{
1070
    41
1040
1.0
1002
}
  0
LINE
  5
AF663
102
{ACAD_REACTORS
330
B9C87
330
FF58
102
}
330
1F
100
AcDbEntity
  8
0
100
AcDbLine
 10
64.24818760206836
 20
307.2043872323135
 30
0.0
 11
64.24818760206836
 21
301.8543872323136
 31
0.0
1001
PHOENIX7010
1002
{
1070
    41
1040
1.0
1002
}
  0
LINE
  5
AF664
102
{ACAD_REACTORS
330
FF58
102
}
330
1F
100
AcDbEntity
  8
0
100
AcDbLine
 10
64.24818760206836
 20
301.8543872323136
 30
0.0
 11
61.74818760206836
 21
301.9854066805212
 31
0.0
1001
PHOENIX7010
1002
{
1070
    41
1040
1.0
1002
}
  0
LINE
  5
AF665
102
{ACAD_REACTORS
330
FF58
102
}
330
1F
100
AcDbEntity
  8
0
100
AcDbLine
 10
61.74818760206836
 20
301.9854066805212
 30
0.0
 11
61.74818760206836
 21
304.2043872323136
 31
0.0
1001
PHOENIX7010
1002
{
1070
    41
1040
1.0
1002
}
  0
LINE
  5
AF666
102
{ACAD_REACTORS
330
FF58
102
}
330
1F
100
AcDbEntity
  8
0
100
AcDbLine
 10
61.74818760206836
 20
304.2043872323136
 30
0.0
 11
45.40112332699902
 21
305.0611005687671
 31
0.0
1001
PHOENIX7010
1002
{
1070
    41
1040
1.0
1002
}
  0
LINE
  5
AF667
102
{ACAD_REACTORS
330
FF58
102
}
330
1F
100
AcDbEntity
  8
0
100
AcDbLine
 10
44.56725270880451
 20
307.1543872323136
 30
0.0
 11
46.08215621904128
 21
307.2072888285967
 31
0.0
1001
PHOENIX7010
1002
{
1070
    41
1040
1.0
1002
}
  0
LINE
  5
AF668
102
{ACAD_REACTORS
330
FF58
102
}
330
1F
100
AcDbEntity
  8
0
100
AcDbLine
 10
55.20236560392231
 20
368.2043872323135
 30
0.0
 11
53.68581088195185
 21
368.2573464901811
 31
0.0
1001
PHOENIX7010
1002
{
1070
    41
1040
1.0
1002
}
  0
LINE
  5
AF669
102
{ACAD_REACTORS
330
FF58
102
}
330
1F
100
AcDbEntity
  8
0
100
AcDbLine
 10
54.92871844364822
 20
370.7159745496241
 30
0.0
 11
64.24818760206836
 21
371.2043872323136
 31
0.0
1001
PHOENIX7010
1002
{
1070
    41
1040
1.0
1002
}
  0
LINE
  5
AF66A
102
{ACAD_REACTORS
330
FF58
102
}
330
1F
100
AcDbEntity
  8
0
100
AcDbLine
 10
64.24818760206836
 20
371.2043872323135
 30
0.0
 11
64.24818760206836
 21
374.2043872323135
 31
0.0
1001
PHOENIX7010
1002
{
1070
    41
1040
1.0
1002
}
  0
LINE
  5
AF66B
102
{ACAD_REACTORS
330
FF58
102
}
330
1F
100
AcDbEntity
  8
0
100
AcDbLine
 10
64.24818760206836
 20
374.2043872323135
 30
0.0
 11
66.24887283469104
 21
374.0995357622275
 31
0.0
1001
PHOENIX7010
1002
{
1070
    41
1040
1.0
1002
}
  0
LINE
  5
AF66C
102
{ACAD_REACTORS
330
FF58
102
}
330
1F
100
AcDbEntity
  8
0
100
AcDbLine
 10
66.24887283469104
 20
374.0995357622275
 30
0.0
 11
66.74818760206836
 21
373.573367784106
 31
0.0
1001
PHOENIX7010
1002
{
1070
    41
1040
1.0
1002
}
  0
LINE
  5
AF66D
102
{ACAD_REACTORS
330
FF58
102
}
330
1F
100
AcDbEntity
  8
0
100
AcDbLine
 10
66.74818760206836
 20
373.573367784106
 30
0.0
 11
66.74818760206836
 21
369.6477629052876
 31
0.0
1001
PHOENIX7010
1002
{
1070
    41
1040
1.0
1002
}
  0
LINE
  5
AF66E
102
{ACAD_REACTORS
330
FF58
102
}
330
1F
100
AcDbEntity
  8
0
100
AcDbLine
 10
66.74818760206836
 20
369.6477629052876
 30
0.0
 11
64.24818760206836
 21
368.2043872323135
 31
0.0
1001
PHOENIX7010
1002
{
1070
    41
1040
1.0
1002
}
  0
LINE
  5
AF66F
102
{ACAD_REACTORS
330
FF58
102
}
330
1F
100
AcDbEntity
  8
0
100
AcDbLine
 10
64.24818760206836
 20
368.2043872323135
 30
0.0
 11
58.70962172074872
 21
367.9141232940608
 31
0.0
1001
PHOENIX7010
1002
{
1070
    41
1040
1.0
1002
}
  0
LINE
  5
AF670
102
{ACAD_REACTORS
330
FF58
102
}
330
1F
100
AcDbEntity
  8
0
100
AcDbLine
 10
64.24818760206836
 20
311.7043872323135
 30
0.0
 11
58.24818760206835
 21
312.0188339080118
 31
0.0
1001
PHOENIX7010
1002
{
1070
    41
1040
1.0
1002
}
  0
LINE
  5
AF671
102
{ACAD_REACTORS
330
FF58
102
}
330
1F
100
AcDbEntity
  8
0
100
AcDbLine
 10
64.24818760206836
 20
307.2043872323137
 30
0.0
 11
64.24818760206836
 21
311.7043872323137
 31
0.0
1001
PHOENIX7010
1002
{
1070
    41
1040
1.0
1002
}
  0
ARC
  5
AF672
102
{ACAD_REACTORS
330
FF58
102
}
330
1F
100
AcDbEntity
  8
0
100
AcDbCircle
 10
841.2590830095147
 20
219.493805828217
 30
0.0
 40
796.4999999999999
100
AcDbArc
 50
169.260695497905
 51
173.6225374549363
1001
PHOENIX7010
1002
{
1070
    41
1040
1.0
1002
}
  0
ARC
  5
AF673
102
{ACAD_REACTORS
330
FF58
102
}
330
1F
100
AcDbEntity
  8
0
100
AcDbCircle
 10
45.45345928324195
 20
306.0597301035218
 30
0.0
 40
1.0
100
AcDbArc
 50
173.791904694263
 51
267.0000000000009
1001
PHOENIX7010
1002
{
1070
    41
1040
1.0
1002
}
  0
ARC
  5
AF674
102
{ACAD_REACTORS
330
FF58
102
}
330
1F
100
AcDbEntity
  8
0
100
AcDbCircle
 10
841.2590830095147
 20
219.493805828217
 30
0.0
 40
801.5
100
AcDbArc
 50
173.7209620278922
 51
173.791904694263
1001
PHOENIX7010
1002
{
1070
    41
1040
1.0
1002
}
  0
ARC
  5
AF675
102
{ACAD_REACTORS
330
FF58
102
}
330
1F
100
AcDbEntity
  8
0
100
AcDbCircle
 10
841.2590830095147
 20
219.493805828217
 30
0.0
 40
800.0
100
AcDbArc
 50
169.2870776496322
 51
173.7053295737369
1001
PHOENIX7010
1002
{
1070
    41
1040
1.0
1002
}
  0
ARC
  5
AF676
102
{ACAD_REACTORS
330
FF58
102
}
330
1F
100
AcDbEntity
  8
0
100
AcDbCircle
 10
841.2590830095147
 20
219.493805828217
 30
0.0
 40
801.5
100
AcDbArc
 50
169.1836195857892
 51
169.3035103112153
1001
PHOENIX7010
1002
{
1070
    41
1040
1.0
1002
}
  0
ARC
  5
AF677
102
{ACAD_REACTORS
330
FF58
102
}
330
1F
100
AcDbEntity
  8
0
100
AcDbCircle
 10
54.98105439989115
 20
369.7173450148694
 30
0.0
 40
0.9999999999999998
100
AcDbArc
 50
92.9999999999991
 51
169.1836195857832
1001
PHOENIX7010
1002
{
1070
    41
1040
1.0
1002
}
  0
HATCH
  5
AF678
102
{ACAD_REACTORS
330
FF58
102
}
330
1F
100
AcDbEntity
  8
0
 62
     1
100
AcDbHatch
 10
0.0
 20
0.0
 30
0.0
210
0.0
220
0.0
230
-1.0
  2
ANSI31
 70
     0
 71
     0
 91
        1
 92
        0
 93
       20
 72
     1
 10
-58.70962172074872
 20
367.9141232940609
 11
-64.2481876020683
 21
368.2043872323136
 72
     1
 10
-64.24818760206836
 20
368.2043872323135
 11
-66.74818760206836
 21
369.6477629052876
 72
     1
 10
-66.74818760206836
 20
369.6477629052876
 11
-66.74818760206836
 21
373.5733677841059
 72
     1
 10
-66.74818760206836
 20
373.573367784106
 11
-66.24887283469107
 21
374.0995357622275
 72
     1
 10
-66.24887283469104
 20
374.0995357622275
 11
-64.24818760206832
 21
374.2043872323137
 72
     1
 10
-64.24818760206836
 20
374.2043872323135
 11
-64.24818760206836
 21
371.2043872323135
 72
     1
 10
-64.24818760206836
 20
371.2043872323135
 11
-54.92871844364825
 21
370.715974549624
 72
     3
 10
-54.98105439989115
 20
369.7173450148694
 11
0.7071067811865635
 21
0.7071067811865635
 40
0.9999999999999319
 50
-41.99999999999928
 51
34.18361958578664
 73
     0
 72
     3
 10
-841.2590830095147
 20
219.493805828217
 11
-566.7460851301036
 21
566.7460851301036
 40
0.9999999999914301
 50
124.1836195857871
 51
124.3035103112155
 73
     0
 72
     1
 10
-53.68581088195185
 20
368.2573464901811
 11
-55.20236560392229
 21
368.2043872323135
 72
     3
 10
-841.2590830095147
 20
219.493805828217
 11
-565.6854249492638
 21
565.6854249492637
 40
0.9999999999999777
 50
124.28707764963
 51
128.7053295737401
 73
     0
 72
     1
 10
-46.08215621904128
 20
307.2072888285967
 11
-44.56725270880451
 21
307.1543872323135
 72
     3
 10
-841.2590830095147
 20
219.493805828217
 11
-566.7460851614593
 21
566.7460851614591
 40
0.9999999999746624
 50
128.720962027891
 51
128.7919046942604
 73
     0
 72
     3
 10
-45.45345928324195
 20
306.0597301035218
 11
-0.7071067811865715
 21
0.7071067811865714
 40
0.999999999999974
 50
128.7919046942629
 51
221.9999999999995
 73
     0
 72
     1
 10
-45.40112332699902
 20
305.0611005687671
 11
-61.74818760206832
 21
304.2043872323136
 72
     1
 10
-61.74818760206836
 20
304.2043872323136
 11
-61.74818760206836
 21
301.9854066805211
 72
     1
 10
-61.74818760206836
 20
301.9854066805212
 11
-64.24818760206836
 21
301.8543872323136
 72
     1
 10
-64.24818760206836
 20
301.8543872323136
 11
-64.24818760206836
 21
307.2043872323136
 72
     1
 10
-64.24818760206836
 20
307.2043872323135
 11
-49.68807280521838
 21
307.9674505149226
 72
     3
 10
-841.2590830095147
 20
219.493805828217
 11
-563.2105512151353
 21
563.2105512151354
 40
0.999999999999961
 50
231.3774625450619
 51
235.7393045020977
 73
     1
 97
        0
 75
     0
 76
     1
 52
-90.0
 41
0.5
 77
     0
 78
     1
 53
315.0
 43
114.3991765573448
 44
-91.97061276768641
 45
1.122532015133644
 46
1.122532015133643
 79
     0
 98
        1
 10
114.3991765573448
 20
-91.97061276768641
1001
PHOENIX7010
1002
{
1070
    41
1040
1.0
1002
}
  0
LINE
  5
AF679
102
{ACAD_REACTORS
330
FF58
102
}
330
1F
100
AcDbEntity
  8
0
100
AcDbLine
 10
145.372640612132
 20
72.8762044017904
 30
0.0
 11
145.3508234426551
 21
72.85438723231351
 31
0.0
1001
PHOENIX7010
1002
{
1070
    41
1040
1.0
1002
}
  0
LINE
  5
AF67A
102
{ACAD_REACTORS
330
FF58
102
}
330
1F
100
AcDbEntity
  8
0
100
AcDbLine
 10
142.8290062731782
 20
72.8762044017904
 30
0.0
 11
142.8508234426551
 21
72.85438723231351
 31
0.0
1001
PHOENIX7010
1002
{
1070
    41
1040
1.0
1002
}
  0
LINE
  5
AF67B
102
{ACAD_REACTORS
330
FF58
102
}
330
1F
100
AcDbEntity
  8
0
100
AcDbLine
 10
145.372640612132
 20
67.85438723231351
 30
0.0
 11
145.3508234426551
 21
66.41101155933944
 31
0.0
1001
PHOENIX7010
1002
{
1070
    41
1040
1.0
1002
}
  0
LINE
  5
AF67C
102
{ACAD_REACTORS
330
FF58
102
}
330
1F
100
AcDbEntity
  8
0
100
AcDbLine
 10
448.372640612132
 20
72.87620440179051
 30
0.0
 11
448.3508234426551
 21
72.85438723231362
 31
0.0
1001
PHOENIX7010
1002
{
1070
    41
1040
1.0
1002
}
  0
LINE
  5
AF67D
102
{ACAD_REACTORS
330
FF58
102
}
330
1F
100
AcDbEntity
  8
0
100
AcDbLine
 10
445.8290062731783
 20
72.87620440179051
 30
0.0
 11
445.8508234426552
 21
72.85438723231362
 31
0.0
1001
PHOENIX7010
1002
{
1070
    41
1040
1.0
1002
}
  0
LINE
  5
AF67E
102
{ACAD_REACTORS
330
FF58
102
}
330
1F
100
AcDbEntity
  8
0
100
AcDbLine
 10
445.8508234426552
 20
66.41101155933956
 30
0.0
 11
445.8290062731783
 21
67.85438723231362
 31
0.0
1001
PHOENIX7010
1002
{
1070
    41
1040
1.0
1002
}
  0
LINE
  5
AF67F
102
{ACAD_REACTORS
330
FF58
102
}
330
1F
100
AcDbEntity
  8
0
100
AcDbLine
 10
448.3726406121321
 20
67.85438723231362
 30
0.0
 11
448.3508234426552
 21
66.41101155933956
 31
0.0
1001
PHOENIX7010
1002
{
1070
    41
1040
1.0
1002
}
  0
LINE
  5
AF680
102
{ACAD_REACTORS
330
FF58
102
}
330
1F
100
AcDbEntity
  8
0
100
AcDbLine
 10
140.5049896801186
 20
61.95923870239965
 30
0.0
 11
450.6966572051917
 21
61.95923870239965
 31
0.0
1001
PHOENIX7010
1002
{
1070
    41
1040
1.0
1002
}
  0
LINE
  5
AF681
102
{ACAD_REACTORS
330
FF58
102
}
330
1F
100
AcDbEntity
  8
0
100
AcDbLine
 10
140.0318428908628
 20
62.48540668052118
 30
0.0
 11
140.0318070285582
 21
62.48468558559392
 31
0.0
1001
PHOENIX7010
1002
{
1070
    41
1040
1.0
1002
}
  0
LINE
  5
AF682
102
{ACAD_REACTORS
330
FF58
102
}
330
1F
100
AcDbEntity
  8
0
100
AcDbLine
 10
140.0318070285582
 20
62.48468558559392
 30
0.0
 11
139.9008234426551
 21
62.35370199969082
 31
0.0
1001
PHOENIX7010
1002
{
1070
    41
1040
1.0
1002
}
  0
ELLIPSE
  5
AF683
102
{ACAD_REACTORS
330
FF58
102
}
330
1F
100
AcDbEntity
  8
0
100
AcDbEllipse
 10
140.5325649753818
 20
62.48612876504018
 30
0.0
 11
-0.2167702579409113
 21
-0.4869209010083314
 31
0.0
210
0.0
220
0.0
230
1.0
 40
0.9286270215796347
 41
5.10714235388898
 42
6.675199624943074
1001
PHOENIX7010
1002
{
1070
    41
1040
1.0
1002
}
  0
LINE
  5
AF684
102
{ACAD_REACTORS
330
FF58
102
}
330
1F
100
AcDbEntity
  8
0
100
AcDbLine
 10
140.4001382100324
 20
61.85438723231351
 30
0.0
 11
140.5049896801186
 21
61.95923870239965
 31
0.0
1001
PHOENIX7010
1002
{
1070
    41
1040
1.0
1002
}
  0
LINE
  5
AF685
102
{ACAD_REACTORS
330
FF58
102
}
330
1F
100
AcDbEntity
  8
0
100
AcDbLine
 10
139.9008234426552
 20
62.35370199969082
 30
0.0
 11
139.9008234426552
 21
64.85438723231351
 31
0.0
1001
PHOENIX7010
1002
{
1070
    41
1040
1.0
1002
}
  0
ELLIPSE
  5
AF686
102
{ACAD_REACTORS
330
FF58
102
}
330
1F
100
AcDbEntity
  8
0
100
AcDbEllipse
 10
140.401509615654
 20
62.35507340531256
 30
0.0
 11
-0.3545231217175233
 21
-0.3545231217175435
 31
0.0
210
0.0
220
0.0
230
1.0
 40
0.9972646886342372
 41
5.499156671652476
 42
7.067213942706631
1001
PHOENIX7010
1002
{
1070
    41
1040
1.0
1002
}
  0
LINE
  5
AF687
102
{ACAD_REACTORS
330
FF58
102
}
330
1F
100
AcDbEntity
  8
0
100
AcDbLine
 10
140.4001382100324
 20
61.85438723231351
 30
0.0
 11
450.8015086752778
 21
61.85438723231363
 31
0.0
1001
PHOENIX7010
1002
{
1070
    41
1040
1.0
1002
}
  0
LINE
  5
AF688
102
{ACAD_REACTORS
330
FF58
102
}
330
1F
100
AcDbEntity
  8
0
100
AcDbLine
 10
451.1698398567521
 20
62.48468558559392
 30
0.0
 11
451.1698039944475
 21
62.48540668052118
 31
0.0
1001
PHOENIX7010
1002
{
1070
    41
1040
1.0
1002
}
  0
LINE
  5
AF689
102
{ACAD_REACTORS
330
FF58
102
}
330
1F
100
AcDbEntity
  8
0
100
AcDbLine
 10
451.3008234426552
 20
67.85438723231362
 30
0.0
 11
451.1698039944476
 21
66.41101155933956
 31
0.0
1001
PHOENIX7010
1002
{
1070
    41
1040
1.0
1002
}
  0
LINE
  5
AF68A
102
{ACAD_REACTORS
330
FF58
102
}
330
1F
100
AcDbEntity
  8
0
100
AcDbLine
 10
451.3008234426552
 20
64.85438723231363
 30
0.0
 11
451.3008234426552
 21
62.35370199969082
 31
0.0
1001
PHOENIX7010
1002
{
1070
    41
1040
1.0
1002
}
  0
LINE
  5
AF68B
102
{ACAD_REACTORS
330
FF58
102
}
330
1F
100
AcDbEntity
  8
0
100
AcDbLine
 10
451.3008234426552
 20
62.35370199969082
 30
0.0
 11
451.1698398567521
 21
62.48468558559392
 31
0.0
1001
PHOENIX7010
1002
{
1070
    41
1040
1.0
1002
}
  0
ELLIPSE
  5
AF68C
102
{ACAD_REACTORS
330
FF58
102
}
330
1F
100
AcDbEntity
  8
0
100
AcDbEllipse
 10
450.8001372696562
 20
62.35507340531256
 30
0.0
 11
0.3545231217175234
 21
-0.3545231217175433
 31
0.0
210
0.0
220
0.0
230
1.0
 40
0.9972646886342372
 41
5.499156671652595
 42
7.067213942706681
1001
PHOENIX7010
1002
{
1070
    41
1040
1.0
1002
}
  0
LINE
  5
AF68D
102
{ACAD_REACTORS
330
FF58
102
}
330
1F
100
AcDbEntity
  8
0
100
AcDbLine
 10
450.6966572051917
 20
61.95923870239965
 30
0.0
 11
450.8015086752778
 21
61.85438723231363
 31
0.0
1001
PHOENIX7010
1002
{
1070
    41
1040
1.0
1002
}
  0
ELLIPSE
  5
AF68E
102
{ACAD_REACTORS
330
FF58
102
}
330
1F
100
AcDbEntity
  8
0
100
AcDbEllipse
 10
450.6690819099285
 20
62.48612876504018
 30
0.0
 11
0.2167702579409116
 21
-0.4869209010083314
 31
0.0
210
0.0
220
0.0
230
0.9999999999999998
 40
0.9286270215796349
 41
5.891170989416041
 42
7.459228260470199
1001
PHOENIX7010
1002
{
1070
    41
1040
1.0
1002
}
  0
LINE
  5
AF68F
102
{ACAD_REACTORS
330
FF58
102
}
330
1F
100
AcDbEntity
  8
0
100
AcDbLine
 10
139.9008234426552
 20
67.85438723231351
 30
0.0
 11
139.9008234426552
 21
64.85438723231351
 31
0.0
1001
PHOENIX7010
1002
{
1070
    41
1040
1.0
1002
}
  0
LINE
  5
AF690
102
{ACAD_REACTORS
330
FF58
102
}
330
1F
100
AcDbEntity
  8
0
100
AcDbLine
 10
451.3008234426552
 20
64.85438723231363
 30
0.0
 11
451.3008234426552
 21
67.85438723231362
 31
0.0
1001
PHOENIX7010
1002
{
1070
    41
1040
1.0
1002
}
  0
LINE
  5
AF691
102
{ACAD_REACTORS
330
FF58
102
}
330
1F
100
AcDbEntity
  8
0
100
AcDbLine
 10
150.0243289497769
 20
68.22546301058316
 30
0.0
 11
150.0243289497769
 21
122.0175014851961
 31
0.0
1001
PHOENIX7010
1002
{
1070
    41
1040
1.0
1002
}
  0
LINE
  5
AF692
102
{ACAD_REACTORS
330
FF58
102
}
330
1F
100
AcDbEntity
  8
0
100
AcDbLine
 10
153.0609145746728
 20
127.5853880762008
 30
0.0
 11
152.6152701183534
 21
128.0310325325201
 31
0.0
1001
PHOENIX7010
1002
{
1070
    41
1040
1.0
1002
}
  0
SPLINE
  5
AF693
102
{ACAD_REACTORS
330
FF58
102
}
330
1F
100
AcDbEntity
  8
0
100
AcDbSpline
210
0.0
220
0.0
230
1.0
 70
     8
 71
     3
 72
     8
 73
     4
 74
     0
 42
0.0000000001
 43
0.0000000001
 40
15.1045504687421
 40
15.1045504687421
 40
15.1045504687421
 40
15.1045504687421
 40
16.80214942173418
 40
16.80214942173418
 40
16.80214942173418
 40
16.80214942173418
 10
150.0286431172595
 20
122.0175014851961
 30
0.0
 10
150.3276254105317
 20
122.2437727827035
 30
0.0
 10
150.6207172181718
 20
122.5046862421513
 30
0.0
 10
150.9008234426552
 20
122.8034234553003
 30
0.0
1001
PHOENIX7010
1002
{
1070
    41
1040
1.0
1002
}
  0
ARC
  5
AF694
102
{ACAD_REACTORS
330
FF58
102
}
330
1F
100
AcDbEntity
  8
0
100
AcDbCircle
 10
146.6080941669213
 20
127.614372961133
 30
0.0
 40
6.559354041353245
100
AcDbArc
 50
270.0087833234975
 51
301.4313440238727
1001
PHOENIX7010
1002
{
1070
    41
1040
1.0
1002
}
  0
ARC
  5
AF695
102
{ACAD_REACTORS
330
FF58
102
}
330
1F
100
AcDbEntity
  8
0
100
AcDbCircle
 10
146.5883630006137
 20
127.6302883645086
 30
0.0
 40
6.472707309522324
100
AcDbArc
 50
311.7785214537607
 51
359.6025437998882
1001
PHOENIX7010
1002
{
1070
    41
1040
1.0
1002
}
  0
ELLIPSE
  5
AF696
102
{ACAD_REACTORS
330
FF58
102
}
330
1F
100
AcDbEntity
  8
0
100
AcDbEllipse
 10
111.5794079356235
 20
216.5649686364101
 30
0.0
 11
0.0000000000000912
 21
-796.4999999999999
 31
0.0
210
0.0
220
0.0
230
1.0
 40
0.0524077792830412
 41
1.458849430464491
 42
1.459488607460948
1001
PHOENIX7010
1002
{
1070
    41
1040
1.0
1002
}
  0
LINE
  5
AF697
102
{ACAD_REACTORS
330
FF58
102
}
330
1F
100
AcDbEntity
  8
0
100
AcDbLine
 10
440.3008234426551
 20
68.14465117056641
 30
0.0
 11
150.9008234426552
 21
68.14465117056631
 31
0.0
1001
PHOENIX7010
1002
{
1070
    41
1040
1.0
1002
}
  0
LINE
  5
AF698
102
{ACAD_REACTORS
330
FF58
102
}
330
1F
100
AcDbEntity
  8
0
100
AcDbLine
 10
440.3008234391879
 20
68.14465120838377
 30
0.0
 11
441.1822404868701
 21
68.22546304840006
 31
0.0
1001
PHOENIX7010
1002
{
1070
    41
1040
1.0
1002
}
  0
LINE
  5
AF699
102
{ACAD_REACTORS
330
FF58
102
}
330
1F
100
AcDbEntity
  8
0
100
AcDbLine
 10
445.8008234426552
 20
67.85438723231362
 30
0.0
 11
145.4008234426552
 21
67.85438723231351
 31
0.0
1001
PHOENIX7010
1002
{
1070
    41
1040
1.0
1002
}
  0
LINE
  5
AF69A
102
{ACAD_REACTORS
330
FF58
102
}
330
1F
100
AcDbEntity
  8
0
100
AcDbLine
 10
145.7718992209248
 20
68.22546301058327
 30
0.0
 11
150.0194063949731
 21
68.22546301058327
 31
0.0
1001
PHOENIX7010
1002
{
1070
    41
1040
1.0
1002
}
  0
LINE
  5
AF69B
102
{ACAD_REACTORS
330
FF58
102
}
330
1F
100
AcDbEntity
  8
0
100
AcDbLine
 10
150.0194063984403
 20
68.22546304840006
 30
0.0
 11
150.9008234461225
 21
68.14465120838389
 31
0.0
1001
PHOENIX7010
1002
{
1070
    41
1040
1.0
1002
}
  0
LINE
  5
AF69C
102
{ACAD_REACTORS
330
FF58
102
}
330
1F
100
AcDbEntity
  8
0
100
AcDbLine
 10
445.0014552071946
 20
121.055018996853
 30
0.0
 11
444.5925471830994
 21
121.055018996853
 31
0.0
1001
PHOENIX7010
1002
{
1070
    41
1040
1.0
1002
}
  0
LINE
  5
AF69D
102
{ACAD_REACTORS
330
FF58
102
}
330
1F
100
AcDbEntity
  8
0
100
AcDbLine
 10
441.1822404903373
 20
68.22546301058327
 30
0.0
 11
445.4297476643855
 21
68.22546301058327
 31
0.0
1001
PHOENIX7010
1002
{
1070
    41
1040
1.0
1002
}
  0
LINE
  5
AF69E
102
{ACAD_REACTORS
330
FF58
102
}
330
1F
100
AcDbEntity
  8
0
100
AcDbLine
 10
441.1773179355359
 20
68.22546301058327
 30
0.0
 11
441.1773179355359
 21
122.0175014851961
 31
0.0
1001
PHOENIX7010
1002
{
1070
    41
1040
1.0
1002
}
  0
LINE
  5
AF69F
102
{ACAD_REACTORS
330
FF58
102
}
330
1F
100
AcDbEntity
  8
0
100
AcDbLine
 10
444.5925471830994
 20
121.055018996853
 30
0.0
 11
445.0774687428617
 21
121.5399405566153
 31
0.0
1001
PHOENIX7010
1002
{
1070
    41
1040
1.0
1002
}
  0
ARC
  5
AF6A0
102
{ACAD_REACTORS
330
FF58
102
}
330
1F
100
AcDbEntity
  8
0
100
AcDbCircle
 10
444.5935527183892
 20
127.6143729611335
 30
0.0
 40
6.559354041353596
100
AcDbArc
 50
238.5686559761799
 51
269.9912166765547
1001
PHOENIX7010
1002
{
1070
    41
1040
1.0
1002
}
  0
SPLINE
  5
AF6A1
102
{ACAD_REACTORS
330
FF58
102
}
330
1F
100
AcDbEntity
  8
0
100
AcDbSpline
210
0.0
220
0.0
230
1.0
 70
     8
 71
     3
 72
     8
 73
     4
 74
     0
 42
0.0000000001
 43
0.0000000001
 40
0.0
 40
0.0
 40
0.0
 40
0.0
 40
1.764591710541572
 40
1.764591710541572
 40
1.764591710541572
 40
1.764591710541572
 10
440.3008234426551
 20
122.8034234553004
 30
0.0
 10
440.5716927822664
 20
122.5145375092908
 30
0.0
 10
440.8634662687582
 20
122.2517610155035
 30
0.0
 10
441.1730037680508
 20
122.0175014851961
 30
0.0
1001
PHOENIX7010
1002
{
1070
    41
1040
1.0
1002
}
  0
ARC
  5
AF6A2
102
{ACAD_REACTORS
330
FF58
102
}
330
1F
100
AcDbEntity
  8
0
100
AcDbCircle
 10
444.6132838846968
 20
127.6302883645088
 30
0.0
 40
6.472707309522435
100
AcDbArc
 50
180.3974562001118
 51
228.2214785462392
1001
PHOENIX7010
1002
{
1070
    41
1040
1.0
1002
}
  0
LINE
  5
AF6A3
102
{ACAD_REACTORS
330
FF58
102
}
330
1F
100
AcDbEntity
  8
0
100
AcDbLine
 10
140.0318428908628
 20
62.48540668052118
 30
0.0
 11
140.0318428908628
 21
66.41101155933944
 31
0.0
1001
PHOENIX7010
1002
{
1070
    41
1040
1.0
1002
}
  0
LINE
  5
AF6A4
102
{ACAD_REACTORS
330
FF58
102
}
330
1F
100
AcDbEntity
  8
0
100
AcDbLine
 10
142.8508234426551
 20
72.85438723231351
 30
0.0
 11
142.8508234426551
 21
66.41101155933944
 31
0.0
1001
PHOENIX7010
1002
{
1070
    41
1040
1.0
1002
}
  0
LINE
  5
AF6A5
102
{ACAD_REACTORS
330
FF58
102
}
330
1F
100
AcDbEntity
  8
0
100
AcDbLine
 10
145.3508234426551
 20
72.85438723231351
 30
0.0
 11
142.8508234426551
 21
72.85438723231351
 31
0.0
1001
PHOENIX7010
1002
{
1070
    41
1040
1.0
1002
}
  0
LINE
  5
AF6A6
102
{ACAD_REACTORS
330
FF58
102
}
330
1F
100
AcDbEntity
  8
0
100
AcDbLine
 10
145.3508234426551
 20
66.41101155933944
 30
0.0
 11
145.3508234426551
 21
72.85438723231351
 31
0.0
1001
PHOENIX7010
1002
{
1070
    41
1040
1.0
1002
}
  0
LINE
  5
AF6A7
102
{ACAD_REACTORS
330
FF58
102
}
330
1F
100
AcDbEntity
  8
0
100
AcDbLine
 10
145.3508234426551
 20
66.41101155933944
 30
0.0
 11
445.8508234426552
 21
66.41101155933956
 31
0.0
1001
PHOENIX7010
1002
{
1070
    41
1040
1.0
1002
}
  0
LINE
  5
AF6A8
102
{ACAD_REACTORS
330
FF58
102
}
330
1F
100
AcDbEntity
  8
0
100
AcDbLine
 10
445.8508234426552
 20
72.85438723231362
 30
0.0
 11
445.8508234426552
 21
66.41101155933956
 31
0.0
1001
PHOENIX7010
1002
{
1070
    41
1040
1.0
1002
}
  0
LINE
  5
AF6A9
102
{ACAD_REACTORS
330
FF58
102
}
330
1F
100
AcDbEntity
  8
0
100
AcDbLine
 10
448.3508234426551
 20
72.85438723231362
 30
0.0
 11
445.8508234426552
 21
72.85438723231362
 31
0.0
1001
PHOENIX7010
1002
{
1070
    41
1040
1.0
1002
}
  0
LINE
  5
AF6AA
102
{ACAD_REACTORS
330
FF58
102
}
330
1F
100
AcDbEntity
  8
0
100
AcDbLine
 10
448.3508234426551
 20
66.41101155933956
 30
0.0
 11
448.3508234426551
 21
72.85438723231362
 31
0.0
1001
PHOENIX7010
1002
{
1070
    41
1040
1.0
1002
}
  0
LINE
  5
AF6AB
102
{ACAD_REACTORS
330
FF58
102
}
330
1F
100
AcDbEntity
  8
0
100
AcDbLine
 10
448.3508234426551
 20
66.41101155933956
 30
0.0
 11
451.1698039944475
 21
66.41101155933956
 31
0.0
1001
PHOENIX7010
1002
{
1070
    41
1040
1.0
1002
}
  0
LINE
  5
AF6AC
102
{ACAD_REACTORS
330
FF58
102
}
330
1F
100
AcDbEntity
  8
0
100
AcDbLine
 10
451.1698039944476
 20
66.41101155933956
 30
0.0
 11
451.1698039944476
 21
62.48540668052118
 31
0.0
1001
PHOENIX7010
1002
{
1070
    41
1040
1.0
1002
}
  0
LINE
  5
AF6AD
102
{ACAD_REACTORS
330
FF58
102
}
330
1F
100
AcDbEntity
  8
0
100
AcDbLine
 10
451.1698039944476
 20
62.48540668052118
 30
0.0
 11
140.0318428908629
 21
62.48540668052118
 31
0.0
1001
PHOENIX7010
1002
{
1070
    41
1040
1.0
1002
}
  0
LINE
  5
AF6AE
102
{ACAD_REACTORS
330
FF58
102
}
330
1F
100
AcDbEntity
  8
0
100
AcDbLine
 10
140.0318428908628
 20
66.41101155933944
 30
0.0
 11
142.8508234426551
 21
66.41101155933944
 31
0.0
1001
PHOENIX7010
1002
{
1070
    41
1040
1.0
1002
}
  0
LINE
  5
AF6AF
102
{ACAD_REACTORS
330
FF58
102
}
330
1F
100
AcDbEntity
  8
0
100
AcDbLine
 10
140.0318428908628
 20
66.41101155933944
 30
0.0
 11
139.9008234426551
 21
67.85438723231351
 31
0.0
1001
PHOENIX7010
1002
{
1070
    41
1040
1.0
1002
}
  0
LINE
  5
AF6B0
102
{ACAD_REACTORS
330
FF58
102
}
330
1F
100
AcDbEntity
  8
0
100
AcDbLine
 10
142.8508234426551
 20
66.41101155933944
 30
0.0
 11
142.8290062731782
 21
67.85438723231351
 31
0.0
1001
PHOENIX7010
1002
{
1070
    41
1040
1.0
1002
}
  0
LINE
  5
AF6B1
102
{ACAD_REACTORS
330
FF58
102
}
330
1F
100
AcDbEntity
  8
0
100
AcDbLine
 10
146.1241781424487
 20
121.5399405566153
 30
0.0
 11
146.609099702211
 21
121.055018996853
 31
0.0
1001
PHOENIX7010
1002
{
1070
    41
1040
1.0
1002
}
  0
LINE
  5
AF6B2
102
{ACAD_REACTORS
330
FF58
102
}
330
1F
100
AcDbEntity
  8
0
100
AcDbLine
 10
146.609099702211
 20
121.055018996853
 30
0.0
 11
146.2001916781157
 21
121.055018996853
 31
0.0
1001
PHOENIX7010
1002
{
1070
    41
1040
1.0
1002
}
  0
LINE
  5
AF6B3
102
{ACAD_REACTORS
330
FF58
102
}
330
1F
100
AcDbEntity
  8
0
100
AcDbLine
 10
438.5863767669569
 20
128.0310325325201
 30
0.0
 11
438.1407323106376
 21
127.5853880762008
 31
0.0
1001
PHOENIX7010
1002
{
1070
    41
1040
1.0
1002
}
  0
ELLIPSE
  5
AF6B4
102
{ACAD_REACTORS
330
FF58
102
}
330
1F
100
AcDbEntity
  8
0
100
AcDbEllipse
 10
479.6222389496868
 20
216.5649686364101
 30
0.0
 11
0.0000000000000912
 21
-796.4999999999999
 31
0.0
210
0.0
220
0.0
230
1.0
 40
0.0524077792830412
 41
4.823696699718637
 42
4.824335876715094
1001
PHOENIX7010
1002
{
1070
    41
1040
1.0
1002
}
  0
LINE
  5
AF6B5
102
{ACAD_REACTORS
330
FF58
102
}
330
1F
100
AcDbEntity
  8
0
100
AcDbLine
 10
438.1377601600461
 20
128.0913239497045
 30
0.0
 11
438.5863767669569
 21
128.5399405566153
 31
0.0
1001
PHOENIX7010
1002
{
1070
    41
1040
1.0
1002
}
  0
LINE
  5
AF6B6
102
{ACAD_REACTORS
330
FF58
102
}
330
1F
100
AcDbEntity
  8
0
100
AcDbLine
 10
153.0638867252642
 20
128.0913239497044
 30
0.0
 11
438.1377601600461
 21
128.0913239497045
 31
0.0
1001
PHOENIX7010
1002
{
1070
    41
1040
1.0
1002
}
  0
LINE
  5
AF6B7
102
{ACAD_REACTORS
330
FF58
102
}
330
1F
100
AcDbEntity
  8
0
100
AcDbLine
 10
152.6152701183534
 20
128.5399405566153
 30
0.0
 11
153.0638867252643
 21
128.0913239497045
 31
0.0
1001
PHOENIX7010
1002
{
1070
    41
1040
1.0
1002
}
  0
LINE
  5
AF6B8
102
{ACAD_REACTORS
330
FF58
102
}
330
1F
100
AcDbEntity
  8
0
100
AcDbLine
 10
149.7705592061895
 20
128.8555921092372
 30
0.0
 11
150.1123257563726
 21
128.5410789031977
 31
0.0
1001
PHOENIX7010
1002
{
1070
    41
1040
1.0
1002
}
  0
LINE
  5
AF6B9
102
{ACAD_REACTORS
330
FF58
102
}
330
1F
100
AcDbEntity
  8
0
100
AcDbLine
 10
441.089321128875
 20
128.5410789032658
 30
0.0
 11
441.4310876790587
 21
128.8555921093047
 31
0.0
1001
PHOENIX7010
1002
{
1070
    41
1040
1.0
1002
}
  0
LINE
  5
AF6BA
102
{ACAD_REACTORS
330
FF58
102
}
330
1F
100
AcDbEntity
  8
0
100
AcDbLine
 10
145.7152701183535
 20
121.5399405566153
 30
0.0
 11
146.2001916781157
 21
121.055018996853
 31
0.0
1001
PHOENIX7010
1002
{
1070
    41
1040
1.0
1002
}
  0
ELLIPSE
  5
AF6BB
102
{ACAD_REACTORS
330
FF58
102
}
330
1F
100
AcDbEntity
  8
0
100
AcDbEllipse
 10
104.6794079356235
 20
216.5649686364101
 30
0.0
 11
-0.0000000000000914
 21
798.0
 31
0.0
210
0.0
220
0.0
230
1.0
 40
0.0524077792830412
 41
4.525412319246128
 42
4.592414719046391
1001
PHOENIX7010
1002
{
1070
    41
1040
1.0
1002
}
  0
LINE
  5
AF6BC
102
{ACAD_REACTORS
330
FF58
102
}
330
1F
100
AcDbEntity
  8
0
100
AcDbLine
 10
145.4008234426552
 20
67.85438723231351
 30
0.0
 11
145.7718992209248
 21
68.22546301058327
 31
0.0
1001
PHOENIX7010
1002
{
1070
    41
1040
1.0
1002
}
  0
LINE
  5
AF6BD
102
{ACAD_REACTORS
330
FF58
102
}
330
1F
100
AcDbEntity
  8
0
100
AcDbLine
 10
145.399675559802
 20
124.3733552513593
 30
0.0
 11
145.7141856169164
 21
124.0397664038216
 31
0.0
1001
PHOENIX7010
1002
{
1070
    41
1040
1.0
1002
}
  0
LINE
  5
AF6BE
102
{ACAD_REACTORS
330
FF58
102
}
330
1F
100
AcDbEntity
  8
0
100
AcDbLine
 10
152.6152701183534
 20
128.5399405566153
 30
0.0
 11
150.1112781844758
 21
128.5399405566153
 31
0.0
1001
PHOENIX7010
1002
{
1070
    41
1040
1.0
1002
}
  0
LINE
  5
AF6BF
102
{ACAD_REACTORS
330
FF58
102
}
330
1F
100
AcDbEntity
  8
0
100
AcDbLine
 10
152.6152701183534
 20
128.5399405566153
 30
0.0
 11
152.6152701183534
 21
128.0310325325201
 31
0.0
1001
PHOENIX7010
1002
{
1070
    41
1040
1.0
1002
}
  0
ELLIPSE
  5
AF6C0
102
{ACAD_REACTORS
330
FF58
102
}
330
1F
100
AcDbEntity
  8
0
100
AcDbEllipse
 10
146.106349869367
 20
128.0488608056018
 30
0.0
 11
4.608800582327917
 21
-4.608800582327949
 31
0.0
210
0.0
220
0.0
230
1.0
 40
0.9972646886342372
 41
5.499156671652532
 42
7.067213942706644
1001
PHOENIX7010
1002
{
1070
    41
1040
1.0
1002
}
  0
LINE
  5
AF6C1
102
{ACAD_REACTORS
330
FF58
102
}
330
1F
100
AcDbEntity
  8
0
100
AcDbLine
 10
146.1241781424487
 20
121.5399405566153
 30
0.0
 11
145.7152701183535
 21
121.5399405566153
 31
0.0
1001
PHOENIX7010
1002
{
1070
    41
1040
1.0
1002
}
  0
LINE
  5
AF6C2
102
{ACAD_REACTORS
330
FF58
102
}
330
1F
100
AcDbEntity
  8
0
100
AcDbLine
 10
145.7152701183535
 20
124.0407888798768
 30
0.0
 11
145.7152701183535
 21
121.5399405566153
 31
0.0
1001
PHOENIX7010
1002
{
1070
    41
1040
1.0
1002
}
  0
LINE
  5
AF6C3
102
{ACAD_REACTORS
330
FF58
102
}
330
1F
100
AcDbEntity
  8
0
100
AcDbLine
 10
445.8008234426552
 20
67.85438723231362
 30
0.0
 11
445.4297476643855
 21
68.22546301058327
 31
0.0
1001
PHOENIX7010
1002
{
1070
    41
1040
1.0
1002
}
  0
ELLIPSE
  5
AF6C4
102
{ACAD_REACTORS
330
FF58
102
}
330
1F
100
AcDbEntity
  8
0
100
AcDbEllipse
 10
486.5222389496868
 20
216.5649686364101
 30
0.0
 11
-0.0000000000000914
 21
798.0
 31
0.0
210
0.0
220
0.0
230
1.0
 40
0.0524077792830412
 41
1.690770588133194
 42
1.757772987933457
1001
PHOENIX7010
1002
{
1070
    41
1040
1.0
1002
}
  0
LINE
  5
AF6C5
102
{ACAD_REACTORS
330
FF58
102
}
330
1F
100
AcDbEntity
  8
0
100
AcDbLine
 10
445.0014552071946
 20
121.055018996853
 30
0.0
 11
445.4863767669569
 21
121.5399405566153
 31
0.0
1001
PHOENIX7010
1002
{
1070
    41
1040
1.0
1002
}
  0
LINE
  5
AF6C6
102
{ACAD_REACTORS
330
FF58
102
}
330
1F
100
AcDbEntity
  8
0
100
AcDbLine
 10
445.4874612684222
 20
124.039766403795
 30
0.0
 11
445.8019713255367
 21
124.3733552513325
 31
0.0
1001
PHOENIX7010
1002
{
1070
    41
1040
1.0
1002
}
  0
LINE
  5
AF6C7
102
{ACAD_REACTORS
330
FF58
102
}
330
1F
100
AcDbEntity
  8
0
100
AcDbLine
 10
445.4863767669569
 20
121.5399405566153
 30
0.0
 11
445.4863767669569
 21
124.0407888798768
 31
0.0
1001
PHOENIX7010
1002
{
1070
    41
1040
1.0
1002
}
  0
LINE
  5
AF6C8
102
{ACAD_REACTORS
330
FF58
102
}
330
1F
100
AcDbEntity
  8
0
100
AcDbLine
 10
445.4863767669569
 20
121.5399405566153
 30
0.0
 11
445.0774687428617
 21
121.5399405566153
 31
0.0
1001
PHOENIX7010
1002
{
1070
    41
1040
1.0
1002
}
  0
ELLIPSE
  5
AF6C9
102
{ACAD_REACTORS
330
FF58
102
}
330
1F
100
AcDbEntity
  8
0
100
AcDbEllipse
 10
445.0952970159433
 20
128.0488608056018
 30
0.0
 11
-4.608800582327915
 21
-4.608800582327951
 31
0.0
210
0.0
220
0.0
230
0.9999999999999998
 40
0.9972646886342372
 41
5.499156671652528
 42
7.067213942706639
1001
PHOENIX7010
1002
{
1070
    41
1040
1.0
1002
}
  0
LINE
  5
AF6CA
102
{ACAD_REACTORS
330
FF58
102
}
330
1F
100
AcDbEntity
  8
0
100
AcDbLine
 10
438.5863767669569
 20
128.0310325325201
 30
0.0
 11
438.5863767669569
 21
128.5399405566153
 31
0.0
1001
PHOENIX7010
1002
{
1070
    41
1040
1.0
1002
}
  0
LINE
  5
AF6CB
102
{ACAD_REACTORS
330
FF58
102
}
330
1F
100
AcDbEntity
  8
0
100
AcDbLine
 10
441.0903687008345
 20
128.5399405566153
 30
0.0
 11
438.5863767669571
 21
128.5399405566153
 31
0.0
1001
PHOENIX7010
1002
{
1070
    41
1040
1.0
1002
}
  0
LINE
  5
AF6CC
102
{ACAD_REACTORS
330
FF58
102
}
330
1F
100
AcDbEntity
  8
0
100
AcDbLine
 10
149.769450409252
 20
128.8543872323135
 30
0.0
 11
441.4321964760582
 21
128.8543872323136
 31
0.0
1001
PHOENIX7010
1002
{
1070
    41
1040
1.0
1002
}
  0
LINE
  5
AF6CD
102
{ACAD_REACTORS
330
FF58
102
}
330
1F
100
AcDbEntity
  8
0
100
AcDbLine
 10
145.4008234426552
 20
67.85438723231351
 30
0.0
 11
145.4008234426552
 21
124.3744374838871
 31
0.0
1001
PHOENIX7010
1002
{
1070
    41
1040
1.0
1002
}
  0
LINE
  5
AF6CE
102
{ACAD_REACTORS
330
FF58
102
}
330
1F
100
AcDbEntity
  8
0
100
AcDbLine
 10
145.3726406121321
 20
67.85438723231351
 30
0.0
 11
145.4008234426552
 21
67.85438723231351
 31
0.0
1001
PHOENIX7010
1002
{
1070
    41
1040
1.0
1002
}
  0
LINE
  5
AF6CF
102
{ACAD_REACTORS
330
FF58
102
}
330
1F
100
AcDbEntity
  8
0
100
AcDbLine
 10
145.3726406121321
 20
67.85438723231351
 30
0.0
 11
145.3726406121321
 21
72.8762044017904
 31
0.0
1001
PHOENIX7010
1002
{
1070
    41
1040
1.0
1002
}
  0
LINE
  5
AF6D0
102
{ACAD_REACTORS
330
FF58
102
}
330
1F
100
AcDbEntity
  8
0
100
AcDbLine
 10
145.372640612132
 20
72.8762044017904
 30
0.0
 11
142.8290062731782
 21
72.8762044017904
 31
0.0
1001
PHOENIX7010
1002
{
1070
    41
1040
1.0
1002
}
  0
LINE
  5
AF6D1
102
{ACAD_REACTORS
330
FF58
102
}
330
1F
100
AcDbEntity
  8
0
100
AcDbLine
 10
142.8290062731782
 20
72.8762044017904
 30
0.0
 11
142.8290062731782
 21
67.85438723231351
 31
0.0
1001
PHOENIX7010
1002
{
1070
    41
1040
1.0
1002
}
  0
LINE
  5
AF6D2
102
{ACAD_REACTORS
330
FF58
102
}
330
1F
100
AcDbEntity
  8
0
100
AcDbLine
 10
139.9008234426552
 20
67.85438723231351
 30
0.0
 11
142.8290062731782
 21
67.85438723231351
 31
0.0
1001
PHOENIX7010
1002
{
1070
    41
1040
1.0
1002
}
  0
LINE
  5
AF6D3
102
{ACAD_REACTORS
330
FF58
102
}
330
1F
100
AcDbEntity
  8
0
100
AcDbLine
 10
139.9008234426552
 20
67.85438723231351
 30
0.0
 11
139.9008234426552
 21
133.7050724649363
 31
0.0
1001
PHOENIX7010
1002
{
1070
    41
1040
1.0
1002
}
  0
ELLIPSE
  5
AF6D4
102
{ACAD_REACTORS
330
FF58
102
}
330
1F
100
AcDbEntity
  8
0
100
AcDbEllipse
 10
140.4015096156541
 20
133.7037010593146
 30
0.0
 11
-0.3545231217175234
 21
0.3545231217175433
 31
0.0
210
0.0
220
0.0
230
1.0
 40
0.9972646886342372
 41
5.49915667165254
 42
7.067213942706695
1001
PHOENIX7010
1002
{
1070
    41
1040
1.0
1002
}
  0
LINE
  5
AF6D5
102
{ACAD_REACTORS
330
FF58
102
}
330
1F
100
AcDbEntity
  8
0
100
AcDbLine
 10
140.4001382100325
 20
134.2043872323135
 30
0.0
 11
450.8015086752778
 21
134.2043872323135
 31
0.0
1001
PHOENIX7010
1002
{
1070
    41
1040
1.0
1002
}
  0
ELLIPSE
  5
AF6D6
102
{ACAD_REACTORS
330
FF58
102
}
330
1F
100
AcDbEntity
  8
0
100
AcDbEllipse
 10
450.8001372696561
 20
133.7037010593146
 30
0.0
 11
0.3545231217175433
 21
0.3545231217175234
 31
0.0
210
0.0
220
0.0
230
1.0
 40
0.9972646886342372
 41
5.499156671652573
 42
7.067213942706714
1001
PHOENIX7010
1002
{
1070
    41
1040
1.0
1002
}
  0
LINE
  5
AF6D7
102
{ACAD_REACTORS
330
FF58
102
}
330
1F
100
AcDbEntity
  8
0
100
AcDbLine
 10
451.3008234426552
 20
133.7050724649363
 30
0.0
 11
451.3008234426552
 21
67.85438723231362
 31
0.0
1001
PHOENIX7010
1002
{
1070
    41
1040
1.0
1002
}
  0
LINE
  5
AF6D8
102
{ACAD_REACTORS
330
FF58
102
}
330
1F
100
AcDbEntity
  8
0
100
AcDbLine
 10
448.3726406121321
 20
67.85438723231362
 30
0.0
 11
451.3008234426552
 21
67.85438723231362
 31
0.0
1001
PHOENIX7010
1002
{
1070
    41
1040
1.0
1002
}
  0
LINE
  5
AF6D9
102
{ACAD_REACTORS
330
FF58
102
}
330
1F
100
AcDbEntity
  8
0
100
AcDbLine
 10
448.3726406121321
 20
67.85438723231362
 30
0.0
 11
448.3726406121321
 21
72.87620440179051
 31
0.0
1001
PHOENIX7010
1002
{
1070
    41
1040
1.0
1002
}
  0
LINE
  5
AF6DA
102
{ACAD_REACTORS
330
FF58
102
}
330
1F
100
AcDbEntity
  8
0
100
AcDbLine
 10
448.372640612132
 20
72.87620440179051
 30
0.0
 11
445.8290062731783
 21
72.87620440179051
 31
0.0
1001
PHOENIX7010
1002
{
1070
    41
1040
1.0
1002
}
  0
LINE
  5
AF6DB
102
{ACAD_REACTORS
330
FF58
102
}
330
1F
100
AcDbEntity
  8
0
100
AcDbLine
 10
445.8290062731783
 20
72.87620440179051
 30
0.0
 11
445.8290062731783
 21
67.85438723231362
 31
0.0
1001
PHOENIX7010
1002
{
1070
    41
1040
1.0
1002
}
  0
LINE
  5
AF6DC
102
{ACAD_REACTORS
330
FF58
102
}
330
1F
100
AcDbEntity
  8
0
100
AcDbLine
 10
445.8008234426552
 20
67.85438723231362
 30
0.0
 11
445.8290062731783
 21
67.85438723231362
 31
0.0
1001
PHOENIX7010
1002
{
1070
    41
1040
1.0
1002
}
  0
LINE
  5
AF6DD
102
{ACAD_REACTORS
330
FF58
102
}
330
1F
100
AcDbEntity
  8
0
100
AcDbLine
 10
445.8008234426552
 20
124.3744374838871
 30
0.0
 11
445.8008234426552
 21
67.85438723231362
 31
0.0
1001
PHOENIX7010
1002
{
1070
    41
1040
1.0
1002
}
  0
LINE
  5
AF6DE
102
{ACAD_REACTORS
330
FF58
102
}
330
1F
100
AcDbEntity
  8
0
100
AcDbLine
 10
440.3008234426551
 20
68.14465117056631
 30
0.0
 11
440.3008234426551
 21
122.8034234553005
 31
0.0
1001
PHOENIX7010
1002
{
1070
    41
1040
1.0
1002
}
  0
LINE
  5
AF6DF
102
{ACAD_REACTORS
330
FF58
102
}
330
1F
100
AcDbEntity
  8
0
100
AcDbLine
 10
150.9008234426552
 20
122.8034234553003
 30
0.0
 11
150.9008234426552
 21
68.14465117056641
 31
0.0
1001
PHOENIX7010
1002
{
1070
    41
1040
1.0
1002
}
  0
ARC
  5
AF6E0
102
{ACAD_REACTORS
330
FF58
102
}
330
1F
100
AcDbEntity
  8
0
100
AcDbCircle
 10
145.8008234426552
 20
128.3543872323135
 30
0.0
 40
4.314446675698246
100
AcDbArc
 50
268.8637788173577
 51
2.464905298830977
1001
PHOENIX7010
1002
{
1070
    41
1040
1.0
1002
}
  0
ARC
  5
AF6E1
102
{ACAD_REACTORS
330
FF58
102
}
330
1F
100
AcDbEntity
  8
0
100
AcDbCircle
 10
445.4008234426551
 20
128.3543872323136
 30
0.0
 40
4.314446675698246
100
AcDbArc
 50
177.535094701169
 51
271.1362211826422
1001
PHOENIX7010
1002
{
1070
    41
1040
1.0
1002
}
  0
CIRCLE
  5
AF6E2
102
{ACAD_REACTORS
330
FF58
102
}
330
1F
100
AcDbEntity
  8
0
100
AcDbCircle
 10
145.8008234426552
 20
128.3543872323135
 30
0.0
 40
1.55
1001
PHOENIX7010
1002
{
1070
    41
1040
1.0
1002
}
  0
CIRCLE
  5
AF6E3
102
{ACAD_REACTORS
330
FF58
102
}
330
1F
100
AcDbEntity
  8
0
100
AcDbCircle
 10
145.8008234426552
 20
128.3543872323135
 30
0.0
 40
1.149999999999999
1001
PHOENIX7010
1002
{
1070
    41
1040
1.0
1002
}
  0
CIRCLE
  5
AF6E4
102
{ACAD_REACTORS
330
FF58
102
}
330
1F
100
AcDbEntity
  8
0
100
AcDbCircle
 10
445.4008234426551
 20
128.3543872323136
 30
0.0
 40
1.55
1001
PHOENIX7010
1002
{
1070
    41
1040
1.0
1002
}
  0
CIRCLE
  5
AF6E5
102
{ACAD_REACTORS
330
FF58
102
}
330
1F
100
AcDbEntity
  8
0
100
AcDbCircle
 10
445.4008234426551
 20
128.3543872323136
 30
0.0
 40
1.149999999999999
1001
PHOENIX7010
1002
{
1070
    41
1040
1.0
1002
}
  0
CIRCLE
  5
AF6E6
102
{ACAD_REACTORS
330
FF58
102
}
330
1F
100
AcDbEntity
  8
0
100
AcDbCircle
 10
145.8008234426552
 20
128.3543872323135
 30
0.0
 40
1.61981494232607
1001
PHOENIX7010
1002
{
1070
    41
1040
1.0
1002
}
  0
CIRCLE
  5
AF6E7
102
{ACAD_REACTORS
330
FF58
102
}
330
1F
100
AcDbEntity
  8
0
100
AcDbCircle
 10
445.4008234426551
 20
128.3543872323136
 30
0.0
 40
1.61981494232607
1001
PHOENIX7010
1002
{
1070
    41
1040
1.0
1002
}
  0
ARC
  5
AF6E8
102
{ACAD_REACTORS
330
FF58
102
}
330
1F
100
AcDbEntity
  8
0
100
AcDbCircle
 10
445.4008234426551
 20
128.3543872323136
 30
0.0
 40
4.0
100
AcDbArc
 50
172.8192442185417
 51
275.7391704772681
1001
PHOENIX7010
1002
{
1070
    41
1040
1.0
1002
}
  0
ARC
  5
AF6E9
102
{ACAD_REACTORS
330
FF58
102
}
330
1F
100
AcDbEntity
  8
0
100
AcDbCircle
 10
145.8008234426552
 20
128.3543872323135
 30
0.0
 40
4.0
100
AcDbArc
 50
264.2608295227319
 51
7.180755781458255
1001
PHOENIX7010
1002
{
1070
    41
1040
1.0
1002
}
  0
LINE
  5
AF773
102
{ACAD_REACTORS
330
FF58
102
}
330
1F
100
AcDbEntity
  8
0
100
AcDbLine
 10
152.8599251403519
 20
206.0084554756335
 30
0.0
 11
152.6152701183534
 21
210.6767513917268
 31
0.0
1001
PHOENIX7010
1002
{
1070
    41
1040
1.0
1002
}
  0
LINE
  5
AF774
102
{ACAD_REACTORS
330
FF58
102
}
330
1F
100
AcDbEntity
  8
0
100
AcDbLine
 10
439.6008234323003
 20
198.5107200083395
 30
0.0
 11
439.6535213110758
 21
196.9958165757406
 31
0.0
1001
PHOENIX7010
1002
{
1070
    41
1040
1.0
1002
}
  0
LINE
  5
AF775
102
{ACAD_REACTORS
330
FF58
102
}
330
1F
100
AcDbEntity
  8
0
100
AcDbLine
 10
439.6535213241344
 20
196.9958164984629
 30
0.0
 11
151.548125561176
 21
196.9958164984629
 31
0.0
1001
PHOENIX7010
1002
{
1070
    41
1040
1.0
1002
}
  0
LINE
  5
AF776
102
{ACAD_REACTORS
330
FF58
102
}
330
1F
100
AcDbEntity
  8
0
100
AcDbLine
 10
439.6536528800809
 20
196.9958164981616
 30
0.0
 11
439.6536528800809
 21
200.9528182189567
 31
0.0
1001
PHOENIX7010
1002
{
1070
    41
1040
1.0
1002
}
  0
LINE
  5
AF777
102
{ACAD_REACTORS
330
FF58
102
}
330
1F
100
AcDbEntity
  8
0
100
AcDbLine
 10
448.1580316420381
 20
201.9115531824031
 30
0.0
 11
447.9853952463257
 21
198.6174545185367
 31
0.0
1001
PHOENIX7010
1002
{
1070
    41
1040
1.0
1002
}
  0
LINE
  5
AF778
102
{ACAD_REACTORS
330
FF58
102
}
330
1F
100
AcDbEntity
  8
0
100
AcDbLine
 10
438.5863767669569
 20
210.6767513917268
 30
0.0
 11
438.3417217449585
 21
206.0084554756335
 31
0.0
1001
PHOENIX7010
1002
{
1070
    41
1040
1.0
1002
}
  0
LINE
  5
AF779
102
{ACAD_REACTORS
330
FF58
102
}
330
1F
100
AcDbEntity
  8
0
100
AcDbLine
 10
146.1241781424487
 20
210.6767513917268
 30
0.0
 11
152.6152701183534
 21
210.6767513917268
 31
0.0
1001
PHOENIX7010
1002
{
1070
    41
1040
1.0
1002
}
  0
LINE
  5
AF77A
102
{ACAD_REACTORS
330
FF58
102
}
330
1F
100
AcDbEntity
  8
0
100
AcDbLine
 10
146.1241781424487
 20
210.6767513917268
 30
0.0
 11
145.7152701183535
 21
210.6767513917268
 31
0.0
1001
PHOENIX7010
1002
{
1070
    41
1040
1.0
1002
}
  0
LINE
  5
AF77B
102
{ACAD_REACTORS
330
FF58
102
}
330
1F
100
AcDbEntity
  8
0
100
AcDbLine
 10
445.4863767669569
 20
210.6767513917268
 30
0.0
 11
445.0774687428617
 21
210.6767513917268
 31
0.0
1001
PHOENIX7010
1002
{
1070
    41
1040
1.0
1002
}
  0
LINE
  5
AF77C
102
{ACAD_REACTORS
330
FF58
102
}
330
1F
100
AcDbEntity
  8
0
100
AcDbLine
 10
438.5863767669569
 20
210.6767513917268
 30
0.0
 11
445.0774687428617
 21
210.6767513917268
 31
0.0
1001
PHOENIX7010
1002
{
1070
    41
1040
1.0
1002
}
  0
LINE
  5
AF77D
102
{ACAD_REACTORS
330
FF58
102
}
330
1F
100
AcDbEntity
  8
0
100
AcDbLine
 10
149.8008234426552
 20
216.6767513917268
 30
0.0
 11
441.4008234426552
 21
216.6767513917268
 31
0.0
1001
PHOENIX7010
1002
{
1070
    41
1040
1.0
1002
}
  0
LINE
  5
AF77E
102
{ACAD_REACTORS
330
FF58
102
}
330
1F
100
AcDbEntity
  8
0
100
AcDbLine
 10
143.2162516389846
 20
198.6174545185367
 30
0.0
 11
143.0436152432721
 21
201.9115531824031
 31
0.0
1001
PHOENIX7010
1002
{
1070
    41
1040
1.0
1002
}
  0
LINE
  5
AF77F
102
{ACAD_REACTORS
330
FF58
102
}
330
1F
100
AcDbEntity
  8
0
100
AcDbLine
 10
151.5481255742346
 20
196.9958165757406
 30
0.0
 11
151.60082345301
 21
198.5107200083395
 31
0.0
1001
PHOENIX7010
1002
{
1070
    41
1040
1.0
1002
}
  0
LINE
  5
AF780
102
{ACAD_REACTORS
330
FF58
102
}
330
1F
100
AcDbEntity
  8
0
100
AcDbLine
 10
151.5479940052295
 20
196.9958164981616
 30
0.0
 11
151.5479940052295
 21
200.9528182189568
 31
0.0
1001
PHOENIX7010
1002
{
1070
    41
1040
1.0
1002
}
  0
LINE
  5
AF781
102
{ACAD_REACTORS
330
FF58
102
}
330
1F
100
AcDbEntity
  8
0
100
AcDbLine
 10
151.6008234426551
 20
198.5107200086997
 30
0.0
 11
439.6008234426552
 21
198.5107200086997
 31
0.0
1001
PHOENIX7010
1002
{
1070
    41
1040
1.0
1002
}
  0
LINE
  5
AF782
102
{ACAD_REACTORS
330
FF58
102
}
330
1F
100
AcDbEntity
  8
0
100
AcDbLine
 10
440.3008234426551
 20
206.0084554756335
 30
0.0
 11
441.1765284772982
 21
204.4916898631884
 31
0.0
1001
PHOENIX7010
1002
{
1070
    41
1040
1.0
1002
}
  0
LINE
  5
AF783
102
{ACAD_REACTORS
330
FF58
102
}
330
1F
100
AcDbEntity
  8
0
100
AcDbLine
 10
441.1765284772982
 20
204.4916898631881
 30
0.0
 11
445.1622314275173
 21
204.4916898631881
 31
0.0
1001
PHOENIX7010
1002
{
1070
    41
1040
1.0
1002
}
  0
LINE
  5
AF784
102
{ACAD_REACTORS
330
FF58
102
}
330
1F
100
AcDbEntity
  8
0
100
AcDbLine
 10
445.1622314275172
 20
204.4916898631881
 30
0.0
 11
445.8008234426552
 21
216.6767513917268
 31
0.0
1001
PHOENIX7010
1002
{
1070
    41
1040
1.0
1002
}
  0
LINE
  5
AF785
102
{ACAD_REACTORS
330
FF58
102
}
330
1F
100
AcDbEntity
  8
0
100
AcDbLine
 10
445.8008234426552
 20
216.6767513917268
 30
0.0
 11
451.3008234426552
 21
216.6767513917268
 31
0.0
1001
PHOENIX7010
1002
{
1070
    41
1040
1.0
1002
}
  0
LINE
  5
AF786
102
{ACAD_REACTORS
330
FF58
102
}
330
1F
100
AcDbEntity
  8
0
100
AcDbLine
 10
451.3008234426552
 20
216.6767513917268
 30
0.0
 11
451.1698039944476
 21
214.1767513917268
 31
0.0
1001
PHOENIX7010
1002
{
1070
    41
1040
1.0
1002
}
  0
LINE
  5
AF787
102
{ACAD_REACTORS
330
FF58
102
}
330
1F
100
AcDbEntity
  8
0
100
AcDbLine
 10
451.1698039944475
 20
214.1767513917268
 30
0.0
 11
448.8008234426551
 21
214.1767513917268
 31
0.0
1001
PHOENIX7010
1002
{
1070
    41
1040
1.0
1002
}
  0
LINE
  5
AF788
102
{ACAD_REACTORS
330
FF58
102
}
330
1F
100
AcDbEntity
  8
0
100
AcDbLine
 10
448.8008234426551
 20
214.1767513917268
 30
0.0
 11
448.1580316420381
 21
201.9115531824031
 31
0.0
1001
PHOENIX7010
1002
{
1070
    41
1040
1.0
1002
}
  0
ARC
  5
AF789
102
{ACAD_REACTORS
330
FF58
102
}
330
1F
100
AcDbEntity
  8
0
100
AcDbCircle
 10
447.152841109462
 20
201.9591190046948
 30
0.0
 40
1.006315315510417
100
AcDbArc
 50
270.307893494745
 51
357.2907729175777
1001
PHOENIX7010
1002
{
1070
    41
1040
1.0
1002
}
  0
LINE
  5
AF78A
102
{ACAD_REACTORS
330
FF58
102
}
330
1F
100
AcDbEntity
  8
0
100
AcDbLine
 10
447.1582487756242
 20
200.9528182189567
 30
0.0
 11
439.6537848729381
 21
200.9528182189567
 31
0.0
1001
PHOENIX7010
1002
{
1070
    41
1040
1.0
1002
}
  0
LINE
  5
AF78B
102
{ACAD_REACTORS
330
FF58
102
}
330
1F
100
AcDbEntity
  8
0
100
AcDbLine
 10
439.6008234426552
 20
202.469435150765
 30
0.0
 11
439.6537848729381
 21
200.9528182189567
 31
0.0
1001
PHOENIX7010
1002
{
1070
    41
1040
1.0
1002
}
  0
LINE
  5
AF78C
102
{ACAD_REACTORS
330
FF58
102
}
330
1F
100
AcDbEntity
  8
0
100
AcDbLine
 10
439.6008234426552
 20
202.469435150765
 30
0.0
 11
151.6008234426551
 21
202.469435150765
 31
0.0
1001
PHOENIX7010
1002
{
1070
    41
1040
1.0
1002
}
  0
LINE
  5
AF78D
102
{ACAD_REACTORS
330
FF58
102
}
330
1F
100
AcDbEntity
  8
0
100
AcDbLine
 10
151.5478620123722
 20
200.9528182189568
 30
0.0
 11
151.6008234426551
 21
202.469435150765
 31
0.0
1001
PHOENIX7010
1002
{
1070
    41
1040
1.0
1002
}
  0
LINE
  5
AF78E
102
{ACAD_REACTORS
330
FF58
102
}
330
1F
100
AcDbEntity
  8
0
100
AcDbLine
 10
151.5478620123722
 20
200.9528182189567
 30
0.0
 11
144.0433981096862
 21
200.9528182189567
 31
0.0
1001
PHOENIX7010
1002
{
1070
    41
1040
1.0
1002
}
  0
ARC
  5
AF78F
102
{ACAD_REACTORS
330
FF58
102
}
330
1F
100
AcDbEntity
  8
0
100
AcDbCircle
 10
144.0488081050419
 20
201.9591214336121
 30
0.0
 40
1.006317756911695
100
AcDbArc
 50
182.7093589524896
 51
269.6919746351862
1001
PHOENIX7010
1002
{
1070
    41
1040
1.0
1002
}
  0
LINE
  5
AF790
102
{ACAD_REACTORS
330
FF58
102
}
330
1F
100
AcDbEntity
  8
0
100
AcDbLine
 10
143.0436152432721
 20
201.9115531824031
 30
0.0
 11
142.4008234426552
 21
214.1767513917268
 31
0.0
1001
PHOENIX7010
1002
{
1070
    41
1040
1.0
1002
}
  0
LINE
  5
AF791
102
{ACAD_REACTORS
330
FF58
102
}
330
1F
100
AcDbEntity
  8
0
100
AcDbLine
 10
142.4008234426551
 20
214.1767513917268
 30
0.0
 11
140.0318428908629
 21
214.1767513917268
 31
0.0
1001
PHOENIX7010
1002
{
1070
    41
1040
1.0
1002
}
  0
LINE
  5
AF792
102
{ACAD_REACTORS
330
FF58
102
}
330
1F
100
AcDbEntity
  8
0
100
AcDbLine
 10
140.0318428908628
 20
214.1767513917268
 30
0.0
 11
139.9008234426552
 21
216.6767513917268
 31
0.0
1001
PHOENIX7010
1002
{
1070
    41
1040
1.0
1002
}
  0
LINE
  5
AF793
102
{ACAD_REACTORS
330
FF58
102
}
330
1F
100
AcDbEntity
  8
0
100
AcDbLine
 10
139.9008234426551
 20
216.6767513917268
 30
0.0
 11
145.4008234426552
 21
216.6767513917268
 31
0.0
1001
PHOENIX7010
1002
{
1070
    41
1040
1.0
1002
}
  0
LINE
  5
AF794
102
{ACAD_REACTORS
330
FF58
102
}
330
1F
100
AcDbEntity
  8
0
100
AcDbLine
 10
145.4008234426552
 20
216.6767513917268
 30
0.0
 11
146.0394154577931
 21
204.4916898631881
 31
0.0
1001
PHOENIX7010
1002
{
1070
    41
1040
1.0
1002
}
  0
LINE
  5
AF795
102
{ACAD_REACTORS
330
FF58
102
}
330
1F
100
AcDbEntity
  8
0
100
AcDbLine
 10
146.0394154577932
 20
204.4916898631881
 30
0.0
 11
150.0251184080123
 21
204.4916898631881
 31
0.0
1001
PHOENIX7010
1002
{
1070
    41
1040
1.0
1002
}
  0
LINE
  5
AF796
102
{ACAD_REACTORS
330
FF58
102
}
330
1F
100
AcDbEntity
  8
0
100
AcDbLine
 10
150.0251184080123
 20
204.4916898631884
 30
0.0
 11
150.9008234426552
 21
206.0084554756335
 31
0.0
1001
PHOENIX7010
1002
{
1070
    41
1040
1.0
1002
}
  0
LINE
  5
AF797
102
{ACAD_REACTORS
330
FF58
102
}
330
1F
100
AcDbEntity
  8
0
100
AcDbLine
 10
150.9008234426552
 20
206.0084554756335
 30
0.0
 11
440.3008234426551
 21
206.0084554756335
 31
0.0
1001
PHOENIX7010
1002
{
1070
    41
1040
1.0
1002
}
  0
LINE
  5
AF798
102
{ACAD_REACTORS
330
FF58
102
}
330
1F
100
AcDbEntity
  8
0
100
AcDbLine
 10
151.1561663138632
 20
196.8820230729004
 30
0.0
 11
440.0454805714471
 21
196.8820230729004
 31
0.0
1001
PHOENIX7010
1002
{
1070
    41
1040
1.0
1002
}
  0
ARC
  5
AF799
102
{ACAD_REACTORS
330
FF58
102
}
330
1F
100
AcDbEntity
  8
0
100
AcDbCircle
 10
443.5562553011277
 20
181.4287722968967
 30
0.0
 40
16.24950234413569
100
AcDbArc
 50
88.14842596978875
 51
100.5351090441398
1001
PHOENIX7010
1002
{
1070
    41
1040
1.0
1002
}
  0
LINE
  5
AF79A
102
{ACAD_REACTORS
330
FF58
102
}
330
1F
100
AcDbEntity
  8
0
100
AcDbLine
 10
444.0812838505894
 20
197.6697904747795
 30
0.0
 11
446.9867657115712
 21
197.6697904747795
 31
0.0
1001
PHOENIX7010
1002
{
1070
    41
1040
1.0
1002
}
  0
ARC
  5
AF79B
102
{ACAD_REACTORS
330
FF58
102
}
330
1F
100
AcDbEntity
  8
0
100
AcDbCircle
 10
147.590699098767
 20
180.7084094173322
 30
0.0
 40
16.96790097180792
100
AcDbArc
 50
79.72807030946019
 51
91.58839467660966
1001
PHOENIX7010
1002
{
1070
    41
1040
1.0
1002
}
  0
LINE
  5
AF79C
102
{ACAD_REACTORS
330
FF58
102
}
330
1F
100
AcDbEntity
  8
0
100
AcDbLine
 10
144.2148811737393
 20
197.6697904747795
 30
0.0
 11
147.1203630347208
 21
197.6697904747795
 31
0.0
1001
PHOENIX7010
1002
{
1070
    41
1040
1.0
1002
}
  0
LINE
  5
AF79D
102
{ACAD_REACTORS
330
FF58
102
}
330
1F
100
AcDbEntity
  8
0
100
AcDbLine
 10
149.8008234426552
 20
216.6767513917268
 30
0.0
 11
150.1152701183534
 21
210.6767513917268
 31
0.0
1001
PHOENIX7010
1002
{
1070
    41
1040
1.0
1002
}
  0
LINE
  5
AF79E
102
{ACAD_REACTORS
330
FF58
102
}
330
1F
100
AcDbEntity
  8
0
100
AcDbLine
 10
441.4008234426552
 20
216.6767513917268
 30
0.0
 11
441.0863767669569
 21
210.6767513917268
 31
0.0
1001
PHOENIX7010
1002
{
1070
    41
1040
1.0
1002
}
  0
LINE
  5
AF79F
102
{ACAD_REACTORS
330
FF58
102
}
330
1F
100
AcDbEntity
  8
0
100
AcDbLine
 10
441.4008234426552
 20
216.6767513917268
 30
0.0
 11
445.8008234426552
 21
216.6767513917268
 31
0.0
1001
PHOENIX7010
1002
{
1070
    41
1040
1.0
1002
}
  0
LINE
  5
AF7A0
102
{ACAD_REACTORS
330
FF58
102
}
330
1F
100
AcDbEntity
  8
0
100
AcDbLine
 10
149.8008234426552
 20
216.6767513917268
 30
0.0
 11
145.4008234426552
 21
216.6767513917268
 31
0.0
1001
PHOENIX7010
1002
{
1070
    41
1040
1.0
1002
}
  0
LINE
  5
AF7A1
102
{ACAD_REACTORS
330
FF58
102
}
330
1F
100
AcDbEntity
  8
0
100
AcDbLine
 10
439.6008234426552
 20
198.5107200086997
 30
0.0
 11
439.6008234426552
 21
202.469435150765
 31
0.0
1001
PHOENIX7010
1002
{
1070
    41
1040
1.0
1002
}
  0
LINE
  5
AF7A2
102
{ACAD_REACTORS
330
FF58
102
}
330
1F
100
AcDbEntity
  8
0
100
AcDbLine
 10
151.6008234426551
 20
202.469435150765
 30
0.0
 11
151.6008234426551
 21
198.5107200086997
 31
0.0
1001
PHOENIX7010
1002
{
1070
    41
1040
1.0
1002
}
  0
ARC
  5
AF7A3
102
{ACAD_REACTORS
330
FF58
102
}
330
1F
100
AcDbEntity
  8
0
100
AcDbCircle
 10
151.1561663138632
 20
197.8820230729004
 30
0.0
 40
1.0
100
AcDbArc
 50
203.3121070382212
 51
270.0
1001
PHOENIX7010
1002
{
1070
    41
1040
1.0
1002
}
  0
ARC
  5
AF7A4
102
{ACAD_REACTORS
330
FF58
102
}
330
1F
100
AcDbEntity
  8
0
100
AcDbCircle
 10
144.2148811737393
 20
198.6697904747795
 30
0.0
 40
1.0
100
AcDbArc
 50
182.999999999986
 51
270.0
1001
PHOENIX7010
1002
{
1070
    41
1040
1.0
1002
}
  0
ARC
  5
AF7A5
102
{ACAD_REACTORS
330
FF58
102
}
330
1F
100
AcDbEntity
  8
0
100
AcDbCircle
 10
440.0454805714471
 20
197.8820230729004
 30
0.0
 40
0.9999999999999998
100
AcDbArc
 50
270.0
 51
336.689930993963
1001
PHOENIX7010
1002
{
1070
    41
1040
1.0
1002
}
  0
ARC
  5
AF7A6
102
{ACAD_REACTORS
330
FF58
102
}
330
1F
100
AcDbEntity
  8
0
100
AcDbCircle
 10
446.9867657115712
 20
198.6697904747795
 30
0.0
 40
1.0
100
AcDbArc
 50
270.0
 51
357.000000000014
1001
PHOENIX7010
1002
{
1070
    41
1040
1.0
1002
}
  0
HATCH
  5
AF7A7
102
{ACAD_REACTORS
330
FF58
102
}
330
1F
100
AcDbEntity
  8
0
 62
     1
100
AcDbHatch
 10
0.0
 20
0.0
 30
0.0
210
0.0
220
0.0
230
1.0
  2
ANSI31
 70
     0
 71
     0
 91
        1
 92
        0
 93
      232
 72
     1
 10
440.3008234426551
 20
206.0084554756335
 11
150.9008234426552
 21
206.0084554756335
 72
     1
 10
150.9008234426552
 20
206.0084554756335
 11
150.876498302804
 21
205.96632309751
 72
     1
 10
150.876498302804
 20
205.9663230975102
 11
150.8521731629528
 21
205.9241907193867
 72
     1
 10
150.8521731629528
 20
205.9241907193865
 11
150.8278480231016
 21
205.8820583412631
 72
     1
 10
150.8278480231016
 20
205.8820583412632
 11
150.8035228832504
 21
205.8399259631397
 72
     1
 10
150.8035228832504
 20
205.8399259631396
 11
150.7791977433992
 21
205.7977935850161
 72
     1
 10
150.7791977433992
 20
205.7977935850162
 11
150.754872603548
 21
205.7556612068927
 72
     1
 10
150.754872603548
 20
205.7556612068926
 11
150.7305474636968
 21
205.7135288287692
 72
     1
 10
150.7305474636969
 20
205.7135288287692
 11
150.7062223238457
 21
205.6713964506458
 72
     1
 10
150.7062223238456
 20
205.6713964506457
 11
150.6818971839944
 21
205.6292640725222
 72
     1
 10
150.6818971839944
 20
205.6292640725223
 11
150.6575720441433
 21
205.5871316943988
 72
     1
 10
150.6575720441433
 20
205.5871316943987
 11
150.6332469042921
 21
205.5449993162752
 72
     1
 10
150.6332469042921
 20
205.5449993162753
 11
150.6089217644409
 21
205.5028669381518
 72
     1
 10
150.608921764441
 20
205.5028669381517
 11
150.5845966245898
 21
205.4607345600282
 72
     1
 10
150.5845966245897
 20
205.4607345600284
 11
150.5602714847385
 21
205.4186021819049
 72
     1
 10
150.5602714847385
 20
205.4186021819047
 11
150.5359463448874
 21
205.3764698037813
 72
     1
 10
150.5359463448874
 20
205.3764698037814
 11
150.5116212050362
 21
205.3343374256579
 72
     1
 10
150.5116212050361
 20
205.3343374256578
 11
150.4872960651849
 21
205.2922050475343
 72
     1
 10
150.487296065185
 20
205.2922050475344
 11
150.4629709253338
 21
205.250072669411
 72
     1
 10
150.4629709253338
 20
205.2500726694109
 11
150.4386457854826
 21
205.2079402912875
 72
     1
 10
150.4386457854826
 20
205.2079402912875
 11
150.4143206456314
 21
205.165807913164
 72
     1
 10
150.4143206456315
 20
205.165807913164
 11
150.3899955057802
 21
205.1236755350405
 72
     1
 10
150.3899955057802
 20
205.1236755350405
 11
150.365670365929
 21
205.081543156917
 72
     1
 10
150.3656703659289
 20
205.081543156917
 11
150.3413452260777
 21
205.0394107787935
 72
     1
 10
150.3413452260778
 20
205.0394107787935
 11
150.3170200862266
 21
204.99727840067
 72
     1
 10
150.3170200862266
 20
204.99727840067
 11
150.2926949463754
 21
204.9551460225465
 72
     1
 10
150.2926949463754
 20
204.9551460225465
 11
150.2683698065242
 21
204.9130136444231
 72
     1
 10
150.2683698065242
 20
204.9130136444231
 11
150.244044666673
 21
204.8708812662996
 72
     1
 10
150.244044666673
 20
204.8708812662996
 11
150.2197195268218
 21
204.8287488881761
 72
     1
 10
150.2197195268218
 20
204.8287488881761
 11
150.1953943869706
 21
204.7866165100526
 72
     1
 10
150.1953943869706
 20
204.7866165100526
 11
150.1710692471194
 21
204.7444841319292
 72
     1
 10
150.1710692471194
 20
204.7444841319292
 11
150.1467441072682
 21
204.7023517538058
 72
     1
 10
150.1467441072682
 20
204.7023517538057
 11
150.122418967417
 21
204.6602193756822
 72
     1
 10
150.122418967417
 20
204.6602193756823
 11
150.0980938275658
 21
204.6180869975588
 72
     1
 10
150.0980938275658
 20
204.6180869975587
 11
150.0737686877146
 21
204.5759546194352
 72
     1
 10
150.0737686877146
 20
204.5759546194353
 11
150.0494435478634
 21
204.5338222413118
 72
     1
 10
150.0494435478633
 20
204.5338222413117
 11
150.0251184080122
 21
204.4916898631882
 72
     1
 10
150.0251184080123
 20
204.4916898631881
 11
146.0394154577932
 21
204.4916898631881
 72
     1
 10
146.0394154577931
 20
204.4916898631881
 11
145.4008234426551
 21
216.6767513917267
 72
     1
 10
145.4008234426552
 20
216.6767513917268
 11
139.9008234426551
 21
216.6767513917268
 72
     1
 10
139.9008234426552
 20
216.6767513917268
 11
140.0318428908628
 21
214.1767513917268
 72
     1
 10
140.0318428908629
 20
214.1767513917268
 11
142.4008234426552
 21
214.1767513917268
 72
     1
 10
142.4008234426552
 20
214.1767513917268
 11
143.0436152432722
 21
201.9115531824032
 72
     1
 10
143.0436152432721
 20
201.9115531824031
 11
143.0467243392388
 21
201.8691338995608
 72
     1
 10
143.0467243392389
 20
201.8691338995608
 11
143.0515867276334
 21
201.8269436635077
 72
     1
 10
143.0515867276333
 20
201.8269436635077
 11
143.0581894968281
 21
201.7850372248259
 72
     1
 10
143.0581894968281
 20
201.7850372248258
 11
143.0665197351961
 21
201.7434693340973
 72
     1
 10
143.0665197351961
 20
201.7434693340974
 11
143.0765645311099
 21
201.7022947419043
 72
     1
 10
143.0765645311099
 20
201.7022947419043
 11
143.0883109729423
 21
201.6615681988287
 72
     1
 10
143.0883109729424
 20
201.6615681988288
 11
143.1017461490662
 21
201.6213444554529
 72
     1
 10
143.1017461490662
 20
201.6213444554529
 11
143.1168571478541
 21
201.5816782623586
 72
     1
 10
143.116857147854
 20
201.5816782623586
 11
143.1336310576787
 21
201.5426243701281
 72
     1
 10
143.1336310576787
 20
201.5426243701281
 11
143.1520401600106
 21
201.5042669071899
 72
     1
 10
143.1520401600107
 20
201.5042669071899
 11
143.172007657103
 21
201.4667672287436
 72
     1
 10
143.172007657103
 20
201.4667672287437
 11
143.1934968152574
 21
201.4301826751289
 72
     1
 10
143.1934968152574
 20
201.4301826751288
 11
143.2164757554936
 21
201.3945598866651
 72
     1
 10
143.2164757554936
 20
201.3945598866651
 11
143.2409125988318
 21
201.3599455036716
 72
     1
 10
143.2409125988317
 20
201.3599455036717
 11
143.2667754662916
 21
201.3263861664679
 72
     1
 10
143.2667754662916
 20
201.3263861664679
 11
143.2940324788931
 21
201.2939285153732
 72
     1
 10
143.2940324788932
 20
201.2939285153732
 11
143.3226517576562
 21
201.262619190707
 72
     1
 10
143.3226517576562
 20
201.262619190707
 11
143.3526014236007
 21
201.2325048327885
 72
     1
 10
143.3526014236008
 20
201.2325048327885
 11
143.3838435350916
 21
201.2036374788637
 72
     1
 10
143.3838435350916
 20
201.2036374788638
 11
143.4162498644875
 21
201.1761414391164
 72
     1
 10
143.4162498644875
 20
201.1761414391164
 11
143.4497433749385
 21
201.1500773659776
 72
     1
 10
143.4497433749384
 20
201.1500773659776
 11
143.4842768444576
 21
201.1254770887688
 72
     1
 10
143.4842768444577
 20
201.1254770887687
 11
143.5198030510584
 21
201.1023724368113
 72
     1
 10
143.5198030510584
 20
201.1023724368115
 11
143.5562747727539
 21
201.0807952394269
 72
     1
 10
143.5562747727539
 20
201.0807952394268
 11
143.5936447875576
 21
201.0607773259364
 72
     1
 10
143.5936447875576
 20
201.0607773259365
 11
143.6318658734828
 21
201.0423505256619
 72
     1
 10
143.6318658734828
 20
201.0423505256619
 11
143.6708908085427
 21
201.0255466679244
 72
     1
 10
143.6708908085427
 20
201.0255466679243
 11
143.7106380836374
 21
201.0104099077387
 72
     1
 10
143.7106380836373
 20
201.0104099077389
 11
143.7509349607167
 21
200.9970066845839
 72
     1
 10
143.7509349607166
 20
200.9970066845838
 11
143.7917148720029
 21
200.9853528843259
 72
     1
 10
143.791714872003
 20
200.9853528843259
 11
143.8329217469894
 21
200.9754601186677
 72
     1
 10
143.8329217469893
 20
200.9754601186677
 11
143.874499515169
 21
200.9673399993116
 72
     1
 10
143.8744995151689
 20
200.9673399993116
 11
143.9163921060352
 21
200.96100413796
 72
     1
 10
143.9163921060353
 20
200.96100413796
 11
143.9585434490815
 21
200.9564641463153
 72
     1
 10
143.9585434490815
 20
200.9564641463152
 11
144.0008974738007
 21
200.95373163608
 72
     1
 10
144.0008974738007
 20
200.95373163608
 11
144.0433981096862
 21
200.9528182189566
 72
     1
 10
144.0433981096862
 20
200.9528182189567
 11
151.5478620123723
 21
200.9528182189567
 72
     1
 10
151.5478620123722
 20
200.9528182189568
 11
151.5493331632134
 21
200.9949464670626
 72
     1
 10
151.5493331632134
 20
200.9949464670626
 11
151.5508043140546
 21
201.0370747151683
 72
     1
 10
151.5508043140546
 20
201.0370747151683
 11
151.5522754648958
 21
201.0792029632741
 72
     1
 10
151.5522754648958
 20
201.0792029632741
 11
151.553746615737
 21
201.1213312113798
 72
     1
 10
151.553746615737
 20
201.12133121138
 11
151.5552177665783
 21
201.1634594594858
 72
     1
 10
151.5552177665782
 20
201.1634594594856
 11
151.5566889174194
 21
201.2055877075914
 72
     1
 10
151.5566889174195
 20
201.2055877075915
 11
151.5581600682606
 21
201.2477159556973
 72
     1
 10
151.5581600682605
 20
201.2477159556973
 11
151.5596312191017
 21
201.289844203803
 72
     1
 10
151.5596312191018
 20
201.289844203803
 11
151.5611023699429
 21
201.3319724519088
 72
     1
 10
151.561102369943
 20
201.3319724519088
 11
151.5625735207842
 21
201.3741007000146
 72
     1
 10
151.5625735207842
 20
201.3741007000146
 11
151.5640446716253
 21
201.4162289481204
 72
     1
 10
151.5640446716254
 20
201.4162289481205
 11
151.5655158224666
 21
201.4583571962262
 72
     1
 10
151.5655158224665
 20
201.4583571962262
 11
151.5669869733077
 21
201.5004854443319
 72
     1
 10
151.5669869733078
 20
201.500485444332
 11
151.568458124149
 21
201.5426136924378
 72
     1
 10
151.5684581241489
 20
201.5426136924377
 11
151.5699292749901
 21
201.5847419405435
 72
     1
 10
151.5699292749901
 20
201.5847419405436
 11
151.5714004258313
 21
201.6268701886493
 72
     1
 10
151.5714004258313
 20
201.6268701886493
 11
151.5728715766725
 21
201.6689984367551
 72
     1
 10
151.5728715766725
 20
201.6689984367551
 11
151.5743427275136
 21
201.7111266848608
 72
     1
 10
151.5743427275137
 20
201.7111266848608
 11
151.5758138783549
 21
201.7532549329667
 72
     1
 10
151.5758138783549
 20
201.7532549329666
 11
151.577285029196
 21
201.7953831810724
 72
     1
 10
151.5772850291961
 20
201.7953831810725
 11
151.5787561800373
 21
201.8375114291783
 72
     1
 10
151.5787561800373
 20
201.8375114291782
 11
151.5802273308785
 21
201.8796396772839
 72
     1
 10
151.5802273308785
 20
201.879639677284
 11
151.5816984817197
 21
201.9217679253899
 72
     1
 10
151.5816984817197
 20
201.9217679253898
 11
151.5831696325609
 21
201.9638961734956
 72
     1
 10
151.5831696325608
 20
201.9638961734956
 11
151.584640783402
 21
202.0060244216014
 72
     1
 10
151.584640783402
 20
202.0060244216014
 11
151.5861119342432
 21
202.0481526697071
 72
     1
 10
151.5861119342432
 20
202.0481526697071
 11
151.5875830850845
 21
202.0902809178129
 72
     1
 10
151.5875830850845
 20
202.090280917813
 11
151.5890542359256
 21
202.1324091659188
 72
     1
 10
151.5890542359256
 20
202.1324091659187
 11
151.5905253867669
 21
202.1745374140244
 72
     1
 10
151.5905253867668
 20
202.1745374140246
 11
151.591996537608
 21
202.2166656621304
 72
     1
 10
151.5919965376081
 20
202.2166656621303
 11
151.5934676884493
 21
202.2587939102361
 72
     1
 10
151.5934676884492
 20
202.2587939102361
 11
151.5949388392904
 21
202.3009221583418
 72
     1
 10
151.5949388392904
 20
202.3009221583418
 11
151.5964099901316
 21
202.3430504064476
 72
     1
 10
151.5964099901316
 20
202.3430504064476
 11
151.5978811409728
 21
202.3851786545534
 72
     1
 10
151.5978811409728
 20
202.3851786545535
 11
151.599352291814
 21
202.4273069026593
 72
     1
 10
151.599352291814
 20
202.4273069026591
 11
151.6008234426552
 21
202.4694351507649
 72
     1
 10
151.6008234426551
 20
202.469435150765
 11
439.6008234426552
 21
202.469435150765
 72
     1
 10
439.6008234426552
 20
202.469435150765
 11
439.6022945934965
 21
202.4273069026593
 72
     1
 10
439.6022945934965
 20
202.4273069026591
 11
439.6037657443375
 21
202.3851786545533
 72
     1
 10
439.6037657443375
 20
202.3851786545534
 11
439.6052368951788
 21
202.3430504064476
 72
     1
 10
439.6052368951788
 20
202.3430504064476
 11
439.6067080460199
 21
202.3009221583418
 72
     1
 10
439.6067080460199
 20
202.3009221583418
 11
439.6081791968612
 21
202.258793910236
 72
     1
 10
439.6081791968612
 20
202.2587939102361
 11
439.6096503477024
 21
202.2166656621303
 72
     1
 10
439.6096503477024
 20
202.2166656621302
 11
439.6111214985435
 21
202.1745374140244
 72
     1
 10
439.6111214985435
 20
202.1745374140246
 11
439.6125926493847
 21
202.1324091659187
 72
     1
 10
439.6125926493847
 20
202.1324091659187
 11
439.6140638002259
 21
202.0902809178129
 72
     1
 10
439.6140638002259
 20
202.0902809178129
 11
439.6155349510671
 21
202.0481526697071
 72
     1
 10
439.6155349510671
 20
202.0481526697071
 11
439.6170061019083
 21
202.0060244216014
 72
     1
 10
439.6170061019083
 20
202.0060244216014
 11
439.6184772527495
 21
201.9638961734955
 72
     1
 10
439.6184772527495
 20
201.9638961734956
 11
439.6199484035908
 21
201.9217679253898
 72
     1
 10
439.6199484035908
 20
201.9217679253897
 11
439.6214195544319
 21
201.8796396772839
 72
     1
 10
439.6214195544319
 20
201.879639677284
 11
439.6228907052731
 21
201.8375114291782
 72
     1
 10
439.6228907052731
 20
201.8375114291782
 11
439.6243618561142
 21
201.7953831810724
 72
     1
 10
439.6243618561142
 20
201.7953831810724
 11
439.6258330069555
 21
201.7532549329666
 72
     1
 10
439.6258330069555
 20
201.7532549329666
 11
439.6273041577967
 21
201.7111266848608
 72
     1
 10
439.6273041577967
 20
201.7111266848607
 11
439.6287753086378
 21
201.668998436755
 72
     1
 10
439.6287753086378
 20
201.6689984367551
 11
439.630246459479
 21
201.6268701886493
 72
     1
 10
439.630246459479
 20
201.6268701886492
 11
439.6317176103202
 21
201.5847419405434
 72
     1
 10
439.6317176103202
 20
201.5847419405434
 11
439.6331887611615
 21
201.5426136924377
 72
     1
 10
439.6331887611615
 20
201.5426136924377
 11
439.6346599120026
 21
201.5004854443319
 72
     1
 10
439.6346599120026
 20
201.5004854443319
 11
439.6361310628438
 21
201.4583571962262
 72
     1
 10
439.6361310628438
 20
201.4583571962262
 11
439.6376022136851
 21
201.4162289481203
 72
     1
 10
439.6376022136851
 20
201.4162289481202
 11
439.6390733645262
 21
201.3741007000145
 72
     1
 10
439.6390733645262
 20
201.3741007000146
 11
439.6405445153675
 21
201.3319724519088
 72
     1
 10
439.6405445153675
 20
201.3319724519087
 11
439.6420156662086
 21
201.2898442038029
 72
     1
 10
439.6420156662086
 20
201.289844203803
 11
439.6434868170498
 21
201.2477159556972
 72
     1
 10
439.6434868170498
 20
201.2477159556972
 11
439.644957967891
 21
201.2055877075914
 72
     1
 10
439.644957967891
 20
201.2055877075914
 11
439.6464291187321
 21
201.1634594594856
 72
     1
 10
439.6464291187321
 20
201.1634594594856
 11
439.6479002695733
 21
201.1213312113798
 72
     1
 10
439.6479002695733
 20
201.1213312113798
 11
439.6493714204146
 21
201.079202963274
 72
     1
 10
439.6493714204146
 20
201.0792029632741
 11
439.6508425712558
 21
201.0370747151683
 72
     1
 10
439.6508425712558
 20
201.0370747151682
 11
439.6523137220969
 21
200.9949464670624
 72
     1
 10
439.6523137220969
 20
200.9949464670624
 11
439.6537848729381
 21
200.9528182189567
 72
     1
 10
439.6537848729381
 20
200.9528182189567
 11
447.1582487756242
 21
200.9528182189567
 72
     1
 10
447.1582487756242
 20
200.9528182189567
 11
447.200747264037
 21
200.9537315354839
 72
     1
 10
447.200747264037
 20
200.9537315354839
 11
447.243094641768
 21
200.9564633762504
 72
     1
 10
447.243094641768
 20
200.9564633762504
 11
447.2852350084374
 21
200.9610015780335
 72
     1
 10
447.2852350084374
 20
200.9610015780335
 11
447.3271124636656
 21
200.9673339776104
 72
     1
 10
447.3271124636656
 20
200.9673339776104
 11
447.3686711070724
 21
200.9754484117585
 72
     1
 10
447.3686711070724
 20
200.9754484117586
 11
447.4098550382784
 21
200.9853327172551
 72
     1
 10
447.4098550382784
 20
200.985332717255
 11
447.450608356904
 21
200.9969747308773
 72
     1
 10
447.450608356904
 20
200.9969747308773
 11
447.4908751625691
 21
201.0103622894026
 72
     1
 10
447.4908751625691
 20
201.0103622894026
 11
447.5305995548941
 21
201.0254832296082
 72
     1
 10
447.5305995548941
 20
201.0254832296082
 11
447.5696554101516
 21
201.0422932860694
 72
     1
 10
447.5696554101516
 20
201.0422932860694
 11
447.6078948076084
 21
201.0607227297792
 72
     1
 10
447.6078948076084
 20
201.0607227297791
 11
447.6452708834123
 21
201.0807381268217
 72
     1
 10
447.6452708834123
 20
201.0807381268218
 11
447.6817374377461
 21
201.1023063141179
 72
     1
 10
447.6817374377461
 20
201.1023063141178
 11
447.7172482707924
 21
201.1253941285878
 72
     1
 10
447.7172482707924
 20
201.1253941285878
 11
447.7517571827337
 21
201.1499684071523
 72
     1
 10
447.7517571827337
 20
201.1499684071523
 11
447.7852179737529
 21
201.1759959867315
 72
     1
 10
447.7852179737529
 20
201.1759959867315
 11
447.8175844440324
 21
201.2034437042461
 72
     1
 10
447.8175844440324
 20
201.2034437042461
 11
447.8488103937549
 21
201.2322783966167
 72
     1
 10
447.8488103937549
 20
201.2322783966167
 11
447.8788144705804
 21
201.2624299610313
 72
     1
 10
447.8788144705804
 20
201.2624299610313
 11
447.90747635003
 21
201.293771066825
 72
     1
 10
447.90747635003
 20
201.293771066825
 11
447.9347623064732
 21
201.3262505128982
 72
     1
 10
447.9347623064732
 20
201.3262505128982
 11
447.9606421852593
 21
201.3598205544685
 72
     1
 10
447.9606421852593
 20
201.3598205544685
 11
447.9850858317369
 21
201.3944334467534
 72
     1
 10
447.9850858317369
 20
201.3944334467534
 11
448.0080630912548
 21
201.4300414449704
 72
     1
 10
448.0080630912548
 20
201.4300414449705
 11
448.029543809162
 21
201.466596804337
 72
     1
 10
448.029543809162
 20
201.4665968043369
 11
448.0494978308072
 21
201.5040517800704
 72
     1
 10
448.0494978308072
 20
201.5040517800705
 11
448.0678950015392
 21
201.5423586273884
 72
     1
 10
448.0678950015392
 20
201.5423586273884
 11
448.084697575558
 21
201.58145085366
 72
     1
 10
448.084697575558
 20
201.58145085366
 11
448.0998375674308
 21
201.6211676173826
 72
     1
 10
448.0998375674308
 20
201.6211676173825
 11
448.1132949276333
 21
201.6614361519056
 72
     1
 10
448.1132949276333
 20
201.6614361519057
 11
448.1250576529204
 21
201.7022014328819
 72
     1
 10
448.1250576529204
 20
201.7022014328818
 11
448.1351137400467
 21
201.7434084359639
 72
     1
 10
448.1351137400467
 20
201.7434084359639
 11
448.1434511857669
 21
201.7850021368044
 72
     1
 10
448.1434511857669
 20
201.7850021368044
 11
448.1500579868359
 21
201.826927511056
 72
     1
 10
448.1500579868359
 20
201.826927511056
 11
448.1549221400079
 21
201.8691295343713
 72
     1
 10
448.1549221400079
 20
201.8691295343713
 11
448.1580316420381
 21
201.911553182403
 72
     1
 10
448.1580316420381
 20
201.9115531824031
 11
448.8008234426551
 21
214.1767513917268
 72
     1
 10
448.8008234426551
 20
214.1767513917268
 11
451.1698039944475
 21
214.1767513917268
 72
     1
 10
451.1698039944475
 20
214.1767513917268
 11
451.3008234426552
 21
216.6767513917268
 72
     1
 10
451.3008234426552
 20
216.6767513917268
 11
445.8008234426552
 21
216.6767513917268
 72
     1
 10
445.8008234426552
 20
216.6767513917268
 11
445.1622314275172
 21
204.4916898631882
 72
     1
 10
445.1622314275173
 20
204.4916898631881
 11
441.1765284772982
 21
204.4916898631881
 72
     1
 10
441.1765284772982
 20
204.4916898631884
 11
441.152203337447
 21
204.5338222413118
 72
     1
 10
441.152203337447
 20
204.5338222413117
 11
441.1278781975958
 21
204.5759546194352
 72
     1
 10
441.1278781975958
 20
204.5759546194353
 11
441.1035530577446
 21
204.6180869975588
 72
     1
 10
441.1035530577446
 20
204.6180869975587
 11
441.0792279178934
 21
204.6602193756822
 72
     1
 10
441.0792279178934
 20
204.6602193756823
 11
441.0549027780422
 21
204.7023517538057
 72
     1
 10
441.0549027780422
 20
204.7023517538057
 11
441.030577638191
 21
204.7444841319292
 72
     1
 10
441.030577638191
 20
204.7444841319292
 11
441.0062524983398
 21
204.7866165100526
 72
     1
 10
441.0062524983398
 20
204.7866165100526
 11
440.9819273584886
 21
204.8287488881761
 72
     1
 10
440.9819273584886
 20
204.8287488881761
 11
440.9576022186374
 21
204.8708812662996
 72
     1
 10
440.9576022186374
 20
204.8708812662996
 11
440.9332770787862
 21
204.9130136444231
 72
     1
 10
440.9332770787862
 20
204.9130136444231
 11
440.908951938935
 21
204.9551460225465
 72
     1
 10
440.908951938935
 20
204.9551460225465
 11
440.8846267990838
 21
204.99727840067
 72
     1
 10
440.8846267990838
 20
204.99727840067
 11
440.8603016592326
 21
205.0394107787935
 72
     1
 10
440.8603016592326
 20
205.0394107787935
 11
440.8359765193814
 21
205.081543156917
 72
     1
 10
440.8359765193814
 20
205.0815431569169
 11
440.8116513795302
 21
205.1236755350404
 72
     1
 10
440.8116513795302
 20
205.1236755350405
 11
440.787326239679
 21
205.165807913164
 72
     1
 10
440.787326239679
 20
205.1658079131639
 11
440.7630010998278
 21
205.2079402912873
 72
     1
 10
440.7630010998278
 20
205.2079402912875
 11
440.7386759599766
 21
205.2500726694109
 72
     1
 10
440.7386759599766
 20
205.2500726694108
 11
440.7143508201254
 21
205.2922050475343
 72
     1
 10
440.7143508201254
 20
205.2922050475344
 11
440.6900256802741
 21
205.3343374256579
 72
     1
 10
440.6900256802741
 20
205.3343374256578
 11
440.6657005404231
 21
205.3764698037813
 72
     1
 10
440.6657005404231
 20
205.3764698037814
 11
440.6413754005718
 21
205.4186021819049
 72
     1
 10
440.6413754005718
 20
205.4186021819047
 11
440.6170502607206
 21
205.4607345600282
 72
     1
 10
440.6170502607206
 20
205.4607345600284
 11
440.5927251208695
 21
205.5028669381518
 72
     1
 10
440.5927251208695
 20
205.5028669381517
 11
440.5683999810182
 21
205.5449993162752
 72
     1
 10
440.5683999810182
 20
205.5449993162753
 11
440.544074841167
 21
205.5871316943988
 72
     1
 10
440.544074841167
 20
205.5871316943987
 11
440.5197497013159
 21
205.6292640725222
 72
     1
 10
440.5197497013159
 20
205.6292640725223
 11
440.4954245614646
 21
205.6713964506458
 72
     1
 10
440.4954245614646
 20
205.6713964506457
 11
440.4710994216135
 21
205.7135288287692
 72
     1
 10
440.4710994216135
 20
205.7135288287692
 11
440.4467742817623
 21
205.7556612068927
 72
     1
 10
440.4467742817623
 20
205.7556612068926
 11
440.422449141911
 21
205.7977935850161
 72
     1
 10
440.422449141911
 20
205.7977935850162
 11
440.39812400206
 21
205.8399259631397
 72
     1
 10
440.39812400206
 20
205.8399259631396
 11
440.3737988622087
 21
205.8820583412631
 72
     1
 10
440.3737988622087
 20
205.8820583412632
 11
440.3494737223576
 21
205.9241907193867
 72
     1
 10
440.3494737223576
 20
205.9241907193865
 11
440.3251485825063
 21
205.96632309751
 72
     1
 10
440.3251485825063
 20
205.9663230975102
 11
440.3008234426551
 21
206.0084554756336
 97
        0
 75
     0
 76
     1
 52
90.0
 41
0.5
 77
     0
 78
     1
 53
135.0
 43
-84.39917655734484
 44
-91.97061276768641
 45
-1.122532015133644
 46
-1.122532015133643
 79
     0
 98
        1
 10
-84.39917655734484
 20
-91.97061276768641
1001
PHOENIX7010
1002
{
1070
    41
1040
1.0
1002
}
  0
LINE
  5
AF7A8
102
{ACAD_REACTORS
330
FF58
102
}
330
1F
100
AcDbEntity
  8
0
100
AcDbLine
 10
139.9008234426552
 20
373.7050724649364
 30
0.0
 11
139.9008234426552
 21
371.2043872323136
 31
0.0
1001
PHOENIX7010
1002
{
1070
    41
1040
1.0
1002
}
  0
ELLIPSE
  5
AF7A9
102
{ACAD_REACTORS
330
B0C1B
330
FF58
102
}
330
1F
100
AcDbEntity
  8
0
100
AcDbEllipse
 10
140.401509615654
 20
373.7037010593146
 30
0.0
 11
-0.3545231217175233
 21
0.3545231217175435
 31
0.0
210
0.0
220
0.0
230
1.0
 40
0.9972646886342372
 41
5.49915667165254
 42
7.067213942706695
1001
PHOENIX7010
1002
{
1070
    41
1040
1.0
1002
}
  0
LINE
  5
AF7AA
102
{ACAD_REACTORS
330
B162F
330
FF58
102
}
330
1F
100
AcDbEntity
  8
0
100
AcDbLine
 10
140.4001382100324
 20
374.2043872323137
 30
0.0
 11
450.8015086752778
 21
374.2043872323135
 31
0.0
1001
PHOENIX7010
1002
{
1070
    41
1040
1.0
1002
}
  0
LINE
  5
AF7AB
102
{ACAD_REACTORS
330
FF58
102
}
330
1F
100
AcDbEntity
  8
0
100
AcDbLine
 10
451.3008234426552
 20
371.2043872323135
 30
0.0
 11
451.3008234426552
 21
373.7050724649364
 31
0.0
1001
PHOENIX7010
1002
{
1070
    41
1040
1.0
1002
}
  0
ELLIPSE
  5
AF7AC
102
{ACAD_REACTORS
330
B0C1A
330
FF58
102
}
330
1F
100
AcDbEntity
  8
0
100
AcDbEllipse
 10
450.8001372696562
 20
373.7037010593146
 30
0.0
 11
0.3545231217175234
 21
0.3545231217175433
 31
0.0
210
0.0
220
0.0
230
1.0
 40
0.9972646886342372
 41
5.499156671652491
 42
7.067213942706576
1001
PHOENIX7010
1002
{
1070
    41
1040
1.0
1002
}
  0
LINE
  5
AF7AD
102
{ACAD_REACTORS
330
FF58
102
}
330
1F
100
AcDbEntity
  8
0
100
AcDbLine
 10
139.9008234426552
 20
368.2043872323137
 30
0.0
 11
139.9008234426552
 21
371.2043872323136
 31
0.0
1001
PHOENIX7010
1002
{
1070
    41
1040
1.0
1002
}
  0
LINE
  5
AF7AE
102
{ACAD_REACTORS
330
FF58
102
}
330
1F
100
AcDbEntity
  8
0
100
AcDbLine
 10
140.0318428908628
 20
302.4847214478985
 30
0.0
 11
139.9008234426552
 21
302.3537019996908
 31
0.0
1001
PHOENIX7010
1002
{
1070
    41
1040
1.0
1002
}
  0
LINE
  5
AF7AF
102
{ACAD_REACTORS
330
FF58
102
}
330
1F
100
AcDbEntity
  8
0
100
AcDbLine
 10
140.4001382100325
 20
301.8543872323136
 30
0.0
 11
140.5311576582401
 21
301.9854066805212
 31
0.0
1001
PHOENIX7010
1002
{
1070
    41
1040
1.0
1002
}
  0
LINE
  5
AF7B0
102
{ACAD_REACTORS
330
FF58
102
}
330
1F
100
AcDbEntity
  8
0
100
AcDbLine
 10
451.3008234426552
 20
371.2043872323135
 30
0.0
 11
451.3008234426552
 21
368.2043872323135
 31
0.0
1001
PHOENIX7010
1002
{
1070
    41
1040
1.0
1002
}
  0
LINE
  5
AF7B1
102
{ACAD_REACTORS
330
FF58
102
}
330
1F
100
AcDbEntity
  8
0
100
AcDbLine
 10
450.6704892270702
 20
301.9854066805212
 30
0.0
 11
450.8015086752777
 21
301.8543872323136
 31
0.0
1001
PHOENIX7010
1002
{
1070
    41
1040
1.0
1002
}
  0
LINE
  5
AF7B2
102
{ACAD_REACTORS
330
FF58
102
}
330
1F
100
AcDbEntity
  8
0
100
AcDbLine
 10
451.3008234426552
 20
302.3537019996908
 30
0.0
 11
451.1698039944476
 21
302.4847214478985
 31
0.0
1001
PHOENIX7010
1002
{
1070
    41
1040
1.0
1002
}
  0
LINE
  5
AF7B3
102
{ACAD_REACTORS
330
FF58
102
}
330
1F
100
AcDbEntity
  8
0
100
AcDbLine
 10
439.600823437315
 20
307.2072888232773
 30
0.0
 11
439.6535213156827
 21
307.1543872292961
 31
0.0
1001
PHOENIX7010
1002
{
1070
    41
1040
1.0
1002
}
  0
LINE
  5
AF7B4
102
{ACAD_REACTORS
330
FF58
102
}
330
1F
100
AcDbEntity
  8
0
100
AcDbLine
 10
439.6008234373131
 20
368.2043872376909
 30
0.0
 11
439.6541326353327
 21
368.2573464955586
 31
0.0
1001
PHOENIX7010
1002
{
1070
    41
1040
1.0
1002
}
  0
LINE
  5
AF7B5
102
{ACAD_REACTORS
330
FF58
102
}
330
1F
100
AcDbEntity
  8
0
100
AcDbLine
 10
151.6008234426551
 20
307.2072888285969
 30
0.0
 11
439.6008234426552
 21
307.2072888285967
 31
0.0
1001
PHOENIX7010
1002
{
1070
    41
1040
1.0
1002
}
  0
LINE
  5
AF7B6
102
{ACAD_REACTORS
330
FF58
102
}
330
1F
100
AcDbEntity
  8
0
100
AcDbLine
 10
151.6008234426551
 20
368.2043872323137
 30
0.0
 11
439.6008234426552
 21
368.2043872323135
 31
0.0
1001
PHOENIX7010
1002
{
1070
    41
1040
1.0
1002
}
  0
LINE
  5
AF7B7
102
{ACAD_REACTORS
330
FF58
102
}
330
1F
100
AcDbEntity
  8
0
100
AcDbLine
 10
151.5475142499776
 20
368.2573464955586
 30
0.0
 11
151.6008234479973
 21
368.2043872376909
 31
0.0
1001
PHOENIX7010
1002
{
1070
    41
1040
1.0
1002
}
  0
LINE
  5
AF7B8
102
{ACAD_REACTORS
330
FF58
102
}
330
1F
100
AcDbEntity
  8
0
100
AcDbLine
 10
151.5481255696276
 20
307.1543872292961
 30
0.0
 11
151.6008234479952
 21
307.2072888232773
 31
0.0
1001
PHOENIX7010
1002
{
1070
    41
1040
1.0
1002
}
  0
LINE
  5
AF7B9
102
{ACAD_REACTORS
330
FF58
102
}
330
1F
100
AcDbEntity
  8
0
100
AcDbLine
 10
149.6414740079949
 20
308.5491491933896
 30
0.0
 11
150.1402043277408
 21
309.0478795131355
 31
0.0
1001
PHOENIX7010
1002
{
1070
    41
1040
1.0
1002
}
  0
LINE
  5
AF7BA
102
{ACAD_REACTORS
330
FF58
102
}
330
1F
100
AcDbEntity
  8
0
100
AcDbLine
 10
451.1698039944475
 20
371.073367784106
 30
0.0
 11
451.1698039944475
 21
302.4847214478985
 31
0.0
1001
PHOENIX7010
1002
{
1070
    41
1040
1.0
1002
}
  0
ELLIPSE
  5
AF7BB
102
{ACAD_REACTORS
330
FF58
102
}
330
1F
100
AcDbEntity
  8
0
100
AcDbEllipse
 10
450.6691178214485
 20
302.4860928535201
 30
0.0
 11
0.3545231217175433
 21
-0.3545231217175234
 31
0.0
210
0.0
220
0.0
230
1.0
 40
0.9972646886342372
 41
5.499156671652515
 42
7.067213942706599
1001
PHOENIX7010
1002
{
1070
    41
1040
1.0
1002
}
  0
LINE
  5
AF7BC
102
{ACAD_REACTORS
330
FF58
102
}
330
1F
100
AcDbEntity
  8
0
100
AcDbLine
 10
450.6704892270702
 20
301.9854066805212
 30
0.0
 11
140.5311576582401
 21
301.9854066805212
 31
0.0
1001
PHOENIX7010
1002
{
1070
    41
1040
1.0
1002
}
  0
ELLIPSE
  5
AF7BD
102
{ACAD_REACTORS
330
FF58
102
}
330
1F
100
AcDbEntity
  8
0
100
AcDbEllipse
 10
140.5325290638618
 20
302.4860928535201
 30
0.0
 11
-0.3545231217175234
 21
-0.3545231217175433
 31
0.0
210
0.0
220
0.0
230
1.0
 40
0.9972646886342372
 41
5.499156671652476
 42
7.067213942706576
1001
PHOENIX7010
1002
{
1070
    41
1040
1.0
1002
}
  0
LINE
  5
AF7BE
102
{ACAD_REACTORS
330
FF58
102
}
330
1F
100
AcDbEntity
  8
0
100
AcDbLine
 10
140.0318428908629
 20
302.4847214478985
 30
0.0
 11
140.0318428908629
 21
371.073367784106
 31
0.0
1001
PHOENIX7010
1002
{
1070
    41
1040
1.0
1002
}
  0
ELLIPSE
  5
AF7BF
102
{ACAD_REACTORS
330
FF58
102
}
330
1F
100
AcDbEntity
  8
0
100
AcDbEllipse
 10
143.4021957886531
 20
370.0719954381081
 30
0.0
 11
-0.7090462434350417
 21
0.7090462434350917
 31
0.0
210
0.0
220
0.0
230
1.0
 40
0.9972646886342374
 41
5.499156671652558
 42
7.067213942706671
1001
PHOENIX7010
1002
{
1070
    41
1040
1.0
1002
}
  0
LINE
  5
AF7C0
102
{ACAD_REACTORS
330
FF58
102
}
330
1F
100
AcDbEntity
  8
0
100
AcDbLine
 10
147.1203630347208
 20
312.0198154286431
 30
0.0
 11
146.6455854037312
 21
311.5450377976534
 31
0.0
1001
PHOENIX7010
1002
{
1070
    41
1040
1.0
1002
}
  0
LINE
  5
AF7C1
102
{ACAD_REACTORS
330
FF58
102
}
330
1F
100
AcDbEntity
  8
0
100
AcDbLine
 10
143.7401035427495
 20
311.5450377976534
 30
0.0
 11
144.2148811737393
 21
312.0198154286431
 31
0.0
1001
PHOENIX7010
1002
{
1070
    41
1040
1.0
1002
}
  0
LINE
  5
AF7C2
102
{ACAD_REACTORS
330
FF58
102
}
330
1F
100
AcDbEntity
  8
0
100
AcDbLine
 10
150.1575367791087
 20
306.0597301035218
 30
0.0
 11
149.6414740079949
 21
305.5436673324079
 31
0.0
1001
PHOENIX7010
1002
{
1070
    41
1040
1.0
1002
}
  0
LINE
  5
AF7C3
102
{ACAD_REACTORS
330
FF58
102
}
330
1F
100
AcDbEntity
  8
0
100
AcDbLine
 10
143.7568462118917
 20
370.7159745496241
 30
0.0
 11
143.3994529774097
 21
371.073367784106
 31
0.0
1001
PHOENIX7010
1002
{
1070
    41
1040
1.0
1002
}
  0
LINE
  5
AF7C4
102
{ACAD_REACTORS
330
FF58
102
}
330
1F
100
AcDbEntity
  8
0
100
AcDbLine
 10
143.3994529774097
 20
371.073367784106
 30
0.0
 11
140.0318428908629
 21
371.073367784106
 31
0.0
1001
PHOENIX7010
1002
{
1070
    41
1040
1.0
1002
}
  0
LINE
  5
AF7C5
102
{ACAD_REACTORS
330
FF58
102
}
330
1F
100
AcDbEntity
  8
0
100
AcDbLine
 10
140.0318428908628
 20
371.073367784106
 30
0.0
 11
139.9008234426552
 21
371.2043872323135
 31
0.0
1001
PHOENIX7010
1002
{
1070
    41
1040
1.0
1002
}
  0
LINE
  5
AF7C6
102
{ACAD_REACTORS
330
FF58
102
}
330
1F
100
AcDbEntity
  8
0
100
AcDbLine
 10
451.3008234426552
 20
371.2043872323135
 30
0.0
 11
139.9008234426552
 21
371.2043872323136
 31
0.0
1001
PHOENIX7010
1002
{
1070
    41
1040
1.0
1002
}
  0
LINE
  5
AF7C7
102
{ACAD_REACTORS
330
FF58
102
}
330
1F
100
AcDbEntity
  8
0
100
AcDbLine
 10
451.3008234426552
 20
371.2043872323135
 30
0.0
 11
451.1698039944475
 21
371.073367784106
 31
0.0
1001
PHOENIX7010
1002
{
1070
    41
1040
1.0
1002
}
  0
LINE
  5
AF7C8
102
{ACAD_REACTORS
330
FF58
102
}
330
1F
100
AcDbEntity
  8
0
100
AcDbLine
 10
451.1698039944475
 20
371.073367784106
 30
0.0
 11
447.8021939079006
 21
371.073367784106
 31
0.0
1001
PHOENIX7010
1002
{
1070
    41
1040
1.0
1002
}
  0
LINE
  5
AF7C9
102
{ACAD_REACTORS
330
FF58
102
}
330
1F
100
AcDbEntity
  8
0
100
AcDbLine
 10
439.6538114208242
 20
307.1543872295748
 30
0.0
 11
439.6538114208242
 21
368.2573464901811
 31
0.0
1001
PHOENIX7010
1002
{
1070
    41
1040
1.0
1002
}
  0
LINE
  5
AF7CA
102
{ACAD_REACTORS
330
FF58
102
}
330
1F
100
AcDbEntity
  8
0
100
AcDbLine
 10
151.5475142446355
 20
368.2573464901812
 30
0.0
 11
439.6541326406748
 21
368.2573464901811
 31
0.0
1001
PHOENIX7010
1002
{
1070
    41
1040
1.0
1002
}
  0
LINE
  5
AF7CB
102
{ACAD_REACTORS
330
FF58
102
}
330
1F
100
AcDbEntity
  8
0
100
AcDbLine
 10
151.5478354644876
 20
307.1543872295749
 30
0.0
 11
151.5478354644876
 21
368.2573464901812
 31
0.0
1001
PHOENIX7010
1002
{
1070
    41
1040
1.0
1002
}
  0
LINE
  5
AF7CC
102
{ACAD_REACTORS
330
FF58
102
}
330
1F
100
AcDbEntity
  8
0
100
AcDbLine
 10
439.6535213241344
 20
307.1543872323136
 30
0.0
 11
151.548125561176
 21
307.1543872323136
 31
0.0
1001
PHOENIX7010
1002
{
1070
    41
1040
1.0
1002
}
  0
LINE
  5
AF7CD
102
{ACAD_REACTORS
330
FF58
102
}
330
1F
100
AcDbEntity
  8
0
100
AcDbLine
 10
441.5601728773153
 20
305.5436673324079
 30
0.0
 11
441.0441101062016
 21
306.0597301035218
 31
0.0
1001
PHOENIX7010
1002
{
1070
    41
1040
1.0
1002
}
  0
LINE
  5
AF7CE
102
{ACAD_REACTORS
330
FF58
102
}
330
1F
100
AcDbEntity
  8
0
100
AcDbLine
 10
441.0614425575695
 20
309.0478795131355
 30
0.0
 11
441.5601728773153
 21
308.5491491933896
 31
0.0
1001
PHOENIX7010
1002
{
1070
    41
1040
1.0
1002
}
  0
LINE
  5
AF7CF
102
{ACAD_REACTORS
330
FF58
102
}
330
1F
100
AcDbEntity
  8
0
100
AcDbLine
 10
444.5560614815791
 20
311.5450377976534
 30
0.0
 11
444.0812838505894
 21
312.0198154286431
 31
0.0
1001
PHOENIX7010
1002
{
1070
    41
1040
1.0
1002
}
  0
LINE
  5
AF7D0
102
{ACAD_REACTORS
330
FF58
102
}
330
1F
100
AcDbEntity
  8
0
100
AcDbLine
 10
446.9867657115712
 20
312.0198154286431
 30
0.0
 11
447.461543342561
 21
311.5450377976533
 31
0.0
1001
PHOENIX7010
1002
{
1070
    41
1040
1.0
1002
}
  0
LINE
  5
AF7D1
102
{ACAD_REACTORS
330
FF58
102
}
330
1F
100
AcDbEntity
  8
0
100
AcDbLine
 10
447.9853952463257
 20
313.0184449633976
 30
0.0
 11
448.4750723677272
 21
312.5287678419961
 31
0.0
1001
PHOENIX7010
1002
{
1070
    41
1040
1.0
1002
}
  0
LINE
  5
AF7D2
102
{ACAD_REACTORS
330
FF58
102
}
330
1F
100
AcDbEntity
  8
0
100
AcDbLine
 10
448.8008234426551
 20
370.0747382493513
 30
0.0
 11
448.8008234426551
 21
305.2030167670682
 31
0.0
1001
PHOENIX7010
1002
{
1070
    41
1040
1.0
1002
}
  0
LINE
  5
AF7D3
102
{ACAD_REACTORS
330
FF58
102
}
330
1F
100
AcDbEntity
  8
0
100
AcDbLine
 10
447.8021939079006
 20
371.073367784106
 30
0.0
 11
447.4448006734187
 21
370.7159745496239
 31
0.0
1001
PHOENIX7010
1002
{
1070
    41
1040
1.0
1002
}
  0
ELLIPSE
  5
AF7D4
102
{ACAD_REACTORS
330
FF58
102
}
330
1F
100
AcDbEntity
  8
0
100
AcDbEllipse
 10
447.7994510966573
 20
370.0719954381081
 30
0.0
 11
0.7090462434350419
 21
0.7090462434350915
 31
0.0
210
0.0
220
0.0
230
1.0
 40
0.9972646886342374
 41
5.499156671652495
 42
7.067213942706615
1001
PHOENIX7010
1002
{
1070
    41
1040
1.0
1002
}
  0
LINE
  5
AF7D5
102
{ACAD_REACTORS
330
FF58
102
}
330
1F
100
AcDbEntity
  8
0
100
AcDbLine
 10
448.4434302081732
 20
369.7173450148694
 30
0.0
 11
448.8008234426553
 21
370.0747382493513
 31
0.0
1001
PHOENIX7010
1002
{
1070
    41
1040
1.0
1002
}
  0
LINE
  5
AF7D6
102
{ACAD_REACTORS
330
FF58
102
}
330
1F
100
AcDbEntity
  8
0
  6
Continuous
 62
     1
100
AcDbLine
 10
440.0454805714471
 20
306.1678699214796
 30
0.0
 11
151.1561663138632
 21
306.1678699214796
 31
0.0
1001
PHOENIX7010
1002
{
1070
    41
1040
1.0
1002
}
  0
ELLIPSE
  5
AF7D7
102
{ACAD_REACTORS
330
FF58
102
}
330
1F
100
AcDbEntity
  8
0
  6
Continuous
 62
     1
100
AcDbEllipse
 10
481.7518860518966
 20
219.493805828217
 30
0.0
 11
-0.0000000000000918
 21
-801.5
 31
0.0
210
0.0
220
0.0
230
1.0
 40
0.0523423921597935
 41
4.600281627592226
 42
4.604037277021929
1001
PHOENIX7010
1002
{
1070
    41
1040
1.0
1002
}
  0
ELLIPSE
  5
AF7D8
102
{ACAD_REACTORS
330
FF58
102
}
330
1F
100
AcDbEntity
  8
0
100
AcDbEllipse
 10
482.7505155866511
 20
219.493805828217
 30
0.0
 11
0.0000000000000917
 21
800.4999999999997
 31
0.0
210
0.0
220
0.0
230
1.0
 40
0.0524077792830412
 41
1.458688974002433
 42
1.462444623432137
1001
PHOENIX7010
1002
{
1070
    41
1040
1.0
1002
}
  0
ARC
  5
AF7D9
102
{ACAD_REACTORS
330
FF58
102
}
330
1F
100
AcDbEntity
  8
0
  6
Continuous
 62
     1
100
AcDbCircle
 10
444.0751890058455
 20
309.1227356415469
 30
0.0
 40
4.012546729158037
100
AcDbArc
 50
89.91297072944941
 51
179.4714275174909
1001
PHOENIX7010
1002
{
1070
    41
1040
1.0
1002
}
  0
ARC
  5
AF7DA
102
{ACAD_REACTORS
330
FF58
102
}
330
1F
100
AcDbEntity
  8
0
100
AcDbCircle
 10
444.0691883689965
 20
309.0118784879314
 30
0.0
 40
3.007961259719398
100
AcDbArc
 50
89.7696041091364
 51
179.3142345018807
1001
PHOENIX7010
1002
{
1070
    41
1040
1.0
1002
}
  0
LINE
  5
AF7DB
102
{ACAD_REACTORS
330
FF58
102
}
330
1F
100
AcDbEntity
  8
0
  6
Continuous
 62
     1
100
AcDbLine
 10
446.9867657115712
 20
313.13527774183
 30
0.0
 11
444.0812838505894
 21
313.13527774183
 31
0.0
1001
PHOENIX7010
1002
{
1070
    41
1040
1.0
1002
}
  0
LINE
  5
AF7DC
102
{ACAD_REACTORS
330
FF58
102
}
330
1F
100
AcDbEntity
  8
0
100
AcDbLine
 10
444.0812838505894
 20
312.0198154286431
 30
0.0
 11
446.9867657115712
 21
312.0198154286431
 31
0.0
1001
PHOENIX7010
1002
{
1070
    41
1040
1.0
1002
}
  0
ELLIPSE
  5
AF7DD
102
{ACAD_REACTORS
330
FF58
102
}
330
1F
100
AcDbEntity
  8
0
  6
Continuous
 62
     1
100
AcDbEllipse
 10
488.6518860518966
 20
219.493805828217
 30
0.0
 11
-0.0000000000000918
 21
-801.5
 31
0.0
210
0.0
220
0.0
230
1.0
 40
0.0523423921597935
 41
4.523607529008446
 42
4.595288763357008
1001
PHOENIX7010
1002
{
1070
    41
1040
1.0
1002
}
  0
DIMENSION
  5
AF9E0
102
{ACAD_REACTORS
330
B0C1C
102
}
330
1F
100
AcDbEntity
  8
0
  6
Continuous
 62
     1
370
    35
100
AcDbDimension
  2
*D7
 10
139.9008234426551
 20
386.2043872323147
 30
0.0
 11
295.6008234426552
 21
389.2043872323147
 31
0.0
 70
    32
 71
     5
 42
311.4000000000001
  3
phoenix
100
AcDbAlignedDimension
 13
451.3008234426552
 23
373.7050724649363
 33
0.0
 14
139.9008234426551
 24
373.7050724649362
 34
0.0
100
AcDbRotatedDimension
1001
ACAD
1000
DSTYLE
1002
{
1070
   344
1005
41
1070
   343
1005
41
1070
   173
1070
     1
1070
   140
1040
5.0
1002
}
  0
DIMENSION
  5
B0C41
102
{ACAD_REACTORS
330
B1631
102
}
330
1F
100
AcDbEntity
  8
0
  6
Continuous
 62
     1
370
    35
100
AcDbDimension
  2
*D8
 10
463.3008234426552
 20
301.8543872323136
 30
0.0
 11
460.3003313166708
 21
338.0293872323137
 31
0.0
 70
    32
 71
     5
 42
72.34999999999991
  3
phoenix
100
AcDbAlignedDimension
 13
450.8015086752778
 23
374.2043872323135
 33
0.0
 14
450.8015086752777
 24
301.8543872323136
 34
0.0
 50
90.0
100
AcDbRotatedDimension
1001
ACAD
1000
DSTYLE
1002
{
1070
   344
1005
41
1070
   343
1005
41
1070
   173
1070
     1
1070
   140
1040
5.0
1002
}
  0
ARC
  5
B5341
102
{ACAD_REACTORS
330
FF58
102
}
330
1F
100
AcDbEntity
  8
0
  6
Continuous
 62
     7
370
    50
100
AcDbCircle
 10
841.2590830095147
 20
219.493805828217
 30
0.0
 40
801.5
100
AcDbArc
 50
169.2870776496322
 51
173.7053295737369
1001
PHOENIX7010
1002
{
1070
    41
1040
1.0
1002
}
  0
LINE
  5
B8AF9
102
{ACAD_REACTORS
330
B9C86
102
}
330
1F
100
AcDbEntity
  8
0
  6
Continuous
 62
     1
370
    50
100
AcDbLine
 10
44.45345928324195
 20
306.0597301035218
 30
0.0
 11
44.45345928324195
 21
299.6638359262396
 31
0.0
1001
PHOENIX7010
1002
{
1070
    41
1040
1.0
1002
}
  0
DIMENSION
  5
B8AFA
102
{ACAD_REACTORS
330
B9C88
102
}
330
1F
100
AcDbEntity
  8
0
  6
Continuous
 62
     7
370
    35
100
AcDbDimension
  2
*D9
 10
64.24818760206836
 20
289.8543872323137
 30
0.0
 11
54.35082344265516
 21
292.8543872323137
 31
0.0
 70
    32
  1
19.8
 71
     5
 42
19.7947283188264
  3
phoenix
100
AcDbAlignedDimension
 13
44.45345928324195
 23
299.6638359262396
 33
0.0
 14
64.24818760206836
 24
301.8543872323136
 34
0.0
100
AcDbRotatedDimension
1001
ACAD
1000
DSTYLE
1002
{
1070
   344
1005
41
1070
   343
1005
41
1070
   173
1070
     1
1070
   140
1040
5.0
1002
}
  0
LINE
  5
BDF1E
330
1F
100
AcDbEntity
  8
0
  6
ACAD_ISO04W100
 62
     1
 48
0.3837859406262323
370
    25
100
AcDbLine
 10
295.6008234426552
 20
218.6767513917268
 30
0.0
 11
295.6008234426552
 21
194.8820230729004
 31
0.0
1001
PHOENIX7010
1002
{
1070
    41
1040
1.0
1002
}
  0
HATCH
  5
BE69B
102
{ACAD_REACTORS
330
BE719
102
}
330
1F
100
AcDbEntity
  8
0
  6
Continuous
 62
     1
370
    25
100
AcDbHatch
 10
0.0
 20
0.0
 30
0.0
210
0.0
220
0.0
230
1.0
  2
_U
 70
     0
 71
     0
 91
        1
 92
        1
 93
        5
 72
     1
 10
581.4334749940253
 20
58.16453811398048
 11
574.7334749940255
 21
50.36453811398041
 72
     1
 10
574.7334749940255
 20
50.36453811398041
 11
586.7334749940255
 21
50.36453811398041
 72
     1
 10
586.7334749940255
 20
50.36453811398041
 11
586.7334749940255
 21
58.16453811398037
 72
     1
 10
586.7334749940255
 20
58.16453811398037
 11
581.4334749940253
 21
51.2645381139805
 72
     1
 10
581.4334749940253
 20
51.2645381139805
 11
581.4334749940253
 21
58.16453811398048
 97
        0
 75
     0
 76
     0
 52
45.0
 41
0.1
 77
     0
 78
     1
 53
45.0
 43
174.0
 44
-9.088852972070526
 45
-0.0707106781186548
 46
0.0707106781186548
 79
     0
 98
        1
 10
174.0
 20
-9.088852972070526
1001
PHOENIX7010
1002
{
1070
    41
1040
1.0
1002
}
  0
HATCH
  5
BE69C
102
{ACAD_REACTORS
330
BE719
102
}
330
1F
100
AcDbEntity
  8
0
  6
Continuous
 62
     1
370
    25
100
AcDbHatch
 10
0.0
 20
0.0
 30
0.0
210
0.0
220
0.0
230
1.0
  2
_U
 70
     0
 71
     0
 91
        1
 92
        1
 93
        3
 72
     1
 10
573.8834749940256
 20
50.36453811398041
 11
573.8834749940256
 21
54.51453811398039
 72
     1
 10
573.8834749940256
 20
54.51453811398039
 11
578.0334749940257
 21
54.51453811398039
 72
     2
 10
573.8834749940256
 20
54.51453811398039
 40
4.149999999999977
 50
0.0
 51
270.0
 73
     1
 97
        0
 75
     0
 76
     0
 52
45.0
 41
0.65
 77
     0
 78
     1
 53
45.0
 43
174.0
 44
-9.088852972070526
 45
-0.4596194077712559
 46
0.459619407771256
 79
     0
 98
        1
 10
174.0
 20
-9.088852972070526
1001
PHOENIX7010
1002
{
1070
    41
1040
1.0
1002
}
  0
LINE
  5
BE69D
102
{ACAD_REACTORS
330
BE719
102
}
330
1F
100
AcDbEntity
  8
0
  6
Continuous
 62
     7
370
    50
100
AcDbLine
 10
574.7334749940255
 20
50.36453811398041
 30
0.0
 11
586.7334749940255
 21
50.36453811398041
 31
0.0
1001
PHOENIX7010
1002
{
1070
    41
1040
1.0
1002
}
  0
LINE
  5
BE69E
102
{ACAD_REACTORS
330
BE719
102
}
330
1F
100
AcDbEntity
  8
0
  6
Continuous
 62
     7
370
    50
100
AcDbLine
 10
586.7334749940255
 20
50.36453811398041
 30
0.0
 11
586.7334749940255
 21
58.16453811398037
 31
0.0
1001
PHOENIX7010
1002
{
1070
    41
1040
1.0
1002
}
  0
LINE
  5
BE69F
102
{ACAD_REACTORS
330
BE719
102
}
330
1F
100
AcDbEntity
  8
0
  6
Continuous
 62
     7
370
    50
100
AcDbLine
 10
581.4334749940253
 20
51.2645381139804
 30
0.0
 11
581.4334749940253
 21
58.16453811398037
 31
0.0
1001
PHOENIX7010
1002
{
1070
    41
1040
1.0
1002
}
  0
LINE
  5
BE6A0
102
{ACAD_REACTORS
330
BE719
102
}
330
1F
100
AcDbEntity
  8
0
  6
Continuous
 62
     7
370
    50
100
AcDbLine
 10
581.4334749940253
 20
58.16453811398037
 30
0.0
 11
574.7334749940255
 21
50.36453811398041
 31
0.0
1001
PHOENIX7010
1002
{
1070
    41
1040
1.0
1002
}
  0
LINE
  5
BE6A1
102
{ACAD_REACTORS
330
BE719
102
}
330
1F
100
AcDbEntity
  8
0
  6
Continuous
 62
     7
370
    50
100
AcDbLine
 10
586.7334749940255
 20
58.16453811398037
 30
0.0
 11
581.4334749940253
 21
51.2645381139804
 31
0.0
1001
PHOENIX7010
1002
{
1070
    41
1040
1.0
1002
}
  0
INSERT
  5
BE6A2
102
{ACAD_REACTORS
330
BE719
102
}
330
1F
100
AcDbEntity
  8
0
  6
Continuous
 62
     1
370
    25
100
AcDbBlockReference
  2
PH_GRPBLK
 10
574.7334749940255
 20
50.36453811398041
 30
0.0
1001
PHOENIX7010
1002
{
1070
    41
1040
1.0
1002
}
  0
MTEXT
  5
BE6A3
102
{ACAD_REACTORS
330
BE71A
102
}
330
1F
100
AcDbEntity
  8
0
  6
Continuous
 62
     7
370
    50
100
AcDbMText
 10
555.0842366554657
 20
40.88346060003153
 30
0.0
 40
1.6
 41
0.0
 71
     7
 72
     5
  1
{\fArial|b0|i0|c0|p34;\W1.1;\C1;A Phoenix Mecano Company}
 73
     1
 44
1.0
1001
PHOENIX7010
1002
{
1070
    41
1040
1.0
1002
}
1001
ACAD
1000
MTEXTBEGIN
1070
    73
1070
     1
1070
    44
1040
1.0
1070
    74
1070
     0
1000
MTEXTEND
  0
MTEXT
  5
BE6A4
102
{ACAD_XDICTIONARY
360
BE7BB
102
}
102
{ACAD_REACTORS
330
BE71A
102
}
330
1F
100
AcDbEntity
  8
0
  6
Continuous
 62
     7
370
    50
100
AcDbMText
 10
567.5658807175859
 20
44.46517927327739
 30
0.0
 40
3.7
 41
0.0
 71
     7
 72
     5
  1
{\fArial|b1|i0|c0|p34;\W1.1;BOPLA}
 73
     1
 44
1.135135135135135
1001
PHOENIX7010
1002
{
1070
    41
1040
1.0
1002
}
1001
ACAD
1000
MTEXTBEGIN
1070
    73
1070
     1
1070
    44
1040
1.135135135135135
1070
    74
1070
     0
1000
MTEXTEND
  0
INSERT
  5
BE6A5
102
{ACAD_REACTORS
330
BE71A
102
}
330
1F
100
AcDbEntity
  8
0
  6
Continuous
 62
     7
370
    50
100
AcDbBlockReference
  2
PH_GRPBLK
 10
574.7334749940255
 20
50.36453811398041
 30
0.0
1001
PHOENIX7010
1002
{
1070
    41
1040
1.0
1002
}
  0
MTEXT
  5
BE6A6
102
{ACAD_REACTORS
330
BE71B
102
}
330
1F
100
AcDbEntity
  8
0
  6
Continuous
 62
     5
370
    35
100
AcDbMText
 10
492.9304981780733
 20
75.18090043987126
 30
0.0
 40
4.0
 41
0.0
 71
     7
 72
     5
  1
{\C7;-}
 73
     1
 44
1.0
1001
PHOENIX7010
1002
{
1070
    41
1040
1.0
1002
}
1001
ACAD
1000
MTEXTBEGIN
1070
    73
1070
     1
1070
    44
1040
1.0
1070
    74
1070
     0
1000
MTEXTEND
  0
MTEXT
  5
BE6A7
102
{ACAD_REACTORS
330
BE71B
102
}
330
1F
100
AcDbEntity
  8
0
  6
Continuous
 62
     5
370
    35
100
AcDbMText
 10
492.9304981780733
 20
82.18090043987126
 30
0.0
 40
4.0
 41
0.0
 71
     7
 72
     5
  1
{\C7;GRUNDZEICHNUNG/\Q20;Basic drawing}
 73
     1
 44
1.0
1001
PHOENIX7010
1002
{
1070
    41
1040
1.0
1002
}
1001
ACAD
1000
MTEXTBEGIN
1070
    73
1070
     1
1070
    44
1040
1.0
1070
    74
1070
     0
1000
MTEXTEND
  0
MTEXT
  5
BE6A8
102
{ACAD_REACTORS
330
BE71B
102
}
330
1F
100
AcDbEntity
  8
0
  6
Continuous
 62
     5
370
    35
100
AcDbMText
 10
492.9304981780733
 20
89.18090043987126
 30
0.0
 40
4.0
 41
0.0
 71
     7
 72
     5
  1
{\C7;BCD 310 KRD}
 73
     1
 44
1.0
1001
PHOENIX7010
1002
{
1070
    41
1040
1.0
1002
}
1001
ACAD
1000
MTEXTBEGIN
1070
    73
1070
     1
1070
    44
1040
1.0
1070
    74
1070
     0
1000
MTEXTEND
  0
INSERT
  5
BE6A9
102
{ACAD_REACTORS
330
BE71B
102
}
330
1F
100
AcDbEntity
  8
0
  6
Continuous
 62
     5
370
    35
100
AcDbBlockReference
  2
PH_GRPBLK
 10
489.0
 20
37.50000000000023
 30
0.0
1001
PHOENIX7010
1002
{
1070
    41
1040
1.0
1002
}
  0
MTEXT
  5
BE6AA
102
{ACAD_REACTORS
330
BE71B
102
}
330
1F
100
AcDbEntity
  8
0
  6
Continuous
 62
     5
370
    35
100
AcDbMText
 10
517.8410013521215
 20
172.4665922501286
 30
0.0
 40
5.0
 41
0.0
 71
     7
 72
     5
  1
{\C7;-}
 73
     1
 44
1.0
1001
PHOENIX7010
1002
{
1070
    41
1040
1.0
1002
}
1001
ACAD
1000
MTEXTBEGIN
1070
    73
1070
     1
1070
    44
1040
1.0
1070
    74
1070
     0
1000
MTEXTEND
  0
MTEXT
  5
BE6AB
102
{ACAD_REACTORS
330
BE71B
102
}
330
1F
100
AcDbEntity
  8
0
  6
Continuous
 62
     5
370
    35
100
AcDbMText
 10
493.2942762589882
 20
172.2466907925512
 30
0.0
 40
2.5
 41
0.0
 71
     7
 72
     5
  1
{\C1;Artikel-Nr./\P\Q20;Art-No.:}
 73
     1
 44
1.0
1001
PHOENIX7010
1002
{
1070
    41
1040
1.0
1002
}
1001
ACAD
1000
MTEXTBEGIN
1070
    73
1070
     1
1070
    44
1040
1.0
1070
    74
1070
     0
1000
MTEXTEND
  0
MTEXT
  5
BE6AC
102
{ACAD_REACTORS
330
BE71B
102
}
330
1F
100
AcDbEntity
  8
0
  6
Continuous
 62
     5
370
    35
100
AcDbMText
 10
493.2942762589882
 20
156.406039963679
 30
0.0
 40
2.5
 41
0.0
 71
     7
 72
     5
  1
{\Q20;\C1;Material:}
 73
     1
 44
1.0
1001
PHOENIX7010
1002
{
1070
    41
1040
1.0
1002
}
1001
ACAD
1000
MTEXTBEGIN
1070
    73
1070
     1
1070
    44
1040
1.0
1070
    74
1070
     0
1000
MTEXTEND
  0
MTEXT
  5
BE6AD
102
{ACAD_REACTORS
330
BE71B
102
}
330
1F
100
AcDbEntity
  8
0
  6
Continuous
 62
     5
370
    35
100
AcDbMText
 10
493.9712474424149
 20
152.199493222207
 30
0.0
 40
2.5
 41
0.0
 71
     7
 72
     5
  1
{\Q20;-}
 73
     1
 44
1.0
1001
PHOENIX7010
1002
{
1070
    41
1040
1.0
1002
}
1001
ACAD
1000
MTEXTBEGIN
1070
    73
1070
     1
1070
    44
1040
1.0
1070
    74
1070
     0
1000
MTEXTEND
  0
MTEXT
  5
BE6AE
102
{ACAD_REACTORS
330
BE71B
102
}
330
1F
100
AcDbEntity
  8
0
  6
Continuous
 62
     5
370
    35
100
AcDbMText
 10
513.7913305013808
 20
156.4483496090744
 30
0.0
 40
2.5
 41
0.0
 71
     7
 72
     5
  1
{\Q20;-}
 73
     1
 44
1.0
1001
PHOENIX7010
1002
{
1070
    41
1040
1.0
1002
}
1001
ACAD
1000
MTEXTBEGIN
1070
    73
1070
     1
1070
    44
1040
1.0
1070
    74
1070
     0
1000
MTEXTEND
  0
MTEXT
  5
BE6AF
102
{ACAD_REACTORS
330
BE71B
102
}
330
1F
100
AcDbEntity
  8
0
  6
Continuous
 62
     5
370
    35
100
AcDbMText
 10
493.9712474424149
 20
160.5538554514224
 30
0.0
 40
2.5
 41
0.0
 71
     7
 72
     5
  1
-
 73
     1
 44
1.0
1001
PHOENIX7010
1002
{
1070
    41
1040
1.0
1002
}
1001
ACAD
1000
MTEXTBEGIN
1070
    73
1070
     1
1070
    44
1040
1.0
1070
    74
1070
     0
1000
MTEXTEND
  0
MTEXT
  5
BE6B0
102
{ACAD_REACTORS
330
BE71B
102
}
330
1F
100
AcDbEntity
  8
0
  6
Continuous
 62
     5
370
    35
100
AcDbMText
 10
513.7913305013808
 20
164.8027118382898
 30
0.0
 40
2.5
 41
0.0
 71
     7
 72
     5
  1
-
 73
     1
 44
1.0
1001
PHOENIX7010
1002
{
1070
    41
1040
1.0
1002
}
1001
ACAD
1000
MTEXTBEGIN
1070
    73
1070
     1
1070
    44
1040
1.0
1070
    74
1070
     0
1000
MTEXTEND
  0
MTEXT
  5
BE6B1
102
{ACAD_REACTORS
330
BE71B
102
}
330
1F
100
AcDbEntity
  8
0
  6
Continuous
 62
     5
370
    35
100
AcDbMText
 10
493.2942762589882
 20
164.7604021928945
 30
0.0
 40
2.5
 41
0.0
 71
     7
 72
     5
  1
{\C1;Werkstoff:}
 73
     1
 44
1.0
1001
PHOENIX7010
1002
{
1070
    41
1040
1.0
1002
}
1001
ACAD
1000
MTEXTBEGIN
1070
    73
1070
     1
1070
    44
1040
1.0
1070
    74
1070
     0
1000
MTEXTEND
  0
MTEXT
  5
BE6B2
102
{ACAD_REACTORS
330
BE71B
102
}
330
1F
100
AcDbEntity
  8
0
  6
Continuous
 62
     5
370
    35
100
AcDbMText
 10
493.2942762589882
 20
136.406039963679
 30
0.0
 40
2.5
 41
0.0
 71
     7
 72
     5
  1
{\Q20;\C1;Gen.Tol.:}
 73
     1
 44
1.0
1001
PHOENIX7010
1002
{
1070
    41
1040
1.0
1002
}
1001
ACAD
1000
MTEXTBEGIN
1070
    73
1070
     1
1070
    44
1040
1.0
1070
    74
1070
     0
1000
MTEXTEND
  0
MTEXT
  5
BE6B3
102
{ACAD_REACTORS
330
BE71B
102
}
330
1F
100
AcDbEntity
  8
0
  6
Continuous
 62
     5
370
    35
100
AcDbMText
 10
513.7913305013808
 20
137.3843594353039
 30
0.0
 40
2.5
 41
0.0
 71
     7
 72
     5
  1
{\Q20;DIN 16901 for plastic part}
 73
     1
 44
1.0
1001
PHOENIX7010
1002
{
1070
    41
1040
1.0
1002
}
1001
ACAD
1000
MTEXTBEGIN
1070
    73
1070
     1
1070
    44
1040
1.0
1070
    74
1070
     0
1000
MTEXTEND
  0
MTEXT
  5
BE6B4
102
{ACAD_REACTORS
330
BE71B
102
}
330
1F
100
AcDbEntity
  8
0
  6
Continuous
 62
     5
370
    35
100
AcDbMText
 10
513.7913305013808
 20
133.1355030484366
 30
0.0
 40
2.5
 41
0.0
 71
     7
 72
     5
  1
{\Q20;DIN ISO 2768-mk for machining}
 73
     1
 44
1.0
1001
PHOENIX7010
1002
{
1070
    41
1040
1.0
1002
}
1001
ACAD
1000
MTEXTBEGIN
1070
    73
1070
     1
1070
    44
1040
1.0
1070
    74
1070
     0
1000
MTEXTEND
  0
MTEXT
  5
BE6B5
102
{ACAD_REACTORS
330
BE71B
102
}
330
1F
100
AcDbEntity
  8
0
  6
Continuous
 62
     5
370
    35
100
AcDbMText
 10
513.7913305013808
 20
141.489865277652
 30
0.0
 40
2.5
 41
0.0
 71
     7
 72
     5
  1
DIN ISO 2768-mk für Bearbeitung
 73
     1
 44
1.0
1001
PHOENIX7010
1002
{
1070
    41
1040
1.0
1002
}
1001
ACAD
1000
MTEXTBEGIN
1070
    73
1070
     1
1070
    44
1040
1.0
1070
    74
1070
     0
1000
MTEXTEND
  0
MTEXT
  5
BE6B6
102
{ACAD_REACTORS
330
BE71B
102
}
330
1F
100
AcDbEntity
  8
0
  6
Continuous
 62
     5
370
    35
100
AcDbMText
 10
513.7913305013808
 20
145.7387216645194
 30
0.0
 40
2.5
 41
0.0
 71
     7
 72
     5
  1
DIN 16901 für Kunststoffteil
 73
     1
 44
1.0
1001
PHOENIX7010
1002
{
1070
    41
1040
1.0
1002
}
1001
ACAD
1000
MTEXTBEGIN
1070
    73
1070
     1
1070
    44
1040
1.0
1070
    74
1070
     0
1000
MTEXTEND
  0
MTEXT
  5
BE6B7
102
{ACAD_REACTORS
330
BE71B
102
}
330
1F
100
AcDbEntity
  8
0
  6
Continuous
 62
     5
370
    35
100
AcDbMText
 10
493.2942762589882
 20
144.7604021928945
 30
0.0
 40
2.5
 41
0.0
 71
     7
 72
     5
  1
{\C1;Allg.Tol.:}
 73
     1
 44
1.0
1001
PHOENIX7010
1002
{
1070
    41
1040
1.0
1002
}
1001
ACAD
1000
MTEXTBEGIN
1070
    73
1070
     1
1070
    44
1040
1.0
1070
    74
1070
     0
1000
MTEXTEND
  0
MTEXT
  5
BE6B8
102
{ACAD_REACTORS
330
BE71B
102
}
330
1F
100
AcDbEntity
  8
0
  6
Continuous
 62
     5
370
    35
100
AcDbMText
 10
492.2310194173414
 20
103.0621268735634
 30
0.0
 40
2.0
 41
0.0
 71
     7
 72
     5
  1
{\C1;-}
 73
     1
 44
1.0
1001
PHOENIX7010
1002
{
1070
    41
1040
1.0
1002
}
1001
ACAD
1000
MTEXTBEGIN
1070
    73
1070
     1
1070
    44
1040
1.0
1070
    74
1070
     0
1000
MTEXTEND
  0
MTEXT
  5
BE6B9
102
{ACAD_REACTORS
330
BE71B
102
}
330
1F
100
AcDbEntity
  8
0
  6
Continuous
 62
     5
370
    35
100
AcDbMText
 10
491.4904144324187
 20
106.142000635483
 30
0.0
 40
2.0
 41
0.0
 71
     7
 72
     5
  1
{\C1;Bem.: Erstellt nach Vorlage / \Q20;Dim.: constructed by specification:}
 73
     1
 44
1.0
1001
PHOENIX7010
1002
{
1070
    41
1040
1.0
1002
}
1001
ACAD
1000
MTEXTBEGIN
1070
    73
1070
     1
1070
    44
1040
1.0
1070
    74
1070
     0
1000
MTEXTEND
  0
ARC
  5
BE6BA
102
{ACAD_REACTORS
330
BE71B
102
}
330
1F
100
AcDbEntity
  8
0
  6
Continuous
 62
     5
100
AcDbCircle
 10
491.5
 20
178.0000000000002
 30
0.0
 40
2.5
100
AcDbArc
 50
90.0
 51
180.0
1001
PHOENIX7010
1002
{
1070
    41
1040
1.0
1002
}
  0
ARC
  5
BE6BB
102
{ACAD_REACTORS
330
BE71B
102
}
330
1F
100
AcDbEntity
  8
0
  6
Continuous
 62
     5
100
AcDbCircle
 10
491.5
 20
167.0000000000002
 30
0.0
 40
2.5
100
AcDbArc
 50
90.0
 51
180.0
1001
PHOENIX7010
1002
{
1070
    41
1040
1.0
1002
}
  0
ARC
  5
BE6BC
102
{ACAD_REACTORS
330
BE71B
102
}
330
1F
100
AcDbEntity
  8
0
  6
Continuous
 62
     5
100
AcDbCircle
 10
491.5
 20
147.0000000000002
 30
0.0
 40
2.5
100
AcDbArc
 50
90.0
 51
180.0
1001
PHOENIX7010
1002
{
1070
    41
1040
1.0
1002
}
  0
LINE
  5
BE6BD
102
{ACAD_REACTORS
330
BE71B
102
}
330
1F
100
AcDbEntity
  8
0
  6
Continuous
 62
     5
370
    35
100
AcDbLine
 10
589.0
 20
180.5000000000002
 30
0.0
 11
491.5
 21
180.5000000000002
 31
0.0
1001
PHOENIX7010
1002
{
1070
    41
1040
1.0
1002
}
  0
LINE
  5
BE6BE
102
{ACAD_REACTORS
330
BE71B
102
}
330
1F
100
AcDbEntity
  8
0
  6
Continuous
 62
     5
370
    35
100
AcDbLine
 10
589.0
 20
169.5000000000002
 30
0.0
 11
491.5
 21
169.5000000000002
 31
0.0
1001
PHOENIX7010
1002
{
1070
    41
1040
1.0
1002
}
  0
LINE
  5
BE6BF
102
{ACAD_REACTORS
330
BE71B
102
}
330
1F
100
AcDbEntity
  8
0
  6
Continuous
 62
     5
100
AcDbLine
 10
589.0
 20
149.5000000000002
 30
0.0
 11
491.5
 21
149.5000000000002
 31
0.0
1001
PHOENIX7010
1002
{
1070
    41
1040
1.0
1002
}
  0
MTEXT
  5
BE6C0
102
{ACAD_REACTORS
330
BE71B
102
}
330
1F
100
AcDbEntity
  8
0
  6
Continuous
 62
     5
370
    35
100
AcDbMText
 10
516.2178658257171
 20
29.2488875231877
 30
0.0
 40
2.5
 41
0.0
 71
     7
 72
     5
  1
11.07.2007 KH
 73
     1
 44
1.0
1001
PHOENIX7010
1002
{
1070
    41
1040
1.0
1002
}
1001
ACAD
1000
MTEXTBEGIN
1070
    73
1070
     1
1070
    44
1040
1.0
1070
    74
1070
     0
1000
MTEXTEND
  0
MTEXT
  5
BE6C1
102
{ACAD_REACTORS
330
BE71B
102
}
330
1F
100
AcDbEntity
  8
0
  6
Continuous
 62
     5
370
    35
100
AcDbMText
 10
516.2178658257171
 20
33.60592166613936
 30
0.0
 40
2.5
 41
0.0
 71
     7
 72
     5
  1
2 602 874
 73
     1
 44
1.0
1001
PHOENIX7010
1002
{
1070
    41
1040
1.0
1002
}
1001
ACAD
1000
MTEXTBEGIN
1070
    73
1070
     1
1070
    44
1040
1.0
1070
    74
1070
     0
1000
MTEXTEND
  0
MTEXT
  5
BE6C2
102
{ACAD_REACTORS
330
BE71B
102
}
330
1F
100
AcDbEntity
  8
0
  6
Continuous
 62
     5
370
    35
100
AcDbMText
 10
490.528991264694
 20
6.248887523187704
 30
0.0
 40
2.5
 41
0.0
 71
     7
 72
     5
  1
{\T0.9;Fertigungsfreigabe/\P\Q20;Production release}
 73
     1
 44
1.0
1001
PHOENIX7010
1002
{
1070
    41
1040
1.0
1002
}
1001
ACAD
1000
MTEXTBEGIN
1070
    73
1070
     1
1070
    44
1040
1.0
1070
    74
1070
     0
1000
MTEXTEND
  0
MTEXT
  5
BE6C3
102
{ACAD_REACTORS
330
BE71B
102
}
330
1F
100
AcDbEntity
  8
0
  6
Continuous
 62
     5
370
    35
100
AcDbMText
 10
490.528991264694
 20
15.2488875231877
 30
0.0
 40
2.5
 41
0.0
 71
     7
 72
     5
  1
geprüft/\P{\Q20;checked}
 73
     1
 44
1.0
1001
PHOENIX7010
1002
{
1070
    41
1040
1.0
1002
}
1001
ACAD
1000
MTEXTBEGIN
1070
    73
1070
     1
1070
    44
1040
1.0
1070
    74
1070
     0
1000
MTEXTEND
  0
MTEXT
  5
BE6C4
102
{ACAD_REACTORS
330
BE71B
102
}
330
1F
100
AcDbEntity
  8
0
  6
Continuous
 62
     5
370
    35
100
AcDbMText
 10
549.5289912646939
 20
23.72415732371155
 30
0.0
 40
2.5
 41
0.0
 71
     7
 72
     5
  1
{\T0.9;Unterschrift/\Q20;Signature}
 73
     1
 44
1.0
1001
PHOENIX7010
1002
{
1070
    41
1040
1.0
1002
}
1001
ACAD
1000
MTEXTBEGIN
1070
    73
1070
     1
1070
    44
1040
1.0
1070
    74
1070
     0
1000
MTEXTEND
  0
MTEXT
  5
BE6C5
102
{ACAD_REACTORS
330
BE71B
102
}
330
1F
100
AcDbEntity
  8
0
  6
Continuous
 62
     5
370
    35
100
AcDbMText
 10
525.528991264694
 20
24.52073237545176
 30
0.0
 40
2.5
 41
0.0
 71
     7
 72
     5
  1
Datum/{\Q20;Date}
 73
     1
 44
1.0
1001
PHOENIX7010
1002
{
1070
    41
1040
1.0
1002
}
1001
ACAD
1000
MTEXTBEGIN
1070
    73
1070
     1
1070
    44
1040
1.0
1070
    74
1070
     0
1000
MTEXTEND
  0
MTEXT
  5
BE6C6
102
{ACAD_REACTORS
330
BE71B
102
}
330
1F
100
AcDbEntity
  8
0
  6
Continuous
 62
     5
370
    35
100
AcDbMText
 10
546.1764856757654
 20
29.2488875231877
 30
0.0
 40
2.5
 41
0.0
 71
     7
 72
     5
  1
Blatt/{\Q20;Sheet:   }1   /   1
 73
     1
 44
1.0
1001
PHOENIX7010
1002
{
1070
    41
1040
1.0
1002
}
1001
ACAD
1000
MTEXTBEGIN
1070
    73
1070
     1
1070
    44
1040
1.0
1070
    74
1070
     0
1000
MTEXTEND
  0
LINE
  5
BE6C7
102
{ACAD_REACTORS
330
BE71B
102
}
330
1F
100
AcDbEntity
  8
0
  6
Continuous
 62
     5
100
AcDbLine
 10
524.0
 20
28.00000000000023
 30
0.0
 11
524.0
 21
5.000000000000227
 31
0.0
1001
PHOENIX7010
1002
{
1070
    62
1070
     5
1070
    41
1040
1.0
1002
}
  0
LINE
  5
BE6C8
102
{ACAD_REACTORS
330
BE71B
102
}
330
1F
100
AcDbEntity
  8
0
  6
Continuous
 62
     5
100
AcDbLine
 10
524.0
 20
71.00000000000022
 30
0.0
 11
524.0
 21
37.50000000000023
 31
0.0
1001
PHOENIX7010
1002
{
1070
    62
1070
     5
1070
    41
1040
1.0
1002
}
  0
LINE
  5
BE6C9
102
{ACAD_REACTORS
330
BE71B
102
}
330
1F
100
AcDbEntity
  8
0
  6
Continuous
 62
     1
370
    25
100
AcDbLine
 10
489.0
 20
14.00000000000023
 30
0.0
 11
589.0
 21
14.00000000000023
 31
0.0
1001
PHOENIX7010
1002
{
1070
    41
1040
1.0
1002
}
  0
LINE
  5
BE6CA
102
{ACAD_REACTORS
330
BE71B
102
}
330
1F
100
AcDbEntity
  8
0
  6
Continuous
 62
     5
370
    35
100
AcDbLine
 10
489.0
 20
23.00000000000023
 30
0.0
 11
589.0
 21
23.00000000000023
 31
0.0
1001
PHOENIX7010
1002
{
1070
    41
1040
1.0
1002
}
  0
LINE
  5
BE6CB
102
{ACAD_REACTORS
330
BE71B
102
}
330
1F
100
AcDbEntity
  8
0
  6
Continuous
 62
     5
370
    35
100
AcDbLine
 10
489.0
 20
23.00000000000023
 30
0.0
 11
589.0
 21
23.00000000000023
 31
0.0
1001
PHOENIX7010
1002
{
1070
    41
1040
1.0
1002
}
  0
LINE
  5
BE6CC
102
{ACAD_REACTORS
330
BE71B
102
}
330
1F
100
AcDbEntity
  8
0
  6
Continuous
 62
     5
370
    35
100
AcDbLine
 10
489.0
 20
28.00000000000023
 30
0.0
 11
589.0
 21
28.00000000000023
 31
0.0
1001
PHOENIX7010
1002
{
1070
    41
1040
1.0
1002
}
  0
LINE
  5
BE6CD
102
{ACAD_REACTORS
330
BE71B
102
}
330
1F
100
AcDbEntity
  8
0
  6
Continuous
 62
     5
100
AcDbLine
 10
489.0
 20
178.0000000000002
 30
0.0
 11
489.0
 21
5.000000000000227
 31
0.0
1001
PHOENIX7010
1002
{
1070
    62
1070
     5
1070
    41
1040
1.0
1002
}
  0
LINE
  5
BE6CE
102
{ACAD_REACTORS
330
BE71B
102
}
330
1F
100
AcDbEntity
  8
0
  6
Continuous
 62
     5
100
AcDbLine
 10
589.0
 20
71.00000000000022
 30
0.0
 11
491.5
 21
71.00000000000022
 31
0.0
1001
PHOENIX7010
1002
{
1070
    62
1070
     5
1070
    41
1040
1.0
1002
}
  0
LINE
  5
BE6CF
102
{ACAD_REACTORS
330
BE71B
102
}
330
1F
100
AcDbEntity
  8
0
  6
Continuous
 62
     5
100
AcDbLine
 10
589.0
 20
101.5000000000002
 30
0.0
 11
491.5
 21
101.5000000000002
 31
0.0
1001
PHOENIX7010
1002
{
1070
    62
1070
     5
1070
    41
1040
1.0
1002
}
  0
LINE
  5
BE6D0
102
{ACAD_REACTORS
330
BE71B
102
}
330
1F
100
AcDbEntity
  8
0
  6
Continuous
 62
     1
100
AcDbLine
 10
489.0
 20
44.50000000000023
 30
0.0
 11
524.0
 21
44.50000000000023
 31
0.0
1001
PHOENIX7010
1002
{
1070
    62
1070
     1
1070
    41
1040
1.0
1002
}
  0
LINE
  5
BE6D1
102
{ACAD_REACTORS
330
BE71B
102
}
330
1F
100
AcDbEntity
  8
0
  6
Continuous
 62
     1
100
AcDbLine
 10
502.0
 20
71.00000000000022
 30
0.0
 11
502.0
 21
37.50000000000023
 31
0.0
1001
PHOENIX7010
1002
{
1070
    62
1070
     1
1070
    41
1040
1.0
1002
}
  0
TEXT
  5
BE6D2
102
{ACAD_REACTORS
330
BE71B
102
}
330
1F
100
AcDbEntity
  8
0
  6
Continuous
 62
     1
100
AcDbText
 10
489.9999996997321
 20
60.74999981501367
 30
0.0
 40
2.0
  1
-
 41
1.5
100
AcDbText
1001
PHOENIX7010
1002
{
1070
    62
1070
     1
1070
    41
1040
1.0
1002
}
  0
TEXT
  5
BE6D3
102
{ACAD_REACTORS
330
BE71B
102
}
330
1F
100
AcDbEntity
  8
0
  6
Continuous
 62
     1
100
AcDbText
 10
489.9999996997321
 20
58.24999981501367
 30
0.0
 40
2.0
  1
-
 41
1.5
100
AcDbText
1001
PHOENIX7010
1002
{
1070
    62
1070
     1
1070
    41
1040
1.0
1002
}
  0
TEXT
  5
BE6D4
102
{ACAD_REACTORS
330
BE71B
102
}
330
1F
100
AcDbEntity
  8
0
  6
Continuous
 62
     1
100
AcDbText
 10
489.9999996997321
 20
55.74999981501367
 30
0.0
 40
2.0
  1
-
 41
1.5
100
AcDbText
1001
PHOENIX7010
1002
{
1070
    62
1070
     1
1070
    41
1040
1.0
1002
}
  0
TEXT
  5
BE6D5
102
{ACAD_REACTORS
330
BE71B
102
}
330
1F
100
AcDbEntity
  8
0
  6
Continuous
 62
     1
100
AcDbText
 10
489.9999996997321
 20
50.74999981501367
 30
0.0
 40
2.0
  1
-
 41
1.5
100
AcDbText
1001
PHOENIX7010
1002
{
1070
    62
1070
     1
1070
    41
1040
1.0
1002
}
  0
TEXT
  5
BE6D6
102
{ACAD_REACTORS
330
BE71B
102
}
330
1F
100
AcDbEntity
  8
0
  6
Continuous
 62
     1
100
AcDbText
 10
489.9999996997321
 20
53.24999981501367
 30
0.0
 40
2.0
  1
-
 41
1.5
100
AcDbText
1001
PHOENIX7010
1002
{
1070
    62
1070
     1
1070
    41
1040
1.0
1002
}
  0
TEXT
  5
BE6D7
102
{ACAD_REACTORS
330
BE71B
102
}
330
1F
100
AcDbEntity
  8
0
  6
Continuous
 62
     1
100
AcDbText
 10
489.9999996997321
 20
45.74999981501366
 30
0.0
 40
2.0
  1
-
 41
1.5
100
AcDbText
1001
PHOENIX7010
1002
{
1070
    62
1070
     1
1070
    41
1040
1.0
1002
}
  0
TEXT
  5
BE6D8
102
{ACAD_REACTORS
330
BE71B
102
}
330
1F
100
AcDbEntity
  8
0
  6
Continuous
 62
     1
100
AcDbText
 10
489.9999996997321
 20
48.24999981501367
 30
0.0
 40
2.0
  1
-
 41
1.5
100
AcDbText
1001
PHOENIX7010
1002
{
1070
    62
1070
     1
1070
    41
1040
1.0
1002
}
  0
TEXT
  5
BE6D9
102
{ACAD_REACTORS
330
BE71B
102
}
330
1F
100
AcDbEntity
  8
0
  6
Continuous
 62
     1
100
AcDbText
 10
502.9999996997321
 20
60.74999981501367
 30
0.0
 40
2.0
  1
-
 41
1.5
100
AcDbText
1001
PHOENIX7010
1002
{
1070
    62
1070
     1
1070
    41
1040
1.0
1002
}
  0
TEXT
  5
BE6DA
102
{ACAD_REACTORS
330
BE71B
102
}
330
1F
100
AcDbEntity
  8
0
  6
Continuous
 62
     1
100
AcDbText
 10
502.9999996997321
 20
58.24999981501367
 30
0.0
 40
2.0
  1
-
 41
1.5
100
AcDbText
1001
PHOENIX7010
1002
{
1070
    62
1070
     1
1070
    41
1040
1.0
1002
}
  0
TEXT
  5
BE6DB
102
{ACAD_REACTORS
330
BE71B
102
}
330
1F
100
AcDbEntity
  8
0
  6
Continuous
 62
     1
100
AcDbText
 10
502.9999996997321
 20
55.74999981501367
 30
0.0
 40
2.0
  1
-
 41
1.5
100
AcDbText
1001
PHOENIX7010
1002
{
1070
    62
1070
     1
1070
    41
1040
1.0
1002
}
  0
TEXT
  5
BE6DC
102
{ACAD_REACTORS
330
BE71B
102
}
330
1F
100
AcDbEntity
  8
0
  6
Continuous
 62
     1
100
AcDbText
 10
502.9999996997321
 20
50.74999981501367
 30
0.0
 40
2.0
  1
-
 41
1.5
100
AcDbText
1001
PHOENIX7010
1002
{
1070
    62
1070
     1
1070
    41
1040
1.0
1002
}
  0
TEXT
  5
BE6DD
102
{ACAD_REACTORS
330
BE71B
102
}
330
1F
100
AcDbEntity
  8
0
  6
Continuous
 62
     1
100
AcDbText
 10
502.9999996997321
 20
53.24999981501367
 30
0.0
 40
2.0
  1
-
 41
1.5
100
AcDbText
1001
PHOENIX7010
1002
{
1070
    62
1070
     1
1070
    41
1040
1.0
1002
}
  0
TEXT
  5
BE6DE
102
{ACAD_REACTORS
330
BE71B
102
}
330
1F
100
AcDbEntity
  8
0
  6
Continuous
 62
     1
100
AcDbText
 10
502.9999996997321
 20
45.74999981501366
 30
0.0
 40
2.0
  1
-
 41
1.5
100
AcDbText
1001
PHOENIX7010
1002
{
1070
    62
1070
     1
1070
    41
1040
1.0
1002
}
  0
TEXT
  5
BE6DF
102
{ACAD_REACTORS
330
BE71B
102
}
330
1F
100
AcDbEntity
  8
0
  6
Continuous
 62
     1
100
AcDbText
 10
502.9999996997321
 20
48.24999981501367
 30
0.0
 40
2.0
  1
-
 41
1.5
100
AcDbText
1001
PHOENIX7010
1002
{
1070
    62
1070
     1
1070
    41
1040
1.0
1002
}
  0
ARC
  5
BE6E0
102
{ACAD_REACTORS
330
BE71B
102
}
330
1F
100
AcDbEntity
  8
0
  6
Continuous
 62
     5
100
AcDbCircle
 10
491.5
 20
99.00000000000023
 30
0.0
 40
2.5
100
AcDbArc
 50
90.0
 51
180.0
1001
PHOENIX7010
1002
{
1070
    62
1070
     5
1070
    41
1040
1.0
1002
}
  0
ARC
  5
BE6E1
102
{ACAD_REACTORS
330
BE71B
102
}
330
1F
100
AcDbEntity
  8
0
  6
Continuous
 62
     5
100
AcDbCircle
 10
491.5
 20
68.50000000000022
 30
0.0
 40
2.5
100
AcDbArc
 50
90.0
 51
180.0
1001
PHOENIX7010
1002
{
1070
    62
1070
     5
1070
    41
1040
1.0
1002
}
  0
TEXT
  5
BE6E2
102
{ACAD_REACTORS
330
BE71B
102
}
330
1F
100
AcDbEntity
  8
0
  6
Continuous
 62
     1
100
AcDbText
 10
489.9999996997321
 20
68.24999981501367
 30
0.0
 40
2.0
  1
-
 41
1.5
100
AcDbText
1001
PHOENIX7010
1002
{
1070
    62
1070
     1
1070
    41
1040
1.0
1002
}
  0
TEXT
  5
BE6E3
102
{ACAD_REACTORS
330
BE71B
102
}
330
1F
100
AcDbEntity
  8
0
  6
Continuous
 62
     1
100
AcDbText
 10
489.9999996997321
 20
63.24999981501367
 30
0.0
 40
2.0
  1
-
 41
1.5
100
AcDbText
1001
PHOENIX7010
1002
{
1070
    62
1070
     1
1070
    41
1040
1.0
1002
}
  0
TEXT
  5
BE6E4
102
{ACAD_REACTORS
330
BE71B
102
}
330
1F
100
AcDbEntity
  8
0
  6
Continuous
 62
     1
100
AcDbText
 10
489.9999996997321
 20
65.74999981501367
 30
0.0
 40
2.0
  1
-
 41
1.5
100
AcDbText
1001
PHOENIX7010
1002
{
1070
    62
1070
     1
1070
    41
1040
1.0
1002
}
  0
TEXT
  5
BE6E5
102
{ACAD_REACTORS
330
BE71B
102
}
330
1F
100
AcDbEntity
  8
0
  6
Continuous
 62
     1
100
AcDbText
 10
502.9999996997321
 20
68.24999981501367
 30
0.0
 40
2.0
  1
-
 41
1.5
100
AcDbText
1001
PHOENIX7010
1002
{
1070
    62
1070
     1
1070
    41
1040
1.0
1002
}
  0
TEXT
  5
BE6E6
102
{ACAD_REACTORS
330
BE71B
102
}
330
1F
100
AcDbEntity
  8
0
  6
Continuous
 62
     1
100
AcDbText
 10
502.9999996997321
 20
63.24999981501367
 30
0.0
 40
2.0
  1
-
 41
1.5
100
AcDbText
1001
PHOENIX7010
1002
{
1070
    62
1070
     1
1070
    41
1040
1.0
1002
}
  0
TEXT
  5
BE6E7
102
{ACAD_REACTORS
330
BE71B
102
}
330
1F
100
AcDbEntity
  8
0
  6
Continuous
 62
     1
100
AcDbText
 10
502.9999996997321
 20
65.74999981501367
 30
0.0
 40
2.0
  1
-
 41
1.5
100
AcDbText
1001
PHOENIX7010
1002
{
1070
    62
1070
     1
1070
    41
1040
1.0
1002
}
  0
LINE
  5
BE6E8
102
{ACAD_REACTORS
330
BE71B
102
}
330
1F
100
AcDbEntity
  8
0
  6
Continuous
 62
     1
370
    25
100
AcDbLine
 10
548.0
 20
28.00000000000023
 30
0.0
 11
548.0
 21
5.000000000000227
 31
0.0
1001
PHOENIX7010
1002
{
1070
    62
1070
     5
1070
    41
1040
1.0
1002
}
  0
LINE
  5
BE6E9
102
{ACAD_REACTORS
330
BE71B
102
}
330
1F
100
AcDbEntity
  8
0
  6
Continuous
 62
     5
100
AcDbLine
 10
589.0
 20
122.5000000000002
 30
0.0
 11
491.5
 21
122.5000000000002
 31
0.0
1001
PHOENIX7010
1002
{
1070
    62
1070
     5
1070
    41
1040
1.0
1002
}
  0
ARC
  5
BE6EA
102
{ACAD_REACTORS
330
BE71B
102
}
330
1F
100
AcDbEntity
  8
0
  6
Continuous
 62
     5
100
AcDbCircle
 10
491.5
 20
120.0000000000002
 30
0.0
 40
2.5
100
AcDbArc
 50
90.0
 51
180.0
1001
PHOENIX7010
1002
{
1070
    62
1070
     5
1070
    41
1040
1.0
1002
}
  0
LINE
  5
BE6EB
102
{ACAD_REACTORS
330
BE71B
102
}
330
1F
100
AcDbEntity
  8
0
  6
Continuous
 62
     5
100
AcDbLine
 10
579.4999999999999
 20
130.5000000000002
 30
0.0
 11
572.5
 21
128.7500000000002
 31
0.0
1001
PHOENIX7010
1002
{
1070
    62
1070
     5
1070
    41
1040
1.0
1002
}
  0
LINE
  5
BE6EC
102
{ACAD_REACTORS
330
BE71B
102
}
330
1F
100
AcDbEntity
  8
0
  6
Continuous
 62
     5
100
AcDbLine
 10
579.4999999999999
 20
123.5000000000002
 30
0.0
 11
572.5
 21
125.2500000000002
 31
0.0
1001
PHOENIX7010
1002
{
1070
    62
1070
     5
1070
    41
1040
1.0
1002
}
  0
LINE
  5
BE6ED
102
{ACAD_REACTORS
330
BE71B
102
}
330
1F
100
AcDbEntity
  8
0
  6
ACAD_ISO04W100
 62
     1
 48
0.282258064516129
100
AcDbLine
 10
589.0
 20
127.0000000000002
 30
0.0
 11
571.4999999999999
 21
127.0000000000002
 31
0.0
1001
PHOENIX7010
1002
{
1070
    62
1070
     1
1070
    41
1040
1.0
1002
}
  0
LINE
  5
BE6EE
102
{ACAD_REACTORS
330
BE71B
102
}
330
1F
100
AcDbEntity
  8
0
  6
Continuous
 62
     5
100
AcDbLine
 10
572.5
 20
125.2500000000002
 30
0.0
 11
572.5
 21
128.7500000000002
 31
0.0
1001
PHOENIX7010
1002
{
1070
    62
1070
     5
1070
    41
1040
1.0
1002
}
  0
CIRCLE
  5
BE6EF
102
{ACAD_REACTORS
330
BE71B
102
}
330
1F
100
AcDbEntity
  8
0
  6
Continuous
 62
     5
100
AcDbCircle
 10
584.4999999999999
 20
127.0000000000002
 30
0.0
 40
3.5
1001
PHOENIX7010
1002
{
1070
    62
1070
     5
1070
    41
1040
1.0
1002
}
  0
CIRCLE
  5
BE6F0
102
{ACAD_REACTORS
330
BE71B
102
}
330
1F
100
AcDbEntity
  8
0
  6
Continuous
 62
     5
100
AcDbCircle
 10
584.4999999999999
 20
127.0000000000002
 30
0.0
 40
1.75
1001
PHOENIX7010
1002
{
1070
    62
1070
     5
1070
    41
1040
1.0
1002
}
  0
LINE
  5
BE6F1
102
{ACAD_REACTORS
330
BE71B
102
}
330
1F
100
AcDbEntity
  8
0
  6
ACAD_ISO04W100
 62
     1
 48
0.1451612903225806
100
AcDbLine
 10
584.4999999999999
 20
122.5000000000002
 30
0.0
 11
584.4999999999999
 21
131.5000000000002
 31
0.0
1001
PHOENIX7010
1002
{
1070
    62
1070
     1
1070
    41
1040
1.0
1002
}
  0
LINE
  5
BE6F2
102
{ACAD_REACTORS
330
BE71B
102
}
330
1F
100
AcDbEntity
  8
0
  6
Continuous
 62
     5
100
AcDbLine
 10
579.4999999999999
 20
123.5000000000002
 30
0.0
 11
579.4999999999999
 21
130.5000000000002
 31
0.0
1001
PHOENIX7010
1002
{
1070
    62
1070
     5
1070
    41
1040
1.0
1002
}
  0
LINE
  5
BE6F3
102
{ACAD_REACTORS
330
BE71B
102
}
330
1F
100
AcDbEntity
  8
0
  6
Continuous
 62
     5
370
    35
100
AcDbLine
 10
489.0
 20
37.50000000000023
 30
0.0
 11
589.0
 21
37.50000000000023
 31
0.0
1001
PHOENIX7010
1002
{
1070
    41
1040
1.0
1002
}
  0
MTEXT
  5
BE6F4
102
{ACAD_REACTORS
330
BE71B
102
}
330
1F
100
AcDbEntity
  8
0
  6
Continuous
 62
     5
370
    35
100
AcDbMText
 10
490.528991264694
 20
29.2488875231877
 30
0.0
 40
2.5
 41
0.0
 71
     7
 72
     5
  1
Datum/{\Q20;Date:}
 73
     1
 44
1.0
1001
PHOENIX7010
1002
{
1070
    41
1040
1.0
1002
}
1001
ACAD
1000
MTEXTBEGIN
1070
    73
1070
     1
1070
    44
1040
1.0
1070
    74
1070
     0
1000
MTEXTEND
  0
MTEXT
  5
BE6F5
102
{ACAD_REACTORS
330
BE71B
102
}
330
1F
100
AcDbEntity
  8
0
  6
Continuous
 62
     5
370
    35
100
AcDbMText
 10
490.528991264694
 20
33.49475527098116
 30
0.0
 40
2.5
 41
0.0
 71
     7
 72
     5
  1
DISK:
 73
     1
 44
1.0
1001
PHOENIX7010
1002
{
1070
    41
1040
1.0
1002
}
1001
ACAD
1000
MTEXTBEGIN
1070
    73
1070
     1
1070
    44
1040
1.0
1070
    74
1070
     0
1000
MTEXTEND
  0
MTEXT
  5
BE6F6
102
{ACAD_REACTORS
330
BE71B
102
}
330
1F
100
AcDbEntity
  8
0
  6
Continuous
 62
     5
370
    35
100
AcDbMText
 10
490.1677582569427
 20
38.32303913053625
 30
0.0
 40
2.0
 41
0.0
 71
     7
 72
     5
  1
{\C1;Ä.Nr/\P\Q20;Alt-No.:}
 73
     1
 44
1.0
1001
PHOENIX7010
1002
{
1070
    41
1040
1.0
1002
}
1001
ACAD
1000
MTEXTBEGIN
1070
    73
1070
     1
1070
    44
1040
1.0
1070
    74
1070
     0
1000
MTEXTEND
  0
MTEXT
  5
BE6F7
102
{ACAD_REACTORS
330
BE71B
102
}
330
1F
100
AcDbEntity
  8
0
  6
Continuous
 62
     5
370
    35
100
AcDbMText
 10
503.5918340418984
 20
38.3230427919109
 30
0.0
 40
2.0
 41
0.0
 71
     7
 72
     5
  1
{\C1;Datum/\P\Q20;Date:}
 73
     1
 44
1.0
1001
PHOENIX7010
1002
{
1070
    41
1040
1.0
1002
}
1001
ACAD
1000
MTEXTBEGIN
1070
    73
1070
     1
1070
    44
1040
1.0
1070
    74
1070
     0
1000
MTEXTEND
  0
MTEXT
  5
BE6F8
102
{ACAD_REACTORS
330
BE71B
102
}
330
1F
100
AcDbEntity
  8
0
  6
Continuous
 62
     5
370
    35
100
AcDbMText
 10
492.8800602381661
 20
95.42896167163712
 30
0.0
 40
4.0
 41
0.0
 71
     7
 72
     5
  1
{\C7;Artikel / \Q20;Article:}
 73
     1
 44
1.0
1001
PHOENIX7010
1002
{
1070
    41
1040
1.0
1002
}
1001
ACAD
1000
MTEXTBEGIN
1070
    73
1070
     1
1070
    44
1040
1.0
1070
    74
1070
     0
1000
MTEXTEND
  0
MTEXT
  5
BE6F9
102
{ACAD_REACTORS
330
BE71B
102
}
330
1F
100
AcDbEntity
  8
0
  6
Continuous
 62
     5
370
    35
100
AcDbMText
 10
514.6810942169349
 20
111.4363046740558
 30
0.0
 40
4.0
 41
0.0
 71
     7
 72
     5
  1
{\C7;2G 5335.290.01}
 73
     1
 44
1.0
1001
PHOENIX7010
1002
{
1070
    41
1040
1.0
1002
}
1001
ACAD
1000
MTEXTBEGIN
1070
    73
1070
     1
1070
    44
1040
1.0
1070
    74
1070
     0
1000
MTEXTEND
  0
MTEXT
  5
BE6FA
102
{ACAD_REACTORS
330
BE71B
102
}
330
1F
100
AcDbEntity
  8
0
  6
Continuous
 62
     5
370
    35
100
AcDbMText
 10
493.5702130763929
 20
117.5784617930061
 30
0.0
 40
3.0
 41
0.0
 71
     7
 72
     5
  1
Zeichnungs-Nr. / {\Q20;Drawing-No.:}
 73
     1
 44
1.0
1001
PHOENIX7010
1002
{
1070
    41
1040
1.0
1002
}
1001
ACAD
1000
MTEXTBEGIN
1070
    73
1070
     1
1070
    44
1040
1.0
1070
    74
1070
     0
1000
MTEXTEND
  0
MTEXT
  5
BE6FB
102
{ACAD_REACTORS
330
BE71B
102
}
330
1F
100
AcDbEntity
  8
0
  6
Continuous
 62
     5
370
    35
100
AcDbMText
 10
493.2942762589882
 20
125.2466907925512
 30
0.0
 40
2.5
 41
0.0
 71
     7
 72
     5
  1
{\C1;Maßstab/\P\Q20;Scale:}
 73
     1
 44
1.0
1001
PHOENIX7010
1002
{
1070
    41
1040
1.0
1002
}
1001
ACAD
1000
MTEXTBEGIN
1070
    73
1070
     1
1070
    44
1040
1.0
1070
    74
1070
     0
1000
MTEXTEND
  0
MTEXT
  5
BE6FC
102
{ACAD_REACTORS
330
BE71B
102
}
330
1F
100
AcDbEntity
  8
0
  6
Continuous
 62
     5
370
    35
100
AcDbMText
 10
514.3074630969176
 20
126.1987580068238
 30
0.0
 40
4.0
 41
0.0
 71
     7
 72
     5
  1
{\C7;1:1}
 73
     1
 44
1.0
1001
PHOENIX7010
1002
{
1070
    41
1040
1.0
1002
}
1001
ACAD
1000
MTEXTBEGIN
1070
    73
1070
     1
1070
    44
1040
1.0
1070
    74
1070
     0
1000
MTEXTEND
  0
LINE
  5
BE721
102
{ACAD_REACTORS
330
BE733
102
}
330
1F
100
AcDbEntity
  8
0
  6
Continuous
 62
     1
370
    50
100
AcDbLine
 10
403.0
 20
1.000000000000113
 30
0.0
 11
403.0
 21
5.000000000000113
 31
0.0
1001
PHOENIX7010
1002
{
1070
    62
1070
     1
1070
    41
1040
1.0
1002
}
  0
LINE
  5
BE722
102
{ACAD_REACTORS
330
BE733
102
}
330
1F
100
AcDbEntity
  8
0
  6
Continuous
 62
     3
370
    50
100
AcDbLine
 10
589.0
 20
415.0000000000001
 30
0.0
 11
589.0
 21
5.000000000000113
 31
0.0
1001
PHOENIX7010
1002
{
1070
    62
1070
     3
1070
    41
1040
1.0
1002
}
  0
LINE
  5
BE723
102
{ACAD_REACTORS
330
BE733
102
}
330
1F
100
AcDbEntity
  8
0
  6
Continuous
 62
     3
370
    50
100
AcDbLine
 10
20.0
 20
415.0000000000001
 30
0.0
 11
589.0
 21
415.0000000000001
 31
0.0
1001
PHOENIX7010
1002
{
1070
    62
1070
     3
1070
    41
1040
1.0
1002
}
  0
LINE
  5
BE724
102
{ACAD_REACTORS
330
BE733
102
}
330
1F
100
AcDbEntity
  8
0
  6
Continuous
 62
     1
370
    50
100
AcDbLine
 10
116.0
 20
5.000000000000113
 30
0.0
 11
116.0
 21
1.000000000000113
 31
0.0
1001
PHOENIX7010
1002
{
1070
    62
1070
     1
1070
    41
1040
1.0
1002
}
  0
LINE
  5
BE725
102
{ACAD_REACTORS
330
BE733
102
}
330
1F
100
AcDbEntity
  8
0
  6
Continuous
 62
     1
370
    50
100
AcDbLine
 10
116.0
 20
419.0000000000001
 30
0.0
 11
116.0
 21
415.0000000000001
 31
0.0
1001
PHOENIX7010
1002
{
1070
    62
1070
     1
1070
    41
1040
1.0
1002
}
  0
LINE
  5
BE726
102
{ACAD_REACTORS
330
BE733
102
}
330
1F
100
AcDbEntity
  8
0
  6
Continuous
 62
     1
370
    50
100
AcDbLine
 10
213.0
 20
5.000000000000113
 30
0.0
 11
213.0
 21
1.000000000000113
 31
0.0
1001
PHOENIX7010
1002
{
1070
    62
1070
     1
1070
    41
1040
1.0
1002
}
  0
LINE
  5
BE727
102
{ACAD_REACTORS
330
BE733
102
}
330
1F
100
AcDbEntity
  8
0
  6
Continuous
 62
     1
370
    50
100
AcDbLine
 10
213.0
 20
419.0000000000001
 30
0.0
 11
213.0
 21
415.0000000000001
 31
0.0
1001
PHOENIX7010
1002
{
1070
    62
1070
     1
1070
    41
1040
1.0
1002
}
  0
LINE
  5
BE728
102
{ACAD_REACTORS
330
BE733
102
}
330
1F
100
AcDbEntity
  8
0
  6
Continuous
 62
     1
370
    50
100
AcDbLine
 10
403.0
 20
419.0000000000001
 30
0.0
 11
403.0
 21
415.0000000000001
 31
0.0
1001
PHOENIX7010
1002
{
1070
    62
1070
     1
1070
    41
1040
1.0
1002
}
  0
LINE
  5
BE729
102
{ACAD_REACTORS
330
BE733
102
}
330
1F
100
AcDbEntity
  8
0
  6
Continuous
 62
     3
370
    50
100
AcDbLine
 10
20.0
 20
5.000000000000113
 30
0.0
 11
20.0
 21
415.0000000000001
 31
0.0
1001
PHOENIX7010
1002
{
1070
    62
1070
     3
1070
    41
1040
1.0
1002
}
  0
LINE
  5
BE72A
102
{ACAD_REACTORS
330
BE733
102
}
330
1F
100
AcDbEntity
  8
0
  6
Continuous
 62
     3
370
    50
100
AcDbLine
 10
589.0
 20
5.000000000000113
 30
0.0
 11
20.0
 21
5.000000000000113
 31
0.0
1001
PHOENIX7010
1002
{
1070
    62
1070
     3
1070
    41
1040
1.0
1002
}
  0
LINE
  5
BE72B
102
{ACAD_REACTORS
330
BE733
102
}
330
1F
100
AcDbEntity
  8
0
  6
Continuous
 62
     1
370
    50
100
AcDbLine
 10
1.0
 20
1.000000000000113
 30
0.0
 11
1.0
 21
419.0000000000001
 31
0.0
1001
PHOENIX7010
1002
{
1070
    62
1070
     1
1070
    41
1040
1.0
1002
}
  0
LINE
  5
BE72C
102
{ACAD_REACTORS
330
BE733
102
}
330
1F
100
AcDbEntity
  8
0
  6
Continuous
 62
     1
370
    50
100
AcDbLine
 10
1.0
 20
419.0000000000001
 30
0.0
 11
593.0
 21
419.0000000000001
 31
0.0
1001
PHOENIX7010
1002
{
1070
    62
1070
     1
1070
    41
1040
1.0
1002
}
  0
LINE
  5
BE72D
102
{ACAD_REACTORS
330
BE733
102
}
330
1F
100
AcDbEntity
  8
0
  6
Continuous
 62
     1
370
    50
100
AcDbLine
 10
593.0
 20
419.0000000000001
 30
0.0
 11
593.0
 21
1.000000000000113
 31
0.0
1001
PHOENIX7010
1002
{
1070
    62
1070
     1
1070
    41
1040
1.0
1002
}
  0
LINE
  5
BE72E
102
{ACAD_REACTORS
330
BE733
102
}
330
1F
100
AcDbEntity
  8
0
  6
Continuous
 62
     1
370
    50
100
AcDbLine
 10
593.0
 20
1.000000000000113
 30
0.0
 11
1.0
 21
1.000000000000113
 31
0.0
1001
PHOENIX7010
1002
{
1070
    62
1070
     1
1070
    41
1040
1.0
1002
}
  0
LINE
  5
BE72F
102
{ACAD_REACTORS
330
BE733
102
}
330
1F
100
AcDbEntity
  8
0
  6
Continuous
 62
     1
370
    50
100
AcDbLine
 10
589.0
 20
297.0000000000001
 30
0.0
 11
593.0
 21
297.0000000000001
 31
0.0
1001
PHOENIX7010
1002
{
1070
    62
1070
     1
1070
    41
1040
1.0
1002
}
  0
MTEXT
  5
BE730
102
{ACAD_REACTORS
330
BE733
102
}
330
1F
100
AcDbEntity
  8
0
  6
Continuous
 62
     7
370
    50
100
AcDbMText
 10
19.70248718641096
 20
55.39351207913353
 30
0.0
 40
2.0
 41
0.0
 71
     7
 72
     5
  1
{\T1.1;\C1;"Schutzvermerk nach DIN ISO 16016 beachten" \Q20;"Please pay attention to copyright note DIN ISO 16016"}
 11
0.0000000000000002
 21
1.0
 31
0.0
 73
     1
 44
1.0
1001
PHOENIX7010
1002
{
1070
    41
1040
1.0
1002
}
1001
ACAD
1000
MTEXTBEGIN
1070
    73
1070
     1
1070
    44
1040
1.0
1070
    74
1070
     0
1000
MTEXTEND
  0
INSERT
  5
BE731
102
{ACAD_REACTORS
330
BE733
102
}
330
1F
100
AcDbEntity
  8
0
  6
Continuous
 62
     1
370
    50
100
AcDbBlockReference
  2
PH_GRPBLK
 10
403.0
 20
1.000000000000113
 30
0.0
1001
PHOENIX7010
1002
{
1070
    41
1040
1.0
1002
}
  0
ENDSEC
  0
SECTION
  2
OBJECTS
  0
DICTIONARY
  5
C
330
0
100
AcDbDictionary
281
     1
  3
ACAD_COLOR
350
376D
  3
ACAD_GROUP
350
D
  3
ACAD_LAYOUT
350
1A
  3
ACAD_MATERIAL
350
376C
  3
ACAD_MLEADERSTYLE
350
BE695
  3
ACAD_MLINESTYLE
350
17
  3
ACAD_PLOTSETTINGS
350
19
  3
ACAD_PLOTSTYLENAME
350
E
  3
ACAD_SCALELIST
350
BE683
  3
ACAD_TABLESTYLE
350
376E
  3
ACAD_VISUALSTYLE
350
BDF3C
  3
ACDB_RECOMPOSE_DATA
350
BE7BD
  3
AcDbVariableDictionary
350
3761
  3
DWGPROPS
350
BE7BE
  3
PH_OBJREACTOR_DICT
350
49
  3
PH_ROOTGROUP_DICT
350
4A
  3
PH_VARS
350
4B
  0
DICTIONARY
  5
378B
330
2
100
AcDbDictionary
280
     1
281
     1
  3
ACAD_LAYERFILTERS
360
BE5CC
  3
ACAD_LAYERSTATES
360
378C
  3
ACLYDICTIONARY
360
BE5CB
  0
DICTIONARY
  5
BE734
330
10
100
AcDbDictionary
280
     1
281
     1
  3
ADSK_XREC_LAYER_RECONCILED
360
BE735
  0
DICTIONARY
  5
BE736
330
B21
100
AcDbDictionary
280
     1
281
     1
  3
ADSK_XREC_LAYER_RECONCILED
360
BE737
  0
DICTIONARY
  5
BE738
330
BE5C9
100
AcDbDictionary
280
     1
281
     1
  3
ADSK_XREC_LAYER_RECONCILED
360
BE739
  0
DICTIONARY
  5
839D
330
1F
100
AcDbDictionary
280
     1
281
     1
  3
ACAD_SORTENTS
360
839E
  0
DICTIONARY
  5
BE7BB
330
BE6A4
100
AcDbDictionary
280
     1
281
     1
  3
ACAD_MTEXT_2008_RT
360
BE7BC
  0
DICTIONARY
  5
376D
102
{ACAD_REACTORS
330
C
102
}
330
C
100
AcDbDictionary
281
     1
  0
DICTIONARY
  5
D
102
{ACAD_REACTORS
330
C
102
}
330
C
100
AcDbDictionary
281
     1
  3
*A1
350
9D8
  3
*A10
350
4AF89
  3
*A100
350
9C619
  3
*A101
350
ADED8
  3
*A102
350
4AF7E
  3
*A103
350
B39A
  3
*A104
350
9C61A
  3
*A105
350
9C61B
  3
*A106
350
9C61C
  3
*A107
350
B3AD
  3
*A108
350
2176B
  3
*A109
350
9C608
  3
*A11
350
B38F
  3
*A110
350
4AF79
  3
*A111
350
B383
  3
*A112
350
4AF64
  3
*A113
350
ADEB5
  3
*A114
350
9C61D
  3
*A115
350
B38B
  3
*A116
350
9C61E
  3
*A117
350
4AF54
  3
*A118
350
9C61F
  3
*A119
350
9C620
  3
*A12
350
4AF75
  3
*A120
350
B396
  3
*A121
350
9C621
  3
*A122
350
B3A8
  3
*A123
350
9C622
  3
*A124
350
ADEB6
  3
*A125
350
B37F
  3
*A126
350
B382
  3
*A127
350
ADED2
  3
*A128
350
ADED0
  3
*A129
350
9C623
  3
*A13
350
4AF59
  3
*A130
350
9C624
  3
*A131
350
9C625
  3
*A132
350
B38A
  3
*A133
350
9C626
  3
*A134
350
B3A7
  3
*A135
350
ADEB7
  3
*A136
350
B37D
  3
*A137
350
B38E
  3
*A138
350
9C627
  3
*A139
350
9F636
  3
*A14
350
B3A5
  3
*A140
350
D64C
  3
*A141
350
B37B
  3
*A142
350
4AF56
  3
*A143
350
4AF55
  3
*A144
350
9C60A
  3
*A145
350
ADECC
  3
*A146
350
ADEB8
  3
*A147
350
B376
  3
*A148
350
B395
  3
*A149
350
B377
  3
*A15
350
ADEC9
  3
*A150
350
B391
  3
*A151
350
4AF6A
  3
*A152
350
B378
  3
*A153
350
ADED3
  3
*A154
350
B37E
  3
*A155
350
B3A3
  3
*A156
350
116D0
  3
*A157
350
9C609
  3
*A158
350
4AF7F
  3
*A159
350
B3AC
  3
*A16
350
4AF97
  3
*A160
350
4AF66
  3
*A161
350
42454
  3
*A162
350
B372
  3
*A163
350
B380
  3
*A164
350
9C60D
  3
*A165
350
4AF81
  3
*A166
350
4AF51
  3
*A167
350
ADED4
  3
*A168
350
ADEB9
  3
*A169
350
B379
  3
*A17
350
B3B0
  3
*A170
350
B387
  3
*A171
350
B37A
  3
*A172
350
4AF4F
  3
*A173
350
B38D
  3
*A174
350
4AF68
  3
*A175
350
A6F29
  3
*A176
350
4AF48
  3
*A177
350
4AF57
  3
*A178
350
4AF49
  3
*A179
350
ADEBA
  3
*A18
350
4AF8A
  3
*A180
350
4AF4A
  3
*A181
350
4AF4B
  3
*A182
350
16ADC
  3
*A183
350
4AF4C
  3
*A184
350
B39D
  3
*A185
350
4AF61
  3
*A186
350
ADE99
  3
*A187
350
A7B11
  3
*A188
350
ADE9A
  3
*A189
350
ADE9B
  3
*A19
350
7A9A3
  3
*A190
350
ADEBB
  3
*A191
350
11819
  3
*A192
350
ADE9C
  3
*A193
350
ADE9D
  3
*A194
350
ADE9E
  3
*A195
350
4AF58
  3
*A196
350
ADED5
  3
*A197
350
ADE9F
  3
*A198
350
9C60C
  3
*A199
350
4AF7D
  3
*A2
350
ADEB2
  3
*A20
350
4AF8B
  3
*A200
350
ADEA0
  3
*A201
350
ADEBC
  3
*A202
350
ADEA1
  3
*A203
350
B39E
  3
*A204
350
ADEA2
  3
*A205
350
ADEA3
  3
*A206
350
9C60B
  3
*A207
350
ADEA4
  3
*A208
350
ADEA5
  3
*A209
350
ADEA6
  3
*A21
350
9C612
  3
*A210
350
ADED6
  3
*A211
350
B3AE
  3
*A212
350
4F747
  3
*A213
350
4CF63
  3
*A214
350
ADEA7
  3
*A215
350
ADEA8
  3
*A216
350
9C610
  3
*A217
350
ADEA9
  3
*A218
350
ADEAA
  3
*A219
350
4AF7B
  3
*A22
350
4AF8C
  3
*A220
350
ADEAB
  3
*A221
350
B385
  3
*A222
350
ADEAC
  3
*A223
350
ADEAD
  3
*A224
350
4AF5A
  3
*A225
350
15181
  3
*A226
350
B3A0
  3
*A227
350
B39F
  3
*A228
350
ADEBD
  3
*A229
350
4AF5F
  3
*A23
350
B397
  3
*A230
350
ADEBE
  3
*A231
350
ADEBF
  3
*A232
350
ADEC0
  3
*A233
350
ADEC1
  3
*A234
350
9C5FB
  3
*A235
350
ADEC2
  3
*A236
350
547E3
  3
*A237
350
ADEC3
  3
*A238
350
ADEC4
  3
*A239
350
ADEC5
  3
*A24
350
ADEB3
  3
*A240
350
ADEC6
  3
*A241
350
B373
  3
*A242
350
ADED9
  3
*A243
350
ADEDA
  3
*A244
350
4AF83
  3
*A245
350
ADED7
  3
*A246
350
ADEDB
  3
*A247
350
ADEDC
  3
*A248
350
B39C
  3
*A249
350
54D1B
  3
*A25
350
B37C
  3
*A250
350
ADEDD
  3
*A251
350
ADEDE
  3
*A252
350
ADEDF
  3
*A253
350
B39B
  3
*A254
350
AF7E5
  3
*A255
350
B375
  3
*A256
350
ADEAE
  3
*A257
350
B1658
  3
*A258
350
25B3
  3
*A259
350
B4EEF
  3
*A26
350
4AF8D
  3
*A260
350
B9CD9
  3
*A261
350
B9DF2
  3
*A262
350
ADECD
  3
*A263
350
4AF67
  3
*A264
350
16BE6
  3
*A265
350
B38C
  3
*A266
350
B394
  3
*A267
350
ADEAF
  3
*A268
350
4AF6B
  3
*A269
350
4AF6C
  3
*A27
350
4AF63
  3
*A270
350
4AF69
  3
*A271
350
B3A6
  3
*A272
350
4AF6D
  3
*A273
350
4AF7C
  3
*A274
350
B374
  3
*A275
350
5C997
  3
*A276
350
4AF6E
  3
*A277
350
ADED1
  3
*A278
350
ADEB0
  3
*A279
350
B388
  3
*A28
350
4AF8E
  3
*A280
350
4AF6F
  3
*A281
350
B392
  3
*A282
350
4AF70
  3
*A283
350
4AF82
  3
*A284
350
ADEC7
  3
*A285
350
4AF71
  3
*A286
350
4AF84
  3
*A287
350
4AF72
  3
*A288
350
7805E
  3
*A289
350
ADEB1
  3
*A29
350
B384
  3
*A290
350
B3AF
  3
*A291
350
4AF73
  3
*A292
350
4AF5B
  3
*A293
350
4AF52
  3
*A294
350
4AF74
  3
*A295
350
9C611
  3
*A296
350
9C60E
  3
*A297
350
4AF85
  3
*A298
350
ADEC8
  3
*A299
350
B381
  3
*A3
350
4AF5D
  3
*A30
350
B3A1
  3
*A31
350
ADECA
  3
*A32
350
17714
  3
*A33
350
B3A4
  3
*A34
350
4AF5E
  3
*A35
350
B390
  3
*A36
350
4AF8F
  3
*A37
350
4AF90
  3
*A38
350
4AF76
  3
*A39
350
4AF91
  3
*A4
350
B386
  3
*A40
350
4AF62
  3
*A41
350
B3B1
  3
*A42
350
4AF92
  3
*A43
350
4AF4E
  3
*A44
350
4AF93
  3
*A45
350
4AF94
  3
*A46
350
9C615
  3
*A47
350
7B588
  3
*A48
350
4AF50
  3
*A49
350
9C616
  3
*A5
350
B3A9
  3
*A50
350
9C613
  3
*A51
350
4AF78
  3
*A52
350
4AF65
  3
*A53
350
B3A2
  3
*A54
350
B398
  3
*A55
350
4AF60
  3
*A56
350
7EE4D
  3
*A57
350
121D8
  3
*A58
350
873FB
  3
*A59
350
4AF80
  3
*A6
350
4AF4D
  3
*A60
350
8B139
  3
*A61
350
1BD90
  3
*A62
350
8EB08
  3
*A63
350
92115
  3
*A64
350
B399
  3
*A65
350
4AF77
  3
*A66
350
B3AA
  3
*A67
350
ADECE
  3
*A68
350
ADECB
  3
*A69
350
9C5FC
  3
*A7
350
4AF86
  3
*A70
350
9C5FD
  3
*A71
350
9C5FE
  3
*A72
350
9C5FA
  3
*A73
350
4AF7A
  3
*A74
350
B3AB
  3
*A75
350
9C60F
  3
*A76
350
1CC99
  3
*A77
350
B3B2
  3
*A78
350
9C5FF
  3
*A79
350
4F31B
  3
*A8
350
4AF87
  3
*A80
350
9C600
  3
*A81
350
9C601
  3
*A82
350
ADECF
  3
*A83
350
9C602
  3
*A84
350
9C614
  3
*A85
350
4AF95
  3
*A86
350
9C603
  3
*A87
350
9C617
  3
*A88
350
9C604
  3
*A89
350
D503
  3
*A9
350
4AF88
  3
*A90
350
ADEB4
  3
*A91
350
9C605
  3
*A92
350
9C606
  3
*A93
350
B389
  3
*A94
350
9C607
  3
*A95
350
4AF53
  3
*A96
350
B393
  3
*A97
350
9C618
  3
*A98
350
4AF96
  3
*A99
350
4AF5C
  0
DICTIONARY
  5
1A
102
{ACAD_REACTORS
330
C
102
}
330
C
100
AcDbDictionary
281
     1
  3
Layout1
350
1E
  3
Layout2
350
26
  3
Model
350
22
  0
DICTIONARY
  5
376C
102
{ACAD_REACTORS
330
C
102
}
330
C
100
AcDbDictionary
281
     1
  3
ByBlock
350
BDF3A
  3
ByLayer
350
BDF39
  3
Global
350
BDF3B
  0
DICTIONARY
  5
BE695
102
{ACAD_REACTORS
330
C
102
}
330
C
100
AcDbDictionary
281
     1
  3
Standard
350
BE696
  0
DICTIONARY
  5
17
102
{ACAD_REACTORS
330
C
102
}
330
C
100
AcDbDictionary
281
     1
  3
Standard
350
18
  0
DICTIONARY
  5
19
102
{ACAD_REACTORS
330
C
102
}
330
C
100
AcDbDictionary
281
     1
  0
ACDBDICTIONARYWDFLT
  5
E
102
{ACAD_REACTORS
330
C
102
}
330
C
100
AcDbDictionary
281
     1
  3
Normal
350
F
100
AcDbDictionaryWithDefault
340
F
  0
DICTIONARY
  5
BE683
102
{ACAD_REACTORS
330
C
102
}
330
C
100
AcDbDictionary
281
     1
  3
A0
350
BE684
  3
A1
350
BE685
  3
A2
350
BE686
  3
A3
350
BE687
  3
A4
350
BE688
  3
A5
350
BE689
  3
A6
350
BE68A
  3
A7
350
BE68B
  3
A8
350
BE68C
  3
A9
350
BE68D
  3
B0
350
BE68E
  3
B1
350
BE68F
  3
B2
350
BE690
  3
B3
350
BE691
  3
B4
350
BE692
  3
B5
350
BE693
  3
B6
350
BE694
  0
DICTIONARY
  5
376E
102
{ACAD_REACTORS
330
C
102
}
330
C
100
AcDbDictionary
281
     1
  3
Standard
350
376F
  0
DICTIONARY
  5
BDF3C
102
{ACAD_REACTORS
330
C
102
}
330
C
100
AcDbDictionary
281
     1
  3
2dWireframe
350
BDF42
  3
3D Hidden
350
BDF44
  3
3dWireframe
350
BDF43
  3
Basic
350
BDF41
  3
Brighten
350
BDF48
  3
ColorChange
350
BDF4C
  3
Conceptual
350
BDF45
  3
Dim
350
BDF47
  3
EdgeColorOff
350
BE682
  3
Facepattern
350
BDF4B
  3
Flat
350
BDF3D
  3
FlatWithEdges
350
BDF3E
  3
Gouraud
350
BDF3F
  3
GouraudWithEdges
350
BDF40
  3
JitterOff
350
BE680
  3
Linepattern
350
BDF4A
  3
OverhangOff
350
BE681
  3
Realistic
350
BDF46
  3
Thicken
350
BDF49
  0
XRECORD
  5
BE7BD
102
{ACAD_REACTORS
330
C
102
}
330
C
100
AcDbXrecord
280
     1
 90
        1
330
376F
330
BE6A4
  0
DICTIONARY
  5
3761
102
{ACAD_REACTORS
330
C
102
}
330
C
100
AcDbDictionary
281
     1
  3
CANNOSCALE
350
BE7AC
  3
CMLEADERSTYLE
350
BE7AA
  3
CTABLESTYLE
350
3835
  3
DIMASSOC
350
3762
  3
INDEXCTL
350
BE7B8
  3
LAYEREVAL
350
BE7AE
  3
LAYERNOTIFY
350
BE7AF
  3
LIGHTINGUNITS
350
BE7AD
  3
MSLTSCALE
350
BE7AB
  3
SORTENTS
350
BE7B7
  3
XCLIPFRAME
350
BE7B9
  0
XRECORD
  5
BE7BE
102
{ACAD_REACTORS
330
C
102
}
330
C
100
AcDbXrecord
280
     1
  1
DWGPROPS COOKIE
  2

  3

  4

  6

  7

  8
nowak
  9

300
=
301
=
302
=
303
=
304
=
305
=
306
=
307
=
308
=
309
=
 40
1.594143333333333
 41
2454179.456040035
 42
2455888.365758994
  1

 90
        0
  0
DICTIONARY
  5
49
102
{ACAD_REACTORS
330
C
102
}
330
C
100
AcDbDictionary
281
     1
  3
*A1
350
B0C1A
  3
*A10
350
B9C87
  3
*A2
350
B0C1B
  3
*A3
350
B0C1C
  3
*A4
350
B162F
  3
*A5
350
B1630
  3
*A6
350
B5331
  3
*A7
350
B1631
  3
*A8
350
B9C88
  3
*A9
350
B9C86
  0
DICTIONARY
  5
4A
102
{ACAD_REACTORS
330
C
102
}
330
C
100
AcDbDictionary
281
     1
  3
$PH$AALCSchriftfeld-Grund-Bearb
350
BE716
  3
$PH$AALE2H
350
BE732
  3
PH_GRPMEMBERS
350
FF58
  0
PH_VARS
  5
4B
102
{ACAD_REACTORS
330
C
102
}
330
C
  0
DICTIONARY
  5
BE5CC
102
{ACAD_REACTORS
330
378B
102
}
330
378B
100
AcDbDictionary
281
     1
  0
DICTIONARY
  5
378C
102
{ACAD_REACTORS
330
378B
102
}
330
378B
100
AcDbDictionary
281
     1
  0
DICTIONARY
  5
BE5CB
102
{ACAD_REACTORS
330
378B
102
}
330
378B
100
AcDbDictionary
281
     1
1001
ACAD
1000
<All
  0
XRECORD
  5
BE735
102
{ACAD_REACTORS
330
BE734
102
}
330
BE734
100
AcDbXrecord
280
     1
290
     1
  0
XRECORD
  5
BE737
102
{ACAD_REACTORS
330
BE736
102
}
330
BE736
100
AcDbXrecord
280
     1
290
     1
  0
XRECORD
  5
BE739
102
{ACAD_REACTORS
330
BE738
102
}
330
BE738
100
AcDbXrecord
280
     1
290
     1
  0
SORTENTSTABLE
  5
839E
102
{ACAD_REACTORS
330
839D
102
}
330
839D
100
AcDbSortentsTable
330
1F
331
AF6D6
  5
AF6D7
331
AF6D2
  5
AF6D3
331
AF658
  5
AF658
331
AF697
  5
AF698
331
AF654
  5
AF654
331
AF78D
  5
AF78E
331
AF6CE
  5
AF6CF
331
AF693
  5
AF694
331
AF789
  5
AF78A
331
AF6CA
  5
AF6CB
331
AF650
  5
AF650
331
AF61C
  5
AF61C
331
AF618
  5
AF618
331
AF7CC
  5
AF7CD
331
AF7C8
  5
AF7C9
331
AF7C4
  5
AF7C5
331
AF7C0
  5
AF7C1
331
AF68F
  5
AF690
331
AF68B
  5
AF68C
331
AF64C
  5
AF64C
331
AF6C6
  5
AF6C7
331
AF785
  5
AF786
331
AF6C2
  5
AF6C3
331
AF781
  5
AF782
331
AF648
  5
AF648
331
AF687
  5
AF688
331
AF644
  5
AF644
331
AF77D
  5
AF77E
331
AF6BE
  5
AF6BF
331
AF683
  5
AF684
331
AF614
  5
AF614
331
AF6BA
  5
AF6BB
331
AF779
  5
AF77A
331
AF640
  5
AF640
331
AF610
  5
AF610
331
AF60C
  5
AF60C
331
AF608
  5
AF608
331
AF7BC
  5
AF7BD
331
AF7B8
  5
AF7B9
331
AF7B4
  5
AF7B5
331
AF7B0
  5
AF7B1
331
AF67F
  5
AF680
331
AF63C
  5
AF63C
331
AF6B6
  5
AF6B7
331
AF775
  5
AF776
331
AF67B
  5
AF67C
331
AF677
  5
AF678
331
AF6B2
  5
AF6B3
331
AF638
  5
AF638
331
AF634
  5
AF634
331
AF6AE
  5
AF6AF
331
AF673
  5
AF673
331
AF6E9
  5
AF6EA
331
AF604
  5
AF604
331
AF6AA
  5
AF6AB
331
AF630
  5
AF630
331
AF5FC
  5
AF5FC
331
AF5F8
  5
AF5F8
331
AF7AC
  5
AF7AD
331
AF7A8
  5
AF7A9
331
AF7A4
  5
AF7A5
331
AF7A0
  5
AF7A1
331
AF66F
  5
AF66F
331
AF62C
  5
AF62C
331
AF6A6
  5
AF6A7
331
AF6E5
  5
AF6E6
331
AF66B
  5
AF66B
331
AF667
  5
AF667
331
AF6A2
  5
AF6A3
331
AF6E1
  5
AF6E2
331
AF628
  5
AF628
331
AF624
  5
AF624
331
AF69E
  5
AF69F
331
AF6DD
  5
AF6DE
331
AF663
  5
AF663
331
AF6D9
  5
AF6DA
331
AF69A
  5
AF69B
331
AF620
  5
AF620
331
AF5F0
  5
AF5F0
331
AF79C
  5
AF79D
331
AF7DB
  5
AF7DC
331
AF7D7
  5
AF7D8
331
AF798
  5
AF799
331
AF794
  5
AF795
331
AF7D3
  5
AF7D4
331
AF790
  5
AF791
331
AF65F
  5
AF65F
331
AF65B
  5
AF65B
331
AF6D5
  5
AF6D6
331
AF6D1
  5
AF6D2
331
AF657
  5
AF657
331
AF696
  5
AF697
331
AF692
  5
AF693
331
AF653
  5
AF653
331
AF78C
  5
AF78D
331
AF6CD
  5
AF6CE
331
AF788
  5
AF789
331
AF6C9
  5
AF6CA
331
AF61F
  5
AF61F
331
AF61B
  5
AF61B
331
AF7CF
  5
AF7D0
331
AF7CB
  5
AF7CC
331
AF7C7
  5
AF7C8
331
AF7C3
  5
AF7C4
331
AF64F
  5
AF64F
331
AF68E
  5
AF68F
331
AF68A
  5
AF68B
331
AF64B
  5
AF64B
331
AF6C5
  5
AF6C6
331
AF784
  5
AF785
331
AF6C1
  5
AF6C2
331
AF780
  5
AF781
331
AF647
  5
AF647
331
AF686
  5
AF687
331
AF643
  5
AF643
331
AF77C
  5
AF77D
331
AF617
  5
AF617
331
AF6BD
  5
AF6BE
331
AF682
  5
AF683
331
AF613
  5
AF613
331
AF6B9
  5
AF6BA
331
AF778
  5
AF779
331
AF60F
  5
AF60F
331
AF60B
  5
AF60B
331
AF7BF
  5
AF7C0
331
AF7BB
  5
AF7BC
331
AF7B7
  5
AF7B8
331
AF7B3
  5
AF7B4
331
AF63F
  5
AF63F
331
AF67E
  5
AF67F
331
AF63B
  5
AF63B
331
AF6B5
  5
AF6B6
331
AF774
  5
AF775
331
AF67A
  5
AF67B
331
AF6B1
  5
AF6B2
331
AF637
  5
AF637
331
AF676
  5
AF677
331
AF633
  5
AF633
331
AF607
  5
AF607
331
AF6AD
  5
AF6AE
331
AF672
  5
AF672
331
AF603
  5
AF603
331
AF6A9
  5
AF6AA
331
AF6E8
  5
AF6E9
331
AF5FF
  5
AF5FF
331
AF5FB
  5
AF5FB
331
AF7AF
  5
AF7B0
331
AF7AB
  5
AF7AC
331
AF7A7
  5
AF7A8
331
AF7A3
  5
AF7A4
331
AF62F
  5
AF62F
331
AF66E
  5
AF66E
331
AF62B
  5
AF62B
331
AF6A5
  5
AF6A6
331
AF6E4
  5
AF6E5
331
AF66A
  5
AF66A
331
AF6A1
  5
AF6A2
331
AF6E0
  5
AF6E1
331
AF627
  5
AF627
331
AF666
  5
AF666
331
AF623
  5
AF623
331
AF69D
  5
AF69E
331
AF6DC
  5
AF6DD
331
AF662
  5
AF662
331
AF699
  5
AF69A
331
AF6D8
  5
AF6D9
331
AF79F
  5
AF7A0
331
AF79B
  5
AF79C
331
AF7DA
  5
AF7DB
331
AF7D6
  5
AF7D7
331
AF797
  5
AF798
331
AF793
  5
AF794
331
AF7D2
  5
AF7D3
331
B5341
  5
AF676
331
AF65E
  5
AF65E
331
AF65A
  5
AF65A
331
AF6D4
  5
AF6D5
331
AF6D0
  5
AF6D1
331
AF78F
  5
AF790
331
AF656
  5
AF656
331
AF695
  5
AF696
331
AF652
  5
AF652
331
AF78B
  5
AF78C
331
AF6CC
  5
AF6CD
331
AF691
  5
AF692
331
AF6C8
  5
AF6C9
331
AF61E
  5
AF61E
331
AF61A
  5
AF61A
331
AF7CE
  5
AF7CF
331
AF7CA
  5
AF7CB
331
AF7C6
  5
AF7C7
331
B0C41
  5
B1853
331
AF7C2
  5
AF7C3
331
AF787
  5
AF788
331
AF64E
  5
AF64E
331
AF68D
  5
AF68E
331
AF689
  5
AF68A
331
AF64A
  5
AF64A
331
AF6C4
  5
AF6C5
331
AF783
  5
AF784
331
AF6C0
  5
AF6C1
331
AF77F
  5
AF780
331
AF646
  5
AF646
331
AF685
  5
AF686
331
AF681
  5
AF682
331
AF642
  5
AF642
331
AF6BC
  5
AF6BD
331
AF77B
  5
AF77C
331
AF616
  5
AF616
331
AF6B8
  5
AF6B9
331
AF612
  5
AF612
331
AF60E
  5
AF60E
331
AF60A
  5
AF60A
331
AF7BE
  5
AF7BF
331
AF7BA
  5
AF7BB
331
AF7B6
  5
AF7B7
331
AF7B2
  5
AF7B3
331
AF777
  5
AF778
331
AF63E
  5
AF63E
331
AF67D
  5
AF67E
331
AF63A
  5
AF63A
331
AF773
  5
AF774
331
AF6B4
  5
AF6B5
331
AF679
  5
AF67A
331
AF6B0
  5
AF6B1
331
AF636
  5
AF636
331
AF675
  5
AF675
331
AF632
  5
AF632
331
AF6AC
  5
AF6AD
331
AF671
  5
AF671
331
AF606
  5
AF606
331
AF6A8
  5
AF6A9
331
AF5FE
  5
AF5FE
331
AF5FA
  5
AF5FA
331
AF7AE
  5
AF7AF
331
AF7AA
  5
AF7AB
331
AF7A6
  5
AF7A7
331
AF7A2
  5
AF7A3
331
AF6E7
  5
AF6E8
331
AF62E
  5
AF62E
331
AF66D
  5
AF66D
331
AF62A
  5
AF62A
331
AF6E3
  5
AF6E4
331
AF6A4
  5
AF6A5
331
AF669
  5
AF669
331
AF6A0
  5
AF6A1
331
AF6DF
  5
AF6E0
331
AF626
  5
AF626
331
AF665
  5
AF665
331
AF622
  5
AF622
331
AF69C
  5
AF69D
331
AF6DB
  5
AF6DC
331
AF661
  5
AF661
331
AF5F6
  5
AF5F6
331
AF698
  5
AF699
331
AF79E
  5
AF79F
331
AF7DD
  5
AF7E0
331
AF79A
  5
AF79B
331
AF7D9
  5
AF7DA
331
AF796
  5
AF797
331
AF7D5
  5
AF7D6
331
AF792
  5
AF793
331
AF7D1
  5
AF7D2
331
AF6D7
  5
AF6D8
331
AF65D
  5
AF65D
331
AF659
  5
AF659
331
AF6D3
  5
AF6D4
331
AF6CF
  5
AF6D0
331
AF78E
  5
AF78F
331
AF655
  5
AF655
331
AF694
  5
AF695
331
AF651
  5
AF651
331
AF78A
  5
AF78B
331
AF6CB
  5
AF6CC
331
AF690
  5
AF691
331
AF61D
  5
AF61D
331
AF619
  5
AF619
331
AF7CD
  5
AF7CE
331
AF7C9
  5
AF7CA
331
AF7C5
  5
AF7C6
331
AF7C1
  5
AF7C2
331
AF6C7
  5
AF6C8
331
AF786
  5
AF787
331
AF64D
  5
AF64D
331
AF68C
  5
AF68D
331
AF649
  5
AF649
331
AF6C3
  5
AF6C4
331
AF782
  5
AF783
331
AF688
  5
AF689
331
AF6BF
  5
AF6C0
331
AF77E
  5
AF77F
331
AF645
  5
AF645
331
AF684
  5
AF685
331
AF680
  5
AF681
331
AF641
  5
AF641
331
AF615
  5
AF615
331
AF6BB
  5
AF6BC
331
AF77A
  5
AF77B
331
AF611
  5
AF611
331
AF60D
  5
AF60D
331
AF609
  5
AF609
331
AF7BD
  5
AF7BE
331
AF7B9
  5
AF7BA
331
AF7B5
  5
AF7B6
331
AF7B1
  5
AF7B2
331
AF6B7
  5
AF6B8
331
AF776
  5
AF777
331
AF63D
  5
AF63D
331
AF67C
  5
AF67D
331
AF678
  5
AF679
331
AF639
  5
AF639
331
AF6B3
  5
AF6B4
331
AF6AF
  5
AF6B0
331
AF635
  5
AF635
331
AF674
  5
AF674
331
AF631
  5
AF631
331
AF605
  5
AF605
331
AF6AB
  5
AF6AC
331
AF670
  5
AF670
331
AF5FD
  5
AF5FD
331
AF5F9
  5
AF5F9
331
AF7AD
  5
AF7AE
331
AF9E0
  5
B0C41
331
AF7A9
  5
AF7AA
331
AF7A5
  5
AF7A6
331
AF7A1
  5
AF7A2
331
AF6A7
  5
AF6A8
331
AF6E6
  5
AF6E7
331
AF62D
  5
AF62D
331
AF66C
  5
AF66C
331
AF668
  5
AF668
331
AF629
  5
AF629
331
AF6E2
  5
AF6E3
331
AF6A3
  5
AF6A4
331
AF69F
  5
AF6A0
331
AF6DE
  5
AF6DF
331
AF625
  5
AF625
331
AF664
  5
AF664
331
AF621
  5
AF621
331
AF6DA
  5
AF6DB
331
AF69B
  5
AF69C
331
AF660
  5
AF660
331
AF79D
  5
AF79E
331
AF7DC
  5
AF7DD
331
AF799
  5
AF79A
331
AF7D8
  5
AF7D9
331
AF795
  5
AF796
331
AF7D4
  5
AF7D5
331
AF791
  5
AF792
331
AF7D0
  5
AF7D1
  0
XRECORD
  5
BE7BC
102
{ACAD_REACTORS
330
BE7BB
102
}
330
BE7BB
100
AcDbXrecord
280
     1
 40
46997.0
  1
\pxql;{\fArial|b1|i0|c0|p34;\W1.1;BOPLA}
  0
GROUP
  5
9D8
102
{ACAD_REACTORS
330
D
102
}
330
D
100
AcDbGroup
300

 70
     0
 71
     0
  0
GROUP
  5
4AF89
102
{ACAD_REACTORS
330
D
102
}
330
D
100
AcDbGroup
300

 70
     0
 71
     0
  0
GROUP
  5
9C619
102
{ACAD_REACTORS
330
D
102
}
330
D
100
AcDbGroup
300

 70
     0
 71
     0
  0
GROUP
  5
ADED8
102
{ACAD_REACTORS
330
D
102
}
330
D
100
AcDbGroup
300

 70
     0
 71
     0
  0
GROUP
  5
4AF7E
102
{ACAD_REACTORS
330
D
102
}
330
D
100
AcDbGroup
300

 70
     0
 71
     0
  0
GROUP
  5
B39A
102
{ACAD_REACTORS
330
D
102
}
330
D
100
AcDbGroup
300

 70
     0
 71
     0
  0
GROUP
  5
9C61A
102
{ACAD_REACTORS
330
D
102
}
330
D
100
AcDbGroup
300

 70
     0
 71
     0
  0
GROUP
  5
9C61B
102
{ACAD_REACTORS
330
D
102
}
330
D
100
AcDbGroup
300

 70
     0
 71
     0
  0
GROUP
  5
9C61C
102
{ACAD_REACTORS
330
D
102
}
330
D
100
AcDbGroup
300

 70
     0
 71
     0
  0
GROUP
  5
B3AD
102
{ACAD_REACTORS
330
D
102
}
330
D
100
AcDbGroup
300

 70
     0
 71
     0
  0
GROUP
  5
2176B
102
{ACAD_REACTORS
330
D
102
}
330
D
100
AcDbGroup
300

 70
     0
 71
     0
  0
GROUP
  5
9C608
102
{ACAD_REACTORS
330
D
102
}
330
D
100
AcDbGroup
300

 70
     0
 71
     0
  0
GROUP
  5
B38F
102
{ACAD_REACTORS
330
D
102
}
330
D
100
AcDbGroup
300

 70
     0
 71
     0
  0
GROUP
  5
4AF79
102
{ACAD_REACTORS
330
D
102
}
330
D
100
AcDbGroup
300

 70
     0
 71
     0
  0
GROUP
  5
B383
102
{ACAD_REACTORS
330
D
102
}
330
D
100
AcDbGroup
300

 70
     0
 71
     0
  0
GROUP
  5
4AF64
102
{ACAD_REACTORS
330
D
102
}
330
D
100
AcDbGroup
300

 70
     0
 71
     0
  0
GROUP
  5
ADEB5
102
{ACAD_REACTORS
330
D
102
}
330
D
100
AcDbGroup
300

 70
     0
 71
     0
  0
GROUP
  5
9C61D
102
{ACAD_REACTORS
330
D
102
}
330
D
100
AcDbGroup
300

 70
     0
 71
     0
  0
GROUP
  5
B38B
102
{ACAD_REACTORS
330
D
102
}
330
D
100
AcDbGroup
300

 70
     0
 71
     0
  0
GROUP
  5
9C61E
102
{ACAD_REACTORS
330
D
102
}
330
D
100
AcDbGroup
300

 70
     0
 71
     0
  0
GROUP
  5
4AF54
102
{ACAD_REACTORS
330
D
102
}
330
D
100
AcDbGroup
300

 70
     0
 71
     0
  0
GROUP
  5
9C61F
102
{ACAD_REACTORS
330
D
102
}
330
D
100
AcDbGroup
300

 70
     0
 71
     0
  0
GROUP
  5
9C620
102
{ACAD_REACTORS
330
D
102
}
330
D
100
AcDbGroup
300

 70
     0
 71
     0
  0
GROUP
  5
4AF75
102
{ACAD_REACTORS
330
D
102
}
330
D
100
AcDbGroup
300

 70
     0
 71
     0
  0
GROUP
  5
B396
102
{ACAD_REACTORS
330
D
102
}
330
D
100
AcDbGroup
300

 70
     0
 71
     0
  0
GROUP
  5
9C621
102
{ACAD_REACTORS
330
D
102
}
330
D
100
AcDbGroup
300

 70
     0
 71
     0
  0
GROUP
  5
B3A8
102
{ACAD_REACTORS
330
D
102
}
330
D
100
AcDbGroup
300

 70
     0
 71
     0
  0
GROUP
  5
9C622
102
{ACAD_REACTORS
330
D
102
}
330
D
100
AcDbGroup
300

 70
     0
 71
     0
  0
GROUP
  5
ADEB6
102
{ACAD_REACTORS
330
D
102
}
330
D
100
AcDbGroup
300

 70
     0
 71
     0
  0
GROUP
  5
B37F
102
{ACAD_REACTORS
330
D
102
}
330
D
100
AcDbGroup
300

 70
     0
 71
     0
  0
GROUP
  5
B382
102
{ACAD_REACTORS
330
D
102
}
330
D
100
AcDbGroup
300

 70
     0
 71
     0
  0
GROUP
  5
ADED2
102
{ACAD_REACTORS
330
D
102
}
330
D
100
AcDbGroup
300

 70
     0
 71
     0
  0
GROUP
  5
ADED0
102
{ACAD_REACTORS
330
D
102
}
330
D
100
AcDbGroup
300

 70
     0
 71
     0
  0
GROUP
  5
9C623
102
{ACAD_REACTORS
330
D
102
}
330
D
100
AcDbGroup
300

 70
     0
 71
     0
  0
GROUP
  5
4AF59
102
{ACAD_REACTORS
330
D
102
}
330
D
100
AcDbGroup
300

 70
     0
 71
     0
  0
GROUP
  5
9C624
102
{ACAD_REACTORS
330
D
102
}
330
D
100
AcDbGroup
300

 70
     0
 71
     0
  0
GROUP
  5
9C625
102
{ACAD_REACTORS
330
D
102
}
330
D
100
AcDbGroup
300

 70
     0
 71
     0
  0
GROUP
  5
B38A
102
{ACAD_REACTORS
330
D
102
}
330
D
100
AcDbGroup
300

 70
     0
 71
     0
  0
GROUP
  5
9C626
102
{ACAD_REACTORS
330
D
102
}
330
D
100
AcDbGroup
300

 70
     0
 71
     0
  0
GROUP
  5
B3A7
102
{ACAD_REACTORS
330
D
102
}
330
D
100
AcDbGroup
300

 70
     0
 71
     0
  0
GROUP
  5
ADEB7
102
{ACAD_REACTORS
330
D
102
}
330
D
100
AcDbGroup
300

 70
     0
 71
     0
  0
GROUP
  5
B37D
102
{ACAD_REACTORS
330
D
102
}
330
D
100
AcDbGroup
300

 70
     0
 71
     0
  0
GROUP
  5
B38E
102
{ACAD_REACTORS
330
D
102
}
330
D
100
AcDbGroup
300

 70
     0
 71
     0
  0
GROUP
  5
9C627
102
{ACAD_REACTORS
330
D
102
}
330
D
100
AcDbGroup
300

 70
     0
 71
     0
  0
GROUP
  5
9F636
102
{ACAD_REACTORS
330
D
102
}
330
D
100
AcDbGroup
300

 70
     0
 71
     0
  0
GROUP
  5
B3A5
102
{ACAD_REACTORS
330
D
102
}
330
D
100
AcDbGroup
300

 70
     0
 71
     0
  0
GROUP
  5
D64C
102
{ACAD_REACTORS
330
D
102
}
330
D
100
AcDbGroup
300

 70
     0
 71
     0
  0
GROUP
  5
B37B
102
{ACAD_REACTORS
330
D
102
}
330
D
100
AcDbGroup
300

 70
     0
 71
     0
  0
GROUP
  5
4AF56
102
{ACAD_REACTORS
330
D
102
}
330
D
100
AcDbGroup
300

 70
     0
 71
     0
  0
GROUP
  5
4AF55
102
{ACAD_REACTORS
330
D
102
}
330
D
100
AcDbGroup
300

 70
     0
 71
     0
  0
GROUP
  5
9C60A
102
{ACAD_REACTORS
330
D
102
}
330
D
100
AcDbGroup
300

 70
     0
 71
     0
  0
GROUP
  5
ADECC
102
{ACAD_REACTORS
330
D
102
}
330
D
100
AcDbGroup
300

 70
     0
 71
     0
  0
GROUP
  5
ADEB8
102
{ACAD_REACTORS
330
D
102
}
330
D
100
AcDbGroup
300

 70
     0
 71
     0
  0
GROUP
  5
B376
102
{ACAD_REACTORS
330
D
102
}
330
D
100
AcDbGroup
300

 70
     0
 71
     0
  0
GROUP
  5
B395
102
{ACAD_REACTORS
330
D
102
}
330
D
100
AcDbGroup
300

 70
     0
 71
     0
  0
GROUP
  5
B377
102
{ACAD_REACTORS
330
D
102
}
330
D
100
AcDbGroup
300

 70
     0
 71
     0
  0
GROUP
  5
ADEC9
102
{ACAD_REACTORS
330
D
102
}
330
D
100
AcDbGroup
300

 70
     0
 71
     0
  0
GROUP
  5
B391
102
{ACAD_REACTORS
330
D
102
}
330
D
100
AcDbGroup
300

 70
     0
 71
     0
  0
GROUP
  5
4AF6A
102
{ACAD_REACTORS
330
D
102
}
330
D
100
AcDbGroup
300

 70
     0
 71
     0
  0
GROUP
  5
B378
102
{ACAD_REACTORS
330
D
102
}
330
D
100
AcDbGroup
300

 70
     0
 71
     0
  0
GROUP
  5
ADED3
102
{ACAD_REACTORS
330
D
102
}
330
D
100
AcDbGroup
300

 70
     0
 71
     0
  0
GROUP
  5
B37E
102
{ACAD_REACTORS
330
D
102
}
330
D
100
AcDbGroup
300

 70
     0
 71
     0
  0
GROUP
  5
B3A3
102
{ACAD_REACTORS
330
D
102
}
330
D
100
AcDbGroup
300

 70
     0
 71
     0
  0
GROUP
  5
116D0
102
{ACAD_REACTORS
330
D
102
}
330
D
100
AcDbGroup
300

 70
     0
 71
     0
  0
GROUP
  5
9C609
102
{ACAD_REACTORS
330
D
102
}
330
D
100
AcDbGroup
300

 70
     0
 71
     0
  0
GROUP
  5
4AF7F
102
{ACAD_REACTORS
330
D
102
}
330
D
100
AcDbGroup
300

 70
     0
 71
     0
  0
GROUP
  5
B3AC
102
{ACAD_REACTORS
330
D
102
}
330
D
100
AcDbGroup
300

 70
     0
 71
     0
  0
GROUP
  5
4AF97
102
{ACAD_REACTORS
330
D
102
}
330
D
100
AcDbGroup
300

 70
     0
 71
     0
  0
GROUP
  5
4AF66
102
{ACAD_REACTORS
330
D
102
}
330
D
100
AcDbGroup
300

 70
     0
 71
     0
  0
GROUP
  5
42454
102
{ACAD_REACTORS
330
D
102
}
330
D
100
AcDbGroup
300

 70
     0
 71
     0
  0
GROUP
  5
B372
102
{ACAD_REACTORS
330
D
102
}
330
D
100
AcDbGroup
300

 70
     0
 71
     0
  0
GROUP
  5
B380
102
{ACAD_REACTORS
330
D
102
}
330
D
100
AcDbGroup
300

 70
     0
 71
     0
  0
GROUP
  5
9C60D
102
{ACAD_REACTORS
330
D
102
}
330
D
100
AcDbGroup
300

 70
     0
 71
     0
  0
GROUP
  5
4AF81
102
{ACAD_REACTORS
330
D
102
}
330
D
100
AcDbGroup
300

 70
     0
 71
     0
  0
GROUP
  5
4AF51
102
{ACAD_REACTORS
330
D
102
}
330
D
100
AcDbGroup
300

 70
     0
 71
     0
  0
GROUP
  5
ADED4
102
{ACAD_REACTORS
330
D
102
}
330
D
100
AcDbGroup
300

 70
     0
 71
     0
  0
GROUP
  5
ADEB9
102
{ACAD_REACTORS
330
D
102
}
330
D
100
AcDbGroup
300

 70
     0
 71
     0
  0
GROUP
  5
B379
102
{ACAD_REACTORS
330
D
102
}
330
D
100
AcDbGroup
300

 70
     0
 71
     0
  0
GROUP
  5
B3B0
102
{ACAD_REACTORS
330
D
102
}
330
D
100
AcDbGroup
300

 70
     0
 71
     0
  0
GROUP
  5
B387
102
{ACAD_REACTORS
330
D
102
}
330
D
100
AcDbGroup
300

 70
     0
 71
     0
  0
GROUP
  5
B37A
102
{ACAD_REACTORS
330
D
102
}
330
D
100
AcDbGroup
300

 70
     0
 71
     0
  0
GROUP
  5
4AF4F
102
{ACAD_REACTORS
330
D
102
}
330
D
100
AcDbGroup
300

 70
     0
 71
     0
  0
GROUP
  5
B38D
102
{ACAD_REACTORS
330
D
102
}
330
D
100
AcDbGroup
300

 70
     0
 71
     0
  0
GROUP
  5
4AF68
102
{ACAD_REACTORS
330
D
102
}
330
D
100
AcDbGroup
300

 70
     0
 71
     0
  0
GROUP
  5
A6F29
102
{ACAD_REACTORS
330
D
102
}
330
D
100
AcDbGroup
300

 70
     0
 71
     0
  0
GROUP
  5
4AF48
102
{ACAD_REACTORS
330
D
102
}
330
D
100
AcDbGroup
300

 70
     0
 71
     0
  0
GROUP
  5
4AF57
102
{ACAD_REACTORS
330
D
102
}
330
D
100
AcDbGroup
300

 70
     0
 71
     0
  0
GROUP
  5
4AF49
102
{ACAD_REACTORS
330
D
102
}
330
D
100
AcDbGroup
300

 70
     0
 71
     0
  0
GROUP
  5
ADEBA
102
{ACAD_REACTORS
330
D
102
}
330
D
100
AcDbGroup
300

 70
     0
 71
     0
  0
GROUP
  5
4AF8A
102
{ACAD_REACTORS
330
D
102
}
330
D
100
AcDbGroup
300

 70
     0
 71
     0
  0
GROUP
  5
4AF4A
102
{ACAD_REACTORS
330
D
102
}
330
D
100
AcDbGroup
300

 70
     0
 71
     0
  0
GROUP
  5
4AF4B
102
{ACAD_REACTORS
330
D
102
}
330
D
100
AcDbGroup
300

 70
     0
 71
     0
  0
GROUP
  5
16ADC
102
{ACAD_REACTORS
330
D
102
}
330
D
100
AcDbGroup
300

 70
     0
 71
     0
  0
GROUP
  5
4AF4C
102
{ACAD_REACTORS
330
D
102
}
330
D
100
AcDbGroup
300

 70
     0
 71
     0
  0
GROUP
  5
B39D
102
{ACAD_REACTORS
330
D
102
}
330
D
100
AcDbGroup
300

 70
     0
 71
     0
  0
GROUP
  5
4AF61
102
{ACAD_REACTORS
330
D
102
}
330
D
100
AcDbGroup
300

 70
     0
 71
     0
  0
GROUP
  5
ADE99
102
{ACAD_REACTORS
330
D
102
}
330
D
100
AcDbGroup
300

 70
     0
 71
     0
  0
GROUP
  5
A7B11
102
{ACAD_REACTORS
330
D
102
}
330
D
100
AcDbGroup
300

 70
     0
 71
     0
  0
GROUP
  5
ADE9A
102
{ACAD_REACTORS
330
D
102
}
330
D
100
AcDbGroup
300

 70
     0
 71
     0
  0
GROUP
  5
ADE9B
102
{ACAD_REACTORS
330
D
102
}
330
D
100
AcDbGroup
300

 70
     0
 71
     0
  0
GROUP
  5
7A9A3
102
{ACAD_REACTORS
330
D
102
}
330
D
100
AcDbGroup
300

 70
     0
 71
     0
  0
GROUP
  5
ADEBB
102
{ACAD_REACTORS
330
D
102
}
330
D
100
AcDbGroup
300

 70
     0
 71
     0
  0
GROUP
  5
11819
102
{ACAD_REACTORS
330
D
102
}
330
D
100
AcDbGroup
300

 70
     0
 71
     0
  0
GROUP
  5
ADE9C
102
{ACAD_REACTORS
330
D
102
}
330
D
100
AcDbGroup
300

 70
     0
 71
     0
  0
GROUP
  5
ADE9D
102
{ACAD_REACTORS
330
D
102
}
330
D
100
AcDbGroup
300

 70
     0
 71
     0
  0
GROUP
  5
ADE9E
102
{ACAD_REACTORS
330
D
102
}
330
D
100
AcDbGroup
300

 70
     0
 71
     0
  0
GROUP
  5
4AF58
102
{ACAD_REACTORS
330
D
102
}
330
D
100
AcDbGroup
300

 70
     0
 71
     0
  0
GROUP
  5
ADED5
102
{ACAD_REACTORS
330
D
102
}
330
D
100
AcDbGroup
300

 70
     0
 71
     0
  0
GROUP
  5
ADE9F
102
{ACAD_REACTORS
330
D
102
}
330
D
100
AcDbGroup
300

 70
     0
 71
     0
  0
GROUP
  5
9C60C
102
{ACAD_REACTORS
330
D
102
}
330
D
100
AcDbGroup
300

 70
     0
 71
     0
  0
GROUP
  5
4AF7D
102
{ACAD_REACTORS
330
D
102
}
330
D
100
AcDbGroup
300

 70
     0
 71
     0
  0
GROUP
  5
ADEB2
102
{ACAD_REACTORS
330
D
102
}
330
D
100
AcDbGroup
300

 70
     0
 71
     0
  0
GROUP
  5
4AF8B
102
{ACAD_REACTORS
330
D
102
}
330
D
100
AcDbGroup
300

 70
     0
 71
     0
  0
GROUP
  5
ADEA0
102
{ACAD_REACTORS
330
D
102
}
330
D
100
AcDbGroup
300

 70
     0
 71
     0
  0
GROUP
  5
ADEBC
102
{ACAD_REACTORS
330
D
102
}
330
D
100
AcDbGroup
300

 70
     0
 71
     0
  0
GROUP
  5
ADEA1
102
{ACAD_REACTORS
330
D
102
}
330
D
100
AcDbGroup
300

 70
     0
 71
     0
  0
GROUP
  5
B39E
102
{ACAD_REACTORS
330
D
102
}
330
D
100
AcDbGroup
300

 70
     0
 71
     0
  0
GROUP
  5
ADEA2
102
{ACAD_REACTORS
330
D
102
}
330
D
100
AcDbGroup
300

 70
     0
 71
     0
  0
GROUP
  5
ADEA3
102
{ACAD_REACTORS
330
D
102
}
330
D
100
AcDbGroup
300

 70
     0
 71
     0
  0
GROUP
  5
9C60B
102
{ACAD_REACTORS
330
D
102
}
330
D
100
AcDbGroup
300

 70
     0
 71
     0
  0
GROUP
  5
ADEA4
102
{ACAD_REACTORS
330
D
102
}
330
D
100
AcDbGroup
300

 70
     0
 71
     0
  0
GROUP
  5
ADEA5
102
{ACAD_REACTORS
330
D
102
}
330
D
100
AcDbGroup
300

 70
     0
 71
     0
  0
GROUP
  5
ADEA6
102
{ACAD_REACTORS
330
D
102
}
330
D
100
AcDbGroup
300

 70
     0
 71
     0
  0
GROUP
  5
9C612
102
{ACAD_REACTORS
330
D
102
}
330
D
100
AcDbGroup
300

 70
     0
 71
     0
  0
GROUP
  5
ADED6
102
{ACAD_REACTORS
330
D
102
}
330
D
100
AcDbGroup
300

 70
     0
 71
     0
  0
GROUP
  5
B3AE
102
{ACAD_REACTORS
330
D
102
}
330
D
100
AcDbGroup
300

 70
     0
 71
     0
  0
GROUP
  5
4F747
102
{ACAD_REACTORS
330
D
102
}
330
D
100
AcDbGroup
300

 70
     0
 71
     0
  0
GROUP
  5
4CF63
102
{ACAD_REACTORS
330
D
102
}
330
D
100
AcDbGroup
300

 70
     0
 71
     0
  0
GROUP
  5
ADEA7
102
{ACAD_REACTORS
330
D
102
}
330
D
100
AcDbGroup
300

 70
     0
 71
     0
  0
GROUP
  5
ADEA8
102
{ACAD_REACTORS
330
D
102
}
330
D
100
AcDbGroup
300

 70
     0
 71
     0
  0
GROUP
  5
9C610
102
{ACAD_REACTORS
330
D
102
}
330
D
100
AcDbGroup
300

 70
     0
 71
     0
  0
GROUP
  5
ADEA9
102
{ACAD_REACTORS
330
D
102
}
330
D
100
AcDbGroup
300

 70
     0
 71
     0
  0
GROUP
  5
ADEAA
102
{ACAD_REACTORS
330
D
102
}
330
D
100
AcDbGroup
300

 70
     0
 71
     0
  0
GROUP
  5
4AF7B
102
{ACAD_REACTORS
330
D
102
}
330
D
100
AcDbGroup
300

 70
     0
 71
     0
  0
GROUP
  5
4AF8C
102
{ACAD_REACTORS
330
D
102
}
330
D
100
AcDbGroup
300

 70
     0
 71
     0
  0
GROUP
  5
ADEAB
102
{ACAD_REACTORS
330
D
102
}
330
D
100
AcDbGroup
300

 70
     0
 71
     0
  0
GROUP
  5
B385
102
{ACAD_REACTORS
330
D
102
}
330
D
100
AcDbGroup
300

 70
     0
 71
     0
  0
GROUP
  5
ADEAC
102
{ACAD_REACTORS
330
D
102
}
330
D
100
AcDbGroup
300

 70
     0
 71
     0
  0
GROUP
  5
ADEAD
102
{ACAD_REACTORS
330
D
102
}
330
D
100
AcDbGroup
300

 70
     0
 71
     0
  0
GROUP
  5
4AF5A
102
{ACAD_REACTORS
330
D
102
}
330
D
100
AcDbGroup
300

 70
     0
 71
     0
  0
GROUP
  5
15181
102
{ACAD_REACTORS
330
D
102
}
330
D
100
AcDbGroup
300

 70
     0
 71
     0
  0
GROUP
  5
B3A0
102
{ACAD_REACTORS
330
D
102
}
330
D
100
AcDbGroup
300

 70
     0
 71
     0
  0
GROUP
  5
B39F
102
{ACAD_REACTORS
330
D
102
}
330
D
100
AcDbGroup
300

 70
     0
 71
     0
  0
GROUP
  5
ADEBD
102
{ACAD_REACTORS
330
D
102
}
330
D
100
AcDbGroup
300

 70
     0
 71
     0
  0
GROUP
  5
4AF5F
102
{ACAD_REACTORS
330
D
102
}
330
D
100
AcDbGroup
300

 70
     0
 71
     0
  0
GROUP
  5
B397
102
{ACAD_REACTORS
330
D
102
}
330
D
100
AcDbGroup
300

 70
     0
 71
     0
  0
GROUP
  5
ADEBE
102
{ACAD_REACTORS
330
D
102
}
330
D
100
AcDbGroup
300

 70
     0
 71
     0
  0
GROUP
  5
ADEBF
102
{ACAD_REACTORS
330
D
102
}
330
D
100
AcDbGroup
300

 70
     0
 71
     0
  0
GROUP
  5
ADEC0
102
{ACAD_REACTORS
330
D
102
}
330
D
100
AcDbGroup
300

 70
     0
 71
     0
  0
GROUP
  5
ADEC1
102
{ACAD_REACTORS
330
D
102
}
330
D
100
AcDbGroup
300

 70
     0
 71
     0
  0
GROUP
  5
9C5FB
102
{ACAD_REACTORS
330
D
102
}
330
D
100
AcDbGroup
300

 70
     0
 71
     0
  0
GROUP
  5
ADEC2
102
{ACAD_REACTORS
330
D
102
}
330
D
100
AcDbGroup
300

 70
     0
 71
     0
  0
GROUP
  5
547E3
102
{ACAD_REACTORS
330
D
102
}
330
D
100
AcDbGroup
300

 70
     0
 71
     0
  0
GROUP
  5
ADEC3
102
{ACAD_REACTORS
330
D
102
}
330
D
100
AcDbGroup
300

 70
     0
 71
     0
  0
GROUP
  5
ADEC4
102
{ACAD_REACTORS
330
D
102
}
330
D
100
AcDbGroup
300

 70
     0
 71
     0
  0
GROUP
  5
ADEC5
102
{ACAD_REACTORS
330
D
102
}
330
D
100
AcDbGroup
300

 70
     0
 71
     0
  0
GROUP
  5
ADEB3
102
{ACAD_REACTORS
330
D
102
}
330
D
100
AcDbGroup
300

 70
     0
 71
     0
  0
GROUP
  5
ADEC6
102
{ACAD_REACTORS
330
D
102
}
330
D
100
AcDbGroup
300

 70
     0
 71
     0
  0
GROUP
  5
B373
102
{ACAD_REACTORS
330
D
102
}
330
D
100
AcDbGroup
300

 70
     0
 71
     0
  0
GROUP
  5
ADED9
102
{ACAD_REACTORS
330
D
102
}
330
D
100
AcDbGroup
300

 70
     0
 71
     0
  0
GROUP
  5
ADEDA
102
{ACAD_REACTORS
330
D
102
}
330
D
100
AcDbGroup
300

 70
     0
 71
     0
  0
GROUP
  5
4AF83
102
{ACAD_REACTORS
330
D
102
}
330
D
100
AcDbGroup
300

 70
     0
 71
     0
  0
GROUP
  5
ADED7
102
{ACAD_REACTORS
330
D
102
}
330
D
100
AcDbGroup
300

 70
     0
 71
     0
  0
GROUP
  5
ADEDB
102
{ACAD_REACTORS
330
D
102
}
330
D
100
AcDbGroup
300

 70
     0
 71
     0
  0
GROUP
  5
ADEDC
102
{ACAD_REACTORS
330
D
102
}
330
D
100
AcDbGroup
300

 70
     0
 71
     0
  0
GROUP
  5
B39C
102
{ACAD_REACTORS
330
D
102
}
330
D
100
AcDbGroup
300

 70
     0
 71
     0
  0
GROUP
  5
54D1B
102
{ACAD_REACTORS
330
D
102
}
330
D
100
AcDbGroup
300

 70
     0
 71
     0
  0
GROUP
  5
B37C
102
{ACAD_REACTORS
330
D
102
}
330
D
100
AcDbGroup
300

 70
     0
 71
     0
  0
GROUP
  5
ADEDD
102
{ACAD_REACTORS
330
D
102
}
330
D
100
AcDbGroup
300

 70
     0
 71
     0
  0
GROUP
  5
ADEDE
102
{ACAD_REACTORS
330
D
102
}
330
D
100
AcDbGroup
300

 70
     0
 71
     0
  0
GROUP
  5
ADEDF
102
{ACAD_REACTORS
330
D
102
}
330
D
100
AcDbGroup
300

 70
     0
 71
     0
  0
GROUP
  5
B39B
102
{ACAD_REACTORS
330
D
102
}
330
D
100
AcDbGroup
300

 70
     0
 71
     0
  0
GROUP
  5
AF7E5
102
{ACAD_REACTORS
330
D
102
}
330
D
100
AcDbGroup
300

 70
     0
 71
     0
  0
GROUP
  5
B375
102
{ACAD_REACTORS
330
D
102
}
330
D
100
AcDbGroup
300

 70
     0
 71
     0
  0
GROUP
  5
ADEAE
102
{ACAD_REACTORS
330
D
102
}
330
D
100
AcDbGroup
300

 70
     0
 71
     0
  0
GROUP
  5
B1658
102
{ACAD_REACTORS
330
D
102
}
330
D
100
AcDbGroup
300

 70
     0
 71
     0
  0
GROUP
  5
25B3
102
{ACAD_REACTORS
330
D
102
}
330
D
100
AcDbGroup
300

 70
     0
 71
     0
  0
GROUP
  5
B4EEF
102
{ACAD_REACTORS
330
D
102
}
330
D
100
AcDbGroup
300

 70
     0
 71
     0
  0
GROUP
  5
4AF8D
102
{ACAD_REACTORS
330
D
102
}
330
D
100
AcDbGroup
300

 70
     0
 71
     0
  0
GROUP
  5
B9CD9
102
{ACAD_REACTORS
330
D
102
}
330
D
100
AcDbGroup
300

 70
     0
 71
     0
  0
GROUP
  5
B9DF2
102
{ACAD_REACTORS
330
D
102
}
330
D
100
AcDbGroup
300

 70
     0
 71
     0
  0
GROUP
  5
ADECD
102
{ACAD_REACTORS
330
D
102
}
330
D
100
AcDbGroup
300

 70
     0
 71
     0
  0
GROUP
  5
4AF67
102
{ACAD_REACTORS
330
D
102
}
330
D
100
AcDbGroup
300

 70
     0
 71
     0
  0
GROUP
  5
16BE6
102
{ACAD_REACTORS
330
D
102
}
330
D
100
AcDbGroup
300

 70
     0
 71
     0
  0
GROUP
  5
B38C
102
{ACAD_REACTORS
330
D
102
}
330
D
100
AcDbGroup
300

 70
     0
 71
     0
  0
GROUP
  5
B394
102
{ACAD_REACTORS
330
D
102
}
330
D
100
AcDbGroup
300

 70
     0
 71
     0
  0
GROUP
  5
ADEAF
102
{ACAD_REACTORS
330
D
102
}
330
D
100
AcDbGroup
300

 70
     0
 71
     0
  0
GROUP
  5
4AF6B
102
{ACAD_REACTORS
330
D
102
}
330
D
100
AcDbGroup
300

 70
     0
 71
     0
  0
GROUP
  5
4AF6C
102
{ACAD_REACTORS
330
D
102
}
330
D
100
AcDbGroup
300

 70
     0
 71
     0
  0
GROUP
  5
4AF63
102
{ACAD_REACTORS
330
D
102
}
330
D
100
AcDbGroup
300

 70
     0
 71
     0
  0
GROUP
  5
4AF69
102
{ACAD_REACTORS
330
D
102
}
330
D
100
AcDbGroup
300

 70
     0
 71
     0
  0
GROUP
  5
B3A6
102
{ACAD_REACTORS
330
D
102
}
330
D
100
AcDbGroup
300

 70
     0
 71
     0
  0
GROUP
  5
4AF6D
102
{ACAD_REACTORS
330
D
102
}
330
D
100
AcDbGroup
300

 70
     0
 71
     0
  0
GROUP
  5
4AF7C
102
{ACAD_REACTORS
330
D
102
}
330
D
100
AcDbGroup
300

 70
     0
 71
     0
  0
GROUP
  5
B374
102
{ACAD_REACTORS
330
D
102
}
330
D
100
AcDbGroup
300

 70
     0
 71
     0
  0
GROUP
  5
5C997
102
{ACAD_REACTORS
330
D
102
}
330
D
100
AcDbGroup
300

 70
     0
 71
     0
  0
GROUP
  5
4AF6E
102
{ACAD_REACTORS
330
D
102
}
330
D
100
AcDbGroup
300

 70
     0
 71
     0
  0
GROUP
  5
ADED1
102
{ACAD_REACTORS
330
D
102
}
330
D
100
AcDbGroup
300

 70
     0
 71
     0
  0
GROUP
  5
ADEB0
102
{ACAD_REACTORS
330
D
102
}
330
D
100
AcDbGroup
300

 70
     0
 71
     0
  0
GROUP
  5
B388
102
{ACAD_REACTORS
330
D
102
}
330
D
100
AcDbGroup
300

 70
     0
 71
     0
  0
GROUP
  5
4AF8E
102
{ACAD_REACTORS
330
D
102
}
330
D
100
AcDbGroup
300

 70
     0
 71
     0
  0
GROUP
  5
4AF6F
102
{ACAD_REACTORS
330
D
102
}
330
D
100
AcDbGroup
300

 70
     0
 71
     0
  0
GROUP
  5
B392
102
{ACAD_REACTORS
330
D
102
}
330
D
100
AcDbGroup
300

 70
     0
 71
     0
  0
GROUP
  5
4AF70
102
{ACAD_REACTORS
330
D
102
}
330
D
100
AcDbGroup
300

 70
     0
 71
     0
  0
GROUP
  5
4AF82
102
{ACAD_REACTORS
330
D
102
}
330
D
100
AcDbGroup
300

 70
     0
 71
     0
  0
GROUP
  5
ADEC7
102
{ACAD_REACTORS
330
D
102
}
330
D
100
AcDbGroup
300

 70
     0
 71
     0
  0
GROUP
  5
4AF71
102
{ACAD_REACTORS
330
D
102
}
330
D
100
AcDbGroup
300

 70
     0
 71
     0
  0
GROUP
  5
4AF84
102
{ACAD_REACTORS
330
D
102
}
330
D
100
AcDbGroup
300

 70
     0
 71
     0
  0
GROUP
  5
4AF72
102
{ACAD_REACTORS
330
D
102
}
330
D
100
AcDbGroup
300

 70
     0
 71
     0
  0
GROUP
  5
7805E
102
{ACAD_REACTORS
330
D
102
}
330
D
100
AcDbGroup
300

 70
     0
 71
     0
  0
GROUP
  5
ADEB1
102
{ACAD_REACTORS
330
D
102
}
330
D
100
AcDbGroup
300

 70
     0
 71
     0
  0
GROUP
  5
B384
102
{ACAD_REACTORS
330
D
102
}
330
D
100
AcDbGroup
300

 70
     0
 71
     0
  0
GROUP
  5
B3AF
102
{ACAD_REACTORS
330
D
102
}
330
D
100
AcDbGroup
300

 70
     0
 71
     0
  0
GROUP
  5
4AF73
102
{ACAD_REACTORS
330
D
102
}
330
D
100
AcDbGroup
300

 70
     0
 71
     0
  0
GROUP
  5
4AF5B
102
{ACAD_REACTORS
330
D
102
}
330
D
100
AcDbGroup
300

 70
     0
 71
     0
  0
GROUP
  5
4AF52
102
{ACAD_REACTORS
330
D
102
}
330
D
100
AcDbGroup
300

 70
     0
 71
     0
  0
GROUP
  5
4AF74
102
{ACAD_REACTORS
330
D
102
}
330
D
100
AcDbGroup
300

 70
     0
 71
     0
  0
GROUP
  5
9C611
102
{ACAD_REACTORS
330
D
102
}
330
D
100
AcDbGroup
300

 70
     0
 71
     0
  0
GROUP
  5
9C60E
102
{ACAD_REACTORS
330
D
102
}
330
D
100
AcDbGroup
300

 70
     0
 71
     0
  0
GROUP
  5
4AF85
102
{ACAD_REACTORS
330
D
102
}
330
D
100
AcDbGroup
300

 70
     0
 71
     0
  0
GROUP
  5
ADEC8
102
{ACAD_REACTORS
330
D
102
}
330
D
100
AcDbGroup
300

 70
     0
 71
     0
  0
GROUP
  5
B381
102
{ACAD_REACTORS
330
D
102
}
330
D
100
AcDbGroup
300

 70
     0
 71
     0
  0
GROUP
  5
4AF5D
102
{ACAD_REACTORS
330
D
102
}
330
D
100
AcDbGroup
300

 70
     0
 71
     0
  0
GROUP
  5
B3A1
102
{ACAD_REACTORS
330
D
102
}
330
D
100
AcDbGroup
300

 70
     0
 71
     0
  0
GROUP
  5
ADECA
102
{ACAD_REACTORS
330
D
102
}
330
D
100
AcDbGroup
300

 70
     0
 71
     0
  0
GROUP
  5
17714
102
{ACAD_REACTORS
330
D
102
}
330
D
100
AcDbGroup
300

 70
     0
 71
     0
  0
GROUP
  5
B3A4
102
{ACAD_REACTORS
330
D
102
}
330
D
100
AcDbGroup
300

 70
     0
 71
     0
  0
GROUP
  5
4AF5E
102
{ACAD_REACTORS
330
D
102
}
330
D
100
AcDbGroup
300

 70
     0
 71
     0
  0
GROUP
  5
B390
102
{ACAD_REACTORS
330
D
102
}
330
D
100
AcDbGroup
300

 70
     0
 71
     0
  0
GROUP
  5
4AF8F
102
{ACAD_REACTORS
330
D
102
}
330
D
100
AcDbGroup
300

 70
     0
 71
     0
  0
GROUP
  5
4AF90
102
{ACAD_REACTORS
330
D
102
}
330
D
100
AcDbGroup
300

 70
     0
 71
     0
  0
GROUP
  5
4AF76
102
{ACAD_REACTORS
330
D
102
}
330
D
100
AcDbGroup
300

 70
     0
 71
     0
  0
GROUP
  5
4AF91
102
{ACAD_REACTORS
330
D
102
}
330
D
100
AcDbGroup
300

 70
     0
 71
     0
  0
GROUP
  5
B386
102
{ACAD_REACTORS
330
D
102
}
330
D
100
AcDbGroup
300

 70
     0
 71
     0
  0
GROUP
  5
4AF62
102
{ACAD_REACTORS
330
D
102
}
330
D
100
AcDbGroup
300

 70
     0
 71
     0
  0
GROUP
  5
B3B1
102
{ACAD_REACTORS
330
D
102
}
330
D
100
AcDbGroup
300

 70
     0
 71
     0
  0
GROUP
  5
4AF92
102
{ACAD_REACTORS
330
D
102
}
330
D
100
AcDbGroup
300

 70
     0
 71
     0
  0
GROUP
  5
4AF4E
102
{ACAD_REACTORS
330
D
102
}
330
D
100
AcDbGroup
300

 70
     0
 71
     0
  0
GROUP
  5
4AF93
102
{ACAD_REACTORS
330
D
102
}
330
D
100
AcDbGroup
300

 70
     0
 71
     0
  0
GROUP
  5
4AF94
102
{ACAD_REACTORS
330
D
102
}
330
D
100
AcDbGroup
300

 70
     0
 71
     0
  0
GROUP
  5
9C615
102
{ACAD_REACTORS
330
D
102
}
330
D
100
AcDbGroup
300

 70
     0
 71
     0
  0
GROUP
  5
7B588
102
{ACAD_REACTORS
330
D
102
}
330
D
100
AcDbGroup
300

 70
     0
 71
     0
  0
GROUP
  5
4AF50
102
{ACAD_REACTORS
330
D
102
}
330
D
100
AcDbGroup
300

 70
     0
 71
     0
  0
GROUP
  5
9C616
102
{ACAD_REACTORS
330
D
102
}
330
D
100
AcDbGroup
300

 70
     0
 71
     0
  0
GROUP
  5
B3A9
102
{ACAD_REACTORS
330
D
102
}
330
D
100
AcDbGroup
300

 70
     0
 71
     0
  0
GROUP
  5
9C613
102
{ACAD_REACTORS
330
D
102
}
330
D
100
AcDbGroup
300

 70
     0
 71
     0
  0
GROUP
  5
4AF78
102
{ACAD_REACTORS
330
D
102
}
330
D
100
AcDbGroup
300

 70
     0
 71
     0
  0
GROUP
  5
4AF65
102
{ACAD_REACTORS
330
D
102
}
330
D
100
AcDbGroup
300

 70
     0
 71
     0
  0
GROUP
  5
B3A2
102
{ACAD_REACTORS
330
D
102
}
330
D
100
AcDbGroup
300

 70
     0
 71
     0
  0
GROUP
  5
B398
102
{ACAD_REACTORS
330
D
102
}
330
D
100
AcDbGroup
300

 70
     0
 71
     0
  0
GROUP
  5
4AF60
102
{ACAD_REACTORS
330
D
102
}
330
D
100
AcDbGroup
300

 70
     0
 71
     0
  0
GROUP
  5
7EE4D
102
{ACAD_REACTORS
330
D
102
}
330
D
100
AcDbGroup
300

 70
     0
 71
     0
  0
GROUP
  5
121D8
102
{ACAD_REACTORS
330
D
102
}
330
D
100
AcDbGroup
300

 70
     0
 71
     0
  0
GROUP
  5
873FB
102
{ACAD_REACTORS
330
D
102
}
330
D
100
AcDbGroup
300

 70
     0
 71
     0
  0
GROUP
  5
4AF80
102
{ACAD_REACTORS
330
D
102
}
330
D
100
AcDbGroup
300

 70
     0
 71
     0
  0
GROUP
  5
4AF4D
102
{ACAD_REACTORS
330
D
102
}
330
D
100
AcDbGroup
300

 70
     0
 71
     0
  0
GROUP
  5
8B139
102
{ACAD_REACTORS
330
D
102
}
330
D
100
AcDbGroup
300

 70
     0
 71
     0
  0
GROUP
  5
1BD90
102
{ACAD_REACTORS
330
D
102
}
330
D
100
AcDbGroup
300

 70
     0
 71
     0
  0
GROUP
  5
8EB08
102
{ACAD_REACTORS
330
D
102
}
330
D
100
AcDbGroup
300

 70
     0
 71
     0
  0
GROUP
  5
92115
102
{ACAD_REACTORS
330
D
102
}
330
D
100
AcDbGroup
300

 70
     0
 71
     0
  0
GROUP
  5
B399
102
{ACAD_REACTORS
330
D
102
}
330
D
100
AcDbGroup
300

 70
     0
 71
     0
  0
GROUP
  5
4AF77
102
{ACAD_REACTORS
330
D
102
}
330
D
100
AcDbGroup
300

 70
     0
 71
     0
  0
GROUP
  5
B3AA
102
{ACAD_REACTORS
330
D
102
}
330
D
100
AcDbGroup
300

 70
     0
 71
     0
  0
GROUP
  5
ADECE
102
{ACAD_REACTORS
330
D
102
}
330
D
100
AcDbGroup
300

 70
     0
 71
     0
  0
GROUP
  5
ADECB
102
{ACAD_REACTORS
330
D
102
}
330
D
100
AcDbGroup
300

 70
     0
 71
     0
  0
GROUP
  5
9C5FC
102
{ACAD_REACTORS
330
D
102
}
330
D
100
AcDbGroup
300

 70
     0
 71
     0
  0
GROUP
  5
4AF86
102
{ACAD_REACTORS
330
D
102
}
330
D
100
AcDbGroup
300

 70
     0
 71
     0
  0
GROUP
  5
9C5FD
102
{ACAD_REACTORS
330
D
102
}
330
D
100
AcDbGroup
300

 70
     0
 71
     0
  0
GROUP
  5
9C5FE
102
{ACAD_REACTORS
330
D
102
}
330
D
100
AcDbGroup
300

 70
     0
 71
     0
  0
GROUP
  5
9C5FA
102
{ACAD_REACTORS
330
D
102
}
330
D
100
AcDbGroup
300

 70
     0
 71
     0
  0
GROUP
  5
4AF7A
102
{ACAD_REACTORS
330
D
102
}
330
D
100
AcDbGroup
300

 70
     0
 71
     0
  0
GROUP
  5
B3AB
102
{ACAD_REACTORS
330
D
102
}
330
D
100
AcDbGroup
300

 70
     0
 71
     0
  0
GROUP
  5
9C60F
102
{ACAD_REACTORS
330
D
102
}
330
D
100
AcDbGroup
300

 70
     0
 71
     0
  0
GROUP
  5
1CC99
102
{ACAD_REACTORS
330
D
102
}
330
D
100
AcDbGroup
300

 70
     0
 71
     0
  0
GROUP
  5
B3B2
102
{ACAD_REACTORS
330
D
102
}
330
D
100
AcDbGroup
300

 70
     0
 71
     0
  0
GROUP
  5
9C5FF
102
{ACAD_REACTORS
330
D
102
}
330
D
100
AcDbGroup
300

 70
     0
 71
     0
  0
GROUP
  5
4F31B
102
{ACAD_REACTORS
330
D
102
}
330
D
100
AcDbGroup
300

 70
     0
 71
     0
  0
GROUP
  5
4AF87
102
{ACAD_REACTORS
330
D
102
}
330
D
100
AcDbGroup
300

 70
     0
 71
     0
  0
GROUP
  5
9C600
102
{ACAD_REACTORS
330
D
102
}
330
D
100
AcDbGroup
300

 70
     0
 71
     0
  0
GROUP
  5
9C601
102
{ACAD_REACTORS
330
D
102
}
330
D
100
AcDbGroup
300

 70
     0
 71
     0
  0
GROUP
  5
ADECF
102
{ACAD_REACTORS
330
D
102
}
330
D
100
AcDbGroup
300

 70
     0
 71
     0
  0
GROUP
  5
9C602
102
{ACAD_REACTORS
330
D
102
}
330
D
100
AcDbGroup
300

 70
     0
 71
     0
  0
GROUP
  5
9C614
102
{ACAD_REACTORS
330
D
102
}
330
D
100
AcDbGroup
300

 70
     0
 71
     0
  0
GROUP
  5
4AF95
102
{ACAD_REACTORS
330
D
102
}
330
D
100
AcDbGroup
300

 70
     0
 71
     0
  0
GROUP
  5
9C603
102
{ACAD_REACTORS
330
D
102
}
330
D
100
AcDbGroup
300

 70
     0
 71
     0
  0
GROUP
  5
9C617
102
{ACAD_REACTORS
330
D
102
}
330
D
100
AcDbGroup
300

 70
     0
 71
     0
  0
GROUP
  5
9C604
102
{ACAD_REACTORS
330
D
102
}
330
D
100
AcDbGroup
300

 70
     0
 71
     0
  0
GROUP
  5
D503
102
{ACAD_REACTORS
330
D
102
}
330
D
100
AcDbGroup
300

 70
     0
 71
     0
  0
GROUP
  5
4AF88
102
{ACAD_REACTORS
330
D
102
}
330
D
100
AcDbGroup
300

 70
     0
 71
     0
  0
GROUP
  5
ADEB4
102
{ACAD_REACTORS
330
D
102
}
330
D
100
AcDbGroup
300

 70
     0
 71
     0
  0
GROUP
  5
9C605
102
{ACAD_REACTORS
330
D
102
}
330
D
100
AcDbGroup
300

 70
     0
 71
     0
  0
GROUP
  5
9C606
102
{ACAD_REACTORS
330
D
102
}
330
D
100
AcDbGroup
300

 70
     0
 71
     0
  0
GROUP
  5
B389
102
{ACAD_REACTORS
330
D
102
}
330
D
100
AcDbGroup
300

 70
     0
 71
     0
  0
GROUP
  5
9C607
102
{ACAD_REACTORS
330
D
102
}
330
D
100
AcDbGroup
300

 70
     0
 71
     0
  0
GROUP
  5
4AF53
102
{ACAD_REACTORS
330
D
102
}
330
D
100
AcDbGroup
300

 70
     0
 71
     0
  0
GROUP
  5
B393
102
{ACAD_REACTORS
330
D
102
}
330
D
100
AcDbGroup
300

 70
     0
 71
     0
  0
GROUP
  5
9C618
102
{ACAD_REACTORS
330
D
102
}
330
D
100
AcDbGroup
300

 70
     0
 71
     0
  0
GROUP
  5
4AF96
102
{ACAD_REACTORS
330
D
102
}
330
D
100
AcDbGroup
300

 70
     0
 71
     0
  0
GROUP
  5
4AF5C
102
{ACAD_REACTORS
330
D
102
}
330
D
100
AcDbGroup
300

 70
     0
 71
     0
  0
LAYOUT
  5
1E
102
{ACAD_XDICTIONARY
360
BE7BF
102
}
102
{ACAD_REACTORS
330
1A
102
}
330
1A
100
AcDbPlotSettings
  1

  2

  4

  6

 40
0.0
 41
0.0
 42
0.0
 43
0.0
 44
0.0
 45
0.0
 46
0.0
 47
0.0
 48
0.0
 49
0.0
140
0.0
141
0.0
142
1.0
143
1.0
 70
   688
 72
     0
 73
     0
 74
     5
  7
HP_SW.ctb
 75
    16
147
1.0
148
0.0
149
0.0
100
AcDbLayout
  1
Layout1
 70
     1
 71
     1
 10
0.0
 20
0.0
 11
420.0
 21
297.0
 12
0.0
 22
0.0
 32
0.0
 14
1.000000000000000E+20
 24
1.000000000000000E+20
 34
1.000000000000000E+20
 15
-1.000000000000000E+20
 25
-1.000000000000000E+20
 35
-1.000000000000000E+20
146
0.0
 13
0.0
 23
0.0
 33
0.0
 16
1.0
 26
0.0
 36
0.0
 17
0.0
 27
1.0
 37
0.0
 76
     0
330
1B
  0
LAYOUT
  5
26
102
{ACAD_XDICTIONARY
360
BE7C2
102
}
102
{ACAD_REACTORS
330
1A
102
}
330
1A
100
AcDbPlotSettings
  1

  2

  4

  6

 40
0.0
 41
0.0
 42
0.0
 43
0.0
 44
0.0
 45
0.0
 46
0.0
 47
0.0
 48
0.0
 49
0.0
140
0.0
141
0.0
142
1.0
143
1.0
 70
   688
 72
     0
 73
     0
 74
     5
  7
HP_SW.ctb
 75
    16
147
1.0
148
0.0
149
0.0
100
AcDbLayout
  1
Layout2
 70
     1
 71
     2
 10
0.0
 20
0.0
 11
12.0
 21
9.0
 12
0.0
 22
0.0
 32
0.0
 14
0.0
 24
0.0
 34
0.0
 15
0.0
 25
0.0
 35
0.0
146
0.0
 13
0.0
 23
0.0
 33
0.0
 16
1.0
 26
0.0
 36
0.0
 17
0.0
 27
1.0
 37
0.0
 76
     0
330
23
  0
LAYOUT
  5
22
102
{ACAD_XDICTIONARY
360
BE741
102
}
102
{ACAD_REACTORS
330
1A
102
}
330
1A
100
AcDbPlotSettings
  1

  2
hp deskjet 9600 series
  4
A3
  6

 40
3.841749906539916
 41
12.47774982452392
 42
3.841766357421875
 43
3.17498779296875
 44
296.9683227539062
 45
419.9889831542968
 46
1.850649470381455
 47
0.0
 48
0.0
 49
0.0
140
0.0
141
0.0
142
1.0
143
2.079952043090949
 70
 28340
 72
     1
 73
     3
 74
     2
  7
HP_SW.ctb
 75
     0
147
0.480780315739363
148
0.0
149
0.0
100
AcDbLayout
  1
Model
 70
     1
 71
     0
 10
0.0
 20
0.0
 11
12.0
 21
9.0
 12
0.0
 22
0.0
 32
0.0
 14
0.0
 24
0.0
 34
0.0
 15
0.0
 25
0.0
 35
0.0
146
0.0
 13
0.0
 23
0.0
 33
0.0
 16
1.0
 26
0.0
 36
0.0
 17
0.0
 27
1.0
 37
0.0
 76
     0
330
1F
331
BDF37
1001
ACAD_PSEXT
1000
hp deskjet 9600 series
1000
hp deskjet 9600 series
1000
USB001
1000

1070
     0
  0
MATERIAL
  5
BDF3A
102
{ACAD_XDICTIONARY
360
BE7C7
102
}
102
{ACAD_REACTORS
330
376C
102
}
330
376C
100
AcDbMaterial
  1
ByBlock
 73
     1
 78
     1
172
     1
176
     1
270
     1
274
     1
  0
MATERIAL
  5
BDF39
102
{ACAD_XDICTIONARY
360
BE7C5
102
}
102
{ACAD_REACTORS
330
376C
102
}
330
376C
100
AcDbMaterial
  1
ByLayer
 73
     1
 78
     1
172
     1
176
     1
270
     1
274
     1
  0
MATERIAL
  5
BDF3B
102
{ACAD_XDICTIONARY
360
BE7C9
102
}
102
{ACAD_REACTORS
330
376C
102
}
330
376C
100
AcDbMaterial
  1
Global
 73
     1
 78
     1
172
     1
176
     1
270
     1
274
     1
  0
MLEADERSTYLE
  5
BE696
102
{ACAD_REACTORS
330
BE695
102
}
330
BE695
100
AcDbMLeaderStyle
170
     2
171
     1
172
     0
 90
        2
 40
0.0
 41
0.0
173
     1
 91
-1056964608
340
14
 92
       -2
290
     1
 42
2.0
291
     1
 43
0.36
  3
Standard
 44
4.0
300

342
11
174
     1
178
     6
175
     1
176
     0
 93
-1056964608
 45
4.0
292
     0
297
     0
 46
4.0
 94
-1056964608
 47
1.0
 49
1.0
140
1.0
293
     1
141
0.0
294
     1
177
     0
142
1.0
295
     0
296
     0
143
0.125
1001
ACAD_MLEADERVER
1070
     2
  0
MLINESTYLE
  5
18
102
{ACAD_REACTORS
330
17
102
}
330
17
100
AcDbMlineStyle
  2
STANDARD
 70
     0
  3

 62
   256
 51
90.0
 52
90.0
 71
     2
 49
0.5
 62
   256
  6
BYLAYER
 49
-0.5
 62
   256
  6
BYLAYER
  0
ACDBPLACEHOLDER
  5
F
102
{ACAD_REACTORS
330
E
102
}
330
E
  0
SCALE
  5
BE684
102
{ACAD_REACTORS
330
BE683
102
}
330
BE683
100
AcDbScale
 70
     0
300
1:1
140
1.0
141
1.0
290
     1
  0
SCALE
  5
BE685
102
{ACAD_REACTORS
330
BE683
102
}
330
BE683
100
AcDbScale
 70
     0
300
1:2
140
1.0
141
2.0
290
     0
  0
SCALE
  5
BE686
102
{ACAD_REACTORS
330
BE683
102
}
330
BE683
100
AcDbScale
 70
     0
300
1:4
140
1.0
141
4.0
290
     0
  0
SCALE
  5
BE687
102
{ACAD_REACTORS
330
BE683
102
}
330
BE683
100
AcDbScale
 70
     0
300
1:5
140
1.0
141
5.0
290
     0
  0
SCALE
  5
BE688
102
{ACAD_REACTORS
330
BE683
102
}
330
BE683
100
AcDbScale
 70
     0
300
1:8
140
1.0
141
8.0
290
     0
  0
SCALE
  5
BE689
102
{ACAD_REACTORS
330
BE683
102
}
330
BE683
100
AcDbScale
 70
     0
300
1:10
140
1.0
141
10.0
290
     0
  0
SCALE
  5
BE68A
102
{ACAD_REACTORS
330
BE683
102
}
330
BE683
100
AcDbScale
 70
     0
300
1:16
140
1.0
141
16.0
290
     0
  0
SCALE
  5
BE68B
102
{ACAD_REACTORS
330
BE683
102
}
330
BE683
100
AcDbScale
 70
     0
300
1:20
140
1.0
141
20.0
290
     0
  0
SCALE
  5
BE68C
102
{ACAD_REACTORS
330
BE683
102
}
330
BE683
100
AcDbScale
 70
     0
300
1:30
140
1.0
141
30.0
290
     0
  0
SCALE
  5
BE68D
102
{ACAD_REACTORS
330
BE683
102
}
330
BE683
100
AcDbScale
 70
     0
300
1:40
140
1.0
141
40.0
290
     0
  0
SCALE
  5
BE68E
102
{ACAD_REACTORS
330
BE683
102
}
330
BE683
100
AcDbScale
 70
     0
300
1:50
140
1.0
141
50.0
290
     0
  0
SCALE
  5
BE68F
102
{ACAD_REACTORS
330
BE683
102
}
330
BE683
100
AcDbScale
 70
     0
300
1:100
140
1.0
141
100.0
290
     0
  0
SCALE
  5
BE690
102
{ACAD_REACTORS
330
BE683
102
}
330
BE683
100
AcDbScale
 70
     0
300
2:1
140
2.0
141
1.0
290
     0
  0
SCALE
  5
BE691
102
{ACAD_REACTORS
330
BE683
102
}
330
BE683
100
AcDbScale
 70
     0
300
4:1
140
4.0
141
1.0
290
     0
  0
SCALE
  5
BE692
102
{ACAD_REACTORS
330
BE683
102
}
330
BE683
100
AcDbScale
 70
     0
300
8:1
140
8.0
141
1.0
290
     0
  0
SCALE
  5
BE693
102
{ACAD_REACTORS
330
BE683
102
}
330
BE683
100
AcDbScale
 70
     0
300
10:1
140
10.0
141
1.0
290
     0
  0
SCALE
  5
BE694
102
{ACAD_REACTORS
330
BE683
102
}
330
BE683
100
AcDbScale
 70
     0
300
100:1
140
100.0
141
1.0
290
     0
  0
TABLESTYLE
  5
376F
102
{ACAD_XDICTIONARY
360
BE77E
102
}
102
{ACAD_REACTORS
330
376E
102
}
330
376E
100
AcDbTableStyle
  3
Standard
 70
     0
 71
     0
 40
1.5
 41
1.5
280
     0
281
     0
  7
Standard
140
4.5
170
     2
 62
     0
 63
     7
283
     0
274
    -2
284
     1
 64
     0
275
    -2
285
     1
 65
     0
276
    -2
286
     1
 66
     0
277
    -2
287
     1
 67
     0
278
    -2
288
     1
 68
     0
279
    -2
289
     1
 69
     0
  7
Standard
140
6.0
170
     5
 62
     0
 63
     7
283
     0
274
    -2
284
     1
 64
     0
275
    -2
285
     1
 65
     0
276
    -2
286
     1
 66
     0
277
    -2
287
     1
 67
     0
278
    -2
288
     1
 68
     0
279
    -2
289
     1
 69
     0
  7
Standard
140
4.5
170
     5
 62
     0
 63
     7
283
     0
274
    -2
284
     1
 64
     0
275
    -2
285
     1
 65
     0
276
    -2
286
     1
 66
     0
277
    -2
287
     1
 67
     0
278
    -2
288
     1
 68
     0
279
    -2
289
     1
 69
     0
  0
VISUALSTYLE
  5
BDF42
102
{ACAD_XDICTIONARY
360
BE7D5
102
}
102
{ACAD_REACTORS
330
BDF3C
102
}
330
BDF3C
100
AcDbVisualStyle
  2
2dWireframe
 70
     4
 71
     0
 72
     2
 73
     0
 90
        0
 40
-0.6
 41
-30.0
 62
     5
 63
     7
 74
     1
 91
        4
 64
     7
 65
   257
 75
     1
175
     1
 42
1.0
 92
        0
 66
   257
 43
1.0
 76
     1
 77
     6
 78
     2
 67
     7
 79
     5
170
     0
171
     0
290
     0
174
     0
 93
        1
 44
0.0
173
     0
291
     0
 45
0.0
1001
ACAD
1000
AcDbSavedByObjectVersion
1070
     0
  0
VISUALSTYLE
  5
BDF44
102
{ACAD_XDICTIONARY
360
BE7D9
102
}
102
{ACAD_REACTORS
330
BDF3C
102
}
330
BDF3C
100
AcDbVisualStyle
  2
3D Hidden
 70
     6
 71
     1
 72
     2
 73
     2
 90
        0
 40
-0.6
 41
-30.0
 62
     5
 63
     7
 74
     2
 91
        2
 64
     7
 65
   257
 75
     2
175
     1
 42
40.0
 92
        0
 66
   257
 43
1.0
 76
     1
 77
     6
 78
     2
 67
     7
 79
     3
170
     0
171
     0
290
     0
174
     0
 93
        1
 44
0.0
173
     0
291
     0
 45
0.0
1001
ACAD
1000
AcDbSavedByObjectVersion
1070
     0
  0
VISUALSTYLE
  5
BDF43
102
{ACAD_XDICTIONARY
360
BE7D7
102
}
102
{ACAD_REACTORS
330
BDF3C
102
}
330
BDF3C
100
AcDbVisualStyle
  2
3dWireframe
 70
     5
 71
     0
 72
     2
 73
     0
 90
        0
 40
-0.6
 41
-30.0
 62
     5
 63
     7
 74
     1
 91
        4
 64
     7
 65
   257
 75
     1
175
     1
 42
1.0
 92
        0
 66
   257
 43
1.0
 76
     1
 77
     6
 78
     2
 67
     7
 79
     5
170
     0
171
     0
290
     0
174
     0
 93
        1
 44
0.0
173
     0
291
     0
 45
0.0
1001
ACAD
1000
AcDbSavedByObjectVersion
1070
     0
  0
VISUALSTYLE
  5
BDF41
102
{ACAD_XDICTIONARY
360
BE7D3
102
}
102
{ACAD_REACTORS
330
BDF3C
102
}
330
BDF3C
100
AcDbVisualStyle
  2
Basic
 70
     7
 71
     1
 72
     0
 73
     1
 90
        0
 40
-0.6
 41
-30.0
 62
     5
 63
     7
 74
     0
 91
        4
 64
     7
 65
   257
 75
     1
175
     1
 42
1.0
 92
        8
 66
     7
 43
1.0
 76
     1
 77
     6
 78
     2
 67
     7
 79
     5
170
     0
171
     0
290
     0
174
     0
 93
        1
 44
0.0
173
     0
291
     1
 45
0.0
1001
ACAD
1000
AcDbSavedByObjectVersion
1070
     0
  0
VISUALSTYLE
  5
BDF48
102
{ACAD_XDICTIONARY
360
BE7E1
102
}
102
{ACAD_REACTORS
330
BDF3C
102
}
330
BDF3C
100
AcDbVisualStyle
  2
Brighten
 70
    12
 71
     2
 72
     2
 73
     0
 90
        0
 40
-0.6
 41
-30.0
 62
     5
 63
     7
 74
     1
 91
        4
 64
     7
 65
   257
 75
     1
175
     1
 42
1.0
 92
        8
 66
     7
 43
1.0
 76
     1
 77
     6
 78
     2
 67
     7
 79
     5
170
     0
171
     0
290
     0
174
     0
 93
        1
 44
50.0
173
     0
291
     1
 45
0.0
1001
ACAD
1000
AcDbSavedByObjectVersion
1070
     0
  0
VISUALSTYLE
  5
BDF4C
102
{ACAD_XDICTIONARY
360
BE7E9
102
}
102
{ACAD_REACTORS
330
BDF3C
102
}
330
BDF3C
100
AcDbVisualStyle
  2
ColorChange
 70
    16
 71
     2
 72
     2
 73
     3
 90
        0
 40
-0.6
 41
-30.0
 62
     5
 63
     8
 74
     1
 91
        4
 64
     7
 65
   257
 75
     1
175
     1
 42
1.0
 92
        8
 66
     8
 43
1.0
 76
     1
 77
     6
 78
     2
 67
     7
 79
     5
170
     0
171
     0
290
     0
174
     0
 93
        1
 44
0.0
173
     0
291
     1
 45
0.0
1001
ACAD
1000
AcDbSavedByObjectVersion
1070
     0
  0
VISUALSTYLE
  5
BDF45
102
{ACAD_XDICTIONARY
360
BE7DB
102
}
102
{ACAD_REACTORS
330
BDF3C
102
}
330
BDF3C
100
AcDbVisualStyle
  2
Conceptual
 70
     9
 71
     3
 72
     2
 73
     0
 90
        0
 40
-0.6
 41
-30.0
 62
     5
 63
     7
 74
     2
 91
        2
 64
     7
 65
   257
 75
     1
175
     1
 42
40.0
 92
        8
 66
     7
 43
1.0
 76
     1
 77
     6
 78
     2
 67
     7
 79
     3
170
     0
171
     0
290
     0
174
     0
 93
        1
 44
0.0
173
     0
291
     0
 45
0.0
1001
ACAD
1000
AcDbSavedByObjectVersion
1070
     0
  0
VISUALSTYLE
  5
BDF47
102
{ACAD_XDICTIONARY
360
BE7DF
102
}
102
{ACAD_REACTORS
330
BDF3C
102
}
330
BDF3C
100
AcDbVisualStyle
  2
Dim
 70
    11
 71
     2
 72
     2
 73
     0
 90
        0
 40
-0.6
 41
-30.0
 62
     5
 63
     7
 74
     1
 91
        4
 64
     7
 65
   257
 75
     1
175
     1
 42
1.0
 92
        8
 66
     7
 43
1.0
 76
     1
 77
     6
 78
     2
 67
     7
 79
     5
170
     0
171
     0
290
     0
174
     0
 93
        1
 44
-50.0
173
     0
291
     1
 45
0.0
1001
ACAD
1000
AcDbSavedByObjectVersion
1070
     0
  0
VISUALSTYLE
  5
BE682
102
{ACAD_XDICTIONARY
360
BE7EF
102
}
102
{ACAD_REACTORS
330
BDF3C
102
}
330
BDF3C
100
AcDbVisualStyle
  2
EdgeColorOff
 70
    22
 71
     2
 72
     2
 73
     0
 90
        0
 40
-0.6
 41
-30.0
 62
     5
 63
     7
 74
     1
 91
        4
 64
     7
 65
   257
 75
     1
175
     1
 42
1.0
 92
        8
 66
     7
 43
1.0
 76
     1
 77
     6
 78
     2
 67
     7
 79
     5
170
     0
171
     0
290
     0
174
     0
 93
        1
 44
0.0
173
     0
291
     1
 45
0.0
1001
ACAD
1000
AcDbSavedByObjectVersion
1070
     0
  0
VISUALSTYLE
  5
BDF4B
102
{ACAD_XDICTIONARY
360
BE7E7
102
}
102
{ACAD_REACTORS
330
BDF3C
102
}
330
BDF3C
100
AcDbVisualStyle
  2
Facepattern
 70
    15
 71
     2
 72
     2
 73
     0
 90
        0
 40
-0.6
 41
-30.0
 62
     5
 63
     7
 74
     1
 91
        4
 64
     7
 65
   257
 75
     1
175
     1
 42
1.0
 92
        8
 66
     7
 43
1.0
 76
     1
 77
     6
 78
     2
 67
     7
 79
     5
170
     0
171
     0
290
     0
174
     0
 93
        1
 44
0.0
173
     0
291
     1
 45
0.0
1001
ACAD
1000
AcDbSavedByObjectVersion
1070
     0
  0
VISUALSTYLE
  5
BDF3D
102
{ACAD_XDICTIONARY
360
BE7CB
102
}
102
{ACAD_REACTORS
330
BDF3C
102
}
330
BDF3C
100
AcDbVisualStyle
  2
Flat
 70
     0
 71
     2
 72
     1
 73
     1
 90
        2
 40
-0.6
 41
30.0
 62
     5
 63
     7
 74
     0
 91
        4
 64
     7
 65
   257
 75
     1
175
     1
 42
1.0
 92
        8
 66
     7
 43
1.0
 76
     1
 77
     6
 78
     2
 67
     7
 79
     5
170
     0
171
     0
290
     0
174
     0
 93
       13
 44
0.0
173
     0
291
     1
 45
0.0
1001
ACAD
1000
AcDbSavedByObjectVersion
1070
     0
  0
VISUALSTYLE
  5
BDF3E
102
{ACAD_XDICTIONARY
360
BE7CD
102
}
102
{ACAD_REACTORS
330
BDF3C
102
}
330
BDF3C
100
AcDbVisualStyle
  2
FlatWithEdges
 70
     1
 71
     2
 72
     1
 73
     1
 90
        2
 40
-0.6
 41
30.0
 62
     5
 63
     7
 74
     1
 91
        4
 64
     7
 65
   257
 75
     1
175
     1
 42
1.0
 92
        0
 66
   257
 43
1.0
 76
     1
 77
     6
 78
     2
 67
     7
 79
     5
170
     0
171
     0
290
     0
174
     0
 93
       13
 44
0.0
173
     0
291
     1
 45
0.0
1001
ACAD
1000
AcDbSavedByObjectVersion
1070
     0
  0
VISUALSTYLE
  5
BDF3F
102
{ACAD_XDICTIONARY
360
BE7CF
102
}
102
{ACAD_REACTORS
330
BDF3C
102
}
330
BDF3C
100
AcDbVisualStyle
  2
Gouraud
 70
     2
 71
     2
 72
     2
 73
     1
 90
        2
 40
-0.6
 41
30.0
 62
     5
 63
     7
 74
     0
 91
        4
 64
     7
 65
   257
 75
     1
175
     1
 42
1.0
 92
        0
 66
     7
 43
1.0
 76
     1
 77
     6
 78
     2
 67
     7
 79
     5
170
     0
171
     0
290
     0
174
     0
 93
       13
 44
0.0
173
     0
291
     1
 45
0.0
1001
ACAD
1000
AcDbSavedByObjectVersion
1070
     0
  0
VISUALSTYLE
  5
BDF40
102
{ACAD_XDICTIONARY
360
BE7D1
102
}
102
{ACAD_REACTORS
330
BDF3C
102
}
330
BDF3C
100
AcDbVisualStyle
  2
GouraudWithEdges
 70
     3
 71
     2
 72
     2
 73
     1
 90
        2
 40
-0.6
 41
30.0
 62
     5
 63
     7
 74
     1
 91
        4
 64
     7
 65
   257
 75
     1
175
     1
 42
1.0
 92
        0
 66
   257
 43
1.0
 76
     1
 77
     6
 78
     2
 67
     7
 79
     5
170
     0
171
     0
290
     0
174
     0
 93
       13
 44
0.0
173
     0
291
     1
 45
0.0
1001
ACAD
1000
AcDbSavedByObjectVersion
1070
     0
  0
VISUALSTYLE
  5
BE680
102
{ACAD_XDICTIONARY
360
BE7EB
102
}
102
{ACAD_REACTORS
330
BDF3C
102
}
330
BDF3C
100
AcDbVisualStyle
  2
JitterOff
 70
    20
 71
     2
 72
     2
 73
     0
 90
        0
 40
-0.6
 41
-30.0
 62
     5
 63
     7
 74
     1
 91
        4
 64
     7
 65
   257
 75
     1
175
     1
 42
1.0
 92
       10
 66
     7
 43
1.0
 76
     1
 77
     6
 78
     2
 67
     7
 79
     5
170
     0
171
     0
290
     0
174
     0
 93
        1
 44
0.0
173
     0
291
     1
 45
0.0
1001
ACAD
1000
AcDbSavedByObjectVersion
1070
     0
  0
VISUALSTYLE
  5
BDF4A
102
{ACAD_XDICTIONARY
360
BE7E5
102
}
102
{ACAD_REACTORS
330
BDF3C
102
}
330
BDF3C
100
AcDbVisualStyle
  2
Linepattern
 70
    14
 71
     2
 72
     2
 73
     0
 90
        0
 40
-0.6
 41
-30.0
 62
     5
 63
     7
 74
     1
 91
        4
 64
     7
 65
   257
 75
     7
175
     7
 42
1.0
 92
        8
 66
     7
 43
1.0
 76
     1
 77
     6
 78
     2
 67
     7
 79
     5
170
     0
171
     0
290
     0
174
     0
 93
        1
 44
0.0
173
     0
291
     1
 45
0.0
1001
ACAD
1000
AcDbSavedByObjectVersion
1070
     0
  0
VISUALSTYLE
  5
BE681
102
{ACAD_XDICTIONARY
360
BE7ED
102
}
102
{ACAD_REACTORS
330
BDF3C
102
}
330
BDF3C
100
AcDbVisualStyle
  2
OverhangOff
 70
    21
 71
     2
 72
     2
 73
     0
 90
        0
 40
-0.6
 41
-30.0
 62
     5
 63
     7
 74
     1
 91
        4
 64
     7
 65
   257
 75
     1
175
     1
 42
1.0
 92
        9
 66
     7
 43
1.0
 76
     1
 77
     6
 78
     2
 67
     7
 79
     5
170
     0
171
     0
290
     0
174
     0
 93
        1
 44
0.0
173
     0
291
     1
 45
0.0
1001
ACAD
1000
AcDbSavedByObjectVersion
1070
     0
  0
VISUALSTYLE
  5
BDF46
102
{ACAD_XDICTIONARY
360
BE7DD
102
}
102
{ACAD_REACTORS
330
BDF3C
102
}
330
BDF3C
100
AcDbVisualStyle
  2
Realistic
 70
     8
 71
     2
 72
     2
 73
     0
 90
        0
 40
-0.6
 41
-30.0
 62
     5
 63
     7
 74
     1
 91
        0
 64
     7
 65
   257
 75
     1
175
     1
 42
1.0
 92
        8
 66
     8
 43
1.0
 76
     1
 77
     6
 78
     2
 67
     7
 79
     5
170
     0
171
     0
290
     0
174
     0
 93
       13
 44
0.0
173
     0
291
     0
 45
0.0
1001
ACAD
1000
AcDbSavedByObjectVersion
1070
     0
  0
VISUALSTYLE
  5
BDF49
102
{ACAD_XDICTIONARY
360
BE7E3
102
}
102
{ACAD_REACTORS
330
BDF3C
102
}
330
BDF3C
100
AcDbVisualStyle
  2
Thicken
 70
    13
 71
     2
 72
     2
 73
     0
 90
        0
 40
-0.6
 41
-30.0
 62
     5
 63
     7
 74
     1
 91
        4
 64
     7
 65
   257
 75
     1
175
     1
 42
1.0
 92
       12
 66
     7
 43
1.0
 76
     1
 77
     6
 78
     2
 67
     7
 79
     5
170
     0
171
     0
290
     0
174
     0
 93
        1
 44
0.0
173
     0
291
     1
 45
0.0
1001
ACAD
1000
AcDbSavedByObjectVersion
1070
     0
  0
DICTIONARYVAR
  5
BE7AC
102
{ACAD_REACTORS
330
3761
102
}
330
3761
100
DictionaryVariables
280
     0
  1
1:1
  0
DICTIONARYVAR
  5
BE7AA
102
{ACAD_REACTORS
330
3761
102
}
330
3761
100
DictionaryVariables
280
     0
  1
STANDARD
  0
DICTIONARYVAR
  5
3835
102
{ACAD_REACTORS
330
3761
102
}
330
3761
100
DictionaryVariables
280
     0
  1
STANDARD
  0
DICTIONARYVAR
  5
3762
102
{ACAD_REACTORS
330
3761
102
}
330
3761
100
DictionaryVariables
280
     0
  1
1
  0
DICTIONARYVAR
  5
BE7B8
102
{ACAD_REACTORS
330
3761
102
}
330
3761
100
DictionaryVariables
280
     0
  1
0
  0
DICTIONARYVAR
  5
BE7AE
102
{ACAD_REACTORS
330
3761
102
}
330
3761
100
DictionaryVariables
280
     0
  1
1
  0
DICTIONARYVAR
  5
BE7AF
102
{ACAD_REACTORS
330
3761
102
}
330
3761
100
DictionaryVariables
280
     0
  1
15
  0
DICTIONARYVAR
  5
BE7AD
102
{ACAD_REACTORS
330
3761
102
}
330
3761
100
DictionaryVariables
280
     0
  1
0
  0
DICTIONARYVAR
  5
BE7AB
102
{ACAD_REACTORS
330
3761
102
}
330
3761
100
DictionaryVariables
280
     0
  1
0
  0
DICTIONARYVAR
  5
BE7B7
102
{ACAD_REACTORS
330
3761
102
}
330
3761
100
DictionaryVariables
280
     0
  1
127
  0
DICTIONARYVAR
  5
BE7B9
102
{ACAD_REACTORS
330
3761
102
}
330
3761
100
DictionaryVariables
280
     0
  1
0
  0
PH_ENTDIMREACTOR
  5
B0C1A
102
{ACAD_REACTORS
330
49
102
}
330
49
  0
PH_ENTDIMREACTOR
  5
B9C87
102
{ACAD_REACTORS
330
49
102
}
330
49
  0
PH_ENTDIMREACTOR
  5
B0C1B
102
{ACAD_REACTORS
330
49
102
}
330
49
  0
PH_DIMENTREACTOR
  5
B0C1C
102
{ACAD_REACTORS
330
49
102
}
330
49
  0
PH_ENTDIMREACTOR
  5
B162F
102
{ACAD_REACTORS
330
49
102
}
330
49
  0
PH_ENTDIMREACTOR
  5
B1630
102
{ACAD_REACTORS
330
49
102
}
330
49
  0
PH_DIMENTREACTOR
  5
B5331
102
{ACAD_REACTORS
330
49
102
}
330
49
  0
PH_DIMENTREACTOR
  5
B1631
102
{ACAD_REACTORS
330
49
102
}
330
49
  0
PH_DIMENTREACTOR
  5
B9C88
102
{ACAD_REACTORS
330
49
102
}
330
49
  0
PH_ENTDIMREACTOR
  5
B9C86
102
{ACAD_REACTORS
330
49
102
}
330
49
  0
DICTIONARY
  5
BE716
102
{ACAD_REACTORS
330
4A
102
}
330
4A
100
AcDbDictionary
280
     1
281
     1
  3
$PH$AAAA
360
BE717
  3
PH_GRPMEMBERS
360
BE71B
  0
DICTIONARY
  5
BE732
102
{ACAD_REACTORS
330
4A
102
}
330
4A
100
AcDbDictionary
280
     1
281
     1
  3
PH_GRPMEMBERS
360
BE733
  0
PH_GROUP
  5
FF58
102
{ACAD_REACTORS
330
4A
102
}
330
4A
  0
DICTIONARY
  5
BE7BF
330
1E
100
AcDbDictionary
280
     1
281
     1
  3
ACAD_XREC_ROUNDTRIP
360
BE7C0
  0
DICTIONARY
  5
BE7C2
330
26
100
AcDbDictionary
280
     1
281
     1
  3
ACAD_XREC_ROUNDTRIP
360
BE7C3
  0
DICTIONARY
  5
BE741
330
22
100
AcDbDictionary
280
     1
281
     1
  3
ACAD_XREC_ROUNDTRIP
360
BE7C1
  3
ADSK_XREC_LAYOUTTHUMBNAIL
360
BE742
  0
DICTIONARY
  5
BE7C7
330
BDF3A
100
AcDbDictionary
280
     1
281
     1
  3
ACAD_XREC_ROUNDTRIP
360
BE7C8
  0
DICTIONARY
  5
BE7C5
330
BDF39
100
AcDbDictionary
280
     1
281
     1
  3
ACAD_XREC_ROUNDTRIP
360
BE7C6
  0
DICTIONARY
  5
BE7C9
330
BDF3B
100
AcDbDictionary
280
     1
281
     1
  3
ACAD_XREC_ROUNDTRIP
360
BE7CA
  0
DICTIONARY
  5
BE77E
330
376F
100
AcDbDictionary
280
     1
281
     1
  3
ACAD_ROUNDTRIP_2008_TABLESTYLE_CELLSTYLEMAP
360
BE7BA
  3
ACAD_XREC_ROUNDTRIP
360
BE7C4
  0
DICTIONARY
  5
BE7D5
330
BDF42
100
AcDbDictionary
280
     1
281
     1
  3
ACAD_XREC_ROUNDTRIP
360
BE7D6
  0
DICTIONARY
  5
BE7D9
330
BDF44
100
AcDbDictionary
280
     1
281
     1
  3
ACAD_XREC_ROUNDTRIP
360
BE7DA
  0
DICTIONARY
  5
BE7D7
330
BDF43
100
AcDbDictionary
280
     1
281
     1
  3
ACAD_XREC_ROUNDTRIP
360
BE7D8
  0
DICTIONARY
  5
BE7D3
330
BDF41
100
AcDbDictionary
280
     1
281
     1
  3
ACAD_XREC_ROUNDTRIP
360
BE7D4
  0
DICTIONARY
  5
BE7E1
330
BDF48
100
AcDbDictionary
280
     1
281
     1
  3
ACAD_XREC_ROUNDTRIP
360
BE7E2
  0
DICTIONARY
  5
BE7E9
330
BDF4C
100
AcDbDictionary
280
     1
281
     1
  3
ACAD_XREC_ROUNDTRIP
360
BE7EA
  0
DICTIONARY
  5
BE7DB
330
BDF45
100
AcDbDictionary
280
     1
281
     1
  3
ACAD_XREC_ROUNDTRIP
360
BE7DC
  0
DICTIONARY
  5
BE7DF
330
BDF47
100
AcDbDictionary
280
     1
281
     1
  3
ACAD_XREC_ROUNDTRIP
360
BE7E0
  0
DICTIONARY
  5
BE7EF
330
BE682
100
AcDbDictionary
280
     1
281
     1
  3
ACAD_XREC_ROUNDTRIP
360
BE7F0
  0
DICTIONARY
  5
BE7E7
330
BDF4B
100
AcDbDictionary
280
     1
281
     1
  3
ACAD_XREC_ROUNDTRIP
360
BE7E8
  0
DICTIONARY
  5
BE7CB
330
BDF3D
100
AcDbDictionary
280
     1
281
     1
  3
ACAD_XREC_ROUNDTRIP
360
BE7CC
  0
DICTIONARY
  5
BE7CD
330
BDF3E
100
AcDbDictionary
280
     1
281
     1
  3
ACAD_XREC_ROUNDTRIP
360
BE7CE
  0
DICTIONARY
  5
BE7CF
330
BDF3F
100
AcDbDictionary
280
     1
281
     1
  3
ACAD_XREC_ROUNDTRIP
360
BE7D0
  0
DICTIONARY
  5
BE7D1
330
BDF40
100
AcDbDictionary
280
     1
281
     1
  3
ACAD_XREC_ROUNDTRIP
360
BE7D2
  0
DICTIONARY
  5
BE7EB
330
BE680
100
AcDbDictionary
280
     1
281
     1
  3
ACAD_XREC_ROUNDTRIP
360
BE7EC
  0
DICTIONARY
  5
BE7E5
330
BDF4A
100
AcDbDictionary
280
     1
281
     1
  3
ACAD_XREC_ROUNDTRIP
360
BE7E6
  0
DICTIONARY
  5
BE7ED
330
BE681
100
AcDbDictionary
280
     1
281
     1
  3
ACAD_XREC_ROUNDTRIP
360
BE7EE
  0
DICTIONARY
  5
BE7DD
330
BDF46
100
AcDbDictionary
280
     1
281
     1
  3
ACAD_XREC_ROUNDTRIP
360
BE7DE
  0
DICTIONARY
  5
BE7E3
330
BDF49
100
AcDbDictionary
280
     1
281
     1
  3
ACAD_XREC_ROUNDTRIP
360
BE7E4
  0
DICTIONARY
  5
BE717
102
{ACAD_REACTORS
330
BE716
102
}
330
BE716
100
AcDbDictionary
280
     1
281
     1
  3
$PH$AAAA
360
BE718
  3
PH_GRPMEMBERS
360
BE71A
  0
PH_GROUP
  5
BE71B
102
{ACAD_REACTORS
330
BE716
102
}
330
BE716
  0
PH_GROUP
  5
BE733
102
{ACAD_REACTORS
330
BE732
102
}
330
BE732
  0
XRECORD
  5
BE7C0
102
{ACAD_REACTORS
330
BE7BF
102
}
330
BE7BF
100
AcDbXrecord
280
     1
102
SHADEPLOT
 70
     0
102
SHADEPLOTRESLEVEL
 70
     2
102
SHADEPLOTCUSTOMDPI
 70
   300
  0
XRECORD
  5
BE7C3
102
{ACAD_REACTORS
330
BE7C2
102
}
330
BE7C2
100
AcDbXrecord
280
     1
102
SHADEPLOT
 70
     0
102
SHADEPLOTRESLEVEL
 70
     2
102
SHADEPLOTCUSTOMDPI
 70
   300
  0
XRECORD
  5
BE7C1
102
{ACAD_REACTORS
330
BE741
102
}
330
BE741
100
AcDbXrecord
280
     1
102
SHADEPLOT
 70
     1
102
SHADEPLOTRESLEVEL
 70
     2
102
SHADEPLOTCUSTOMDPI
 70
   300
  0
XRECORD
  5
BE742
102
{ACAD_REACTORS
330
BE741
102
}
330
BE741
100
AcDbXrecord
280
     1
310
28000000000100007600000001000800000000000076000000000000000000000001000000000000F0FCFE0000000000FFFFFF000000000000000000000000000000000000000000000000000000000000000000330000006600000099000000CC000000FF00000000330000333300006633000099330000CC330000FF3300
310
0000660000336600006666000099660000CC660000FF66000000990000339900006699000099990000CC990000FF99000000CC000033CC000066CC000099CC0000CCCC0000FFCC000000FF000033FF000066FF000099FF0000CCFF0000FFFF000000003300330033006600330099003300CC003300FF003300003333003333
310
33006633330099333300CC333300FF33330000663300336633006666330099663300CC663300FF66330000993300339933006699330099993300CC993300FF99330000CC330033CC330066CC330099CC3300CCCC3300FFCC330000FF330033FF330066FF330099FF3300CCFF3300FFFF330000006600330066006600660099
310
006600CC006600FF00660000336600333366006633660099336600CC336600FF33660000666600336666006666660099666600CC666600FF66660000996600339966006699660099996600CC996600FF99660000CC660033CC660066CC660099CC6600CCCC6600FFCC660000FF660033FF660066FF660099FF6600CCFF6600
310
FFFF660000009900330099006600990099009900CC009900FF00990000339900333399006633990099339900CC339900FF33990000669900336699006666990099669900CC669900FF66990000999900339999006699990099999900CC999900FF99990000CC990033CC990066CC990099CC9900CCCC9900FFCC990000FF99
310
0033FF990066FF990099FF9900CCFF9900FFFF99000000CC003300CC006600CC009900CC00CC00CC00FF00CC000033CC003333CC006633CC009933CC00CC33CC00FF33CC000066CC003366CC006666CC009966CC00CC66CC00FF66CC000099CC003399CC006699CC009999CC00CC99CC00FF99CC0000CCCC0033CCCC0066CC
310
CC0099CCCC00CCCCCC00FFCCCC0000FFCC0033FFCC0066FFCC0099FFCC00CCFFCC00FFFFCC000000FF003300FF006600FF009900FF00CC00FF00FF00FF000033FF003333FF006633FF009933FF00CC33FF00FF33FF000066FF003366FF006666FF009966FF00CC66FF00FF66FF000099FF003399FF006699FF009999FF00CC
310
99FF00FF99FF0000CCFF0033CCFF0066CCFF0099CCFF00CCCCFF00FFCCFF0000FFFF0033FFFF0066FFFF0099FFFF00CCFFFF00FFFFFF00000000000D0D0D001A1A1A00282828003535350043434300505050005D5D5D006B6B6B00787878008686860093939300A1A1A100AEAEAE00BBBBBB00C9C9C900D6D6D600E4E4E400
310
F1F1F100FFFFFF0000000000000000000000000000000000000000000000000000000000000000000000000000000000E1E1E1E1E1E1E1E1E1E1E1E1E1E1E1E1E1E1E1E1E1E1E1E1E1E1E1E1E1E1E1E1E1E1E1E1E1E1E1E1E1E1E1E1E1BEBEBEBEBEBEBEBEBEBEBEBEBEBEBEBEBEBEBEBEBEBEBEBEBEBEBEBEBEBEBEBEBEBE
310
BEBEBEBEBEBEBEBEBEBEBEBEBEBEBEBEBEBEBEBEBEBEBEBEBEBEBEBEBEBEBEBEBEBEBEBEBEBEBEBEBEBEBEBEBEBEBEBEBEBEBEBEBEBEBEBEBEBEBEBEBEBEBEBEBEBEBEBEBEBEBEBEBEBEBEBEBEBEBEBEBEBEBEBEBEBEBEBEBEBEBEBEBEBEBEBEBEBEBEBEBEBEBEBEBEBEBEBEBEBEBEBEBEBEBEBEBEBEBEBEBEBEBEBEBEBEBE
310
BEBEBEBEBEE1E1E1E1E1E1E1E1E1E1E1E1E1E1E1E1E1E1E1E1E1E1E1E1E1E1E1E1E1E1E1E1E1E1E1E1E1E1E1E1E1E1E1E1E1E1E1E1E1E1E1E1E1E1E1E1E1E1E1E1E1E1E1E1E1E1E1E1E1E1E1E1E1E1E1E1E1E1E1E1E1E1E1E1E1E1E1E1E1E1BEE1E1E1E1E1E1E1E1E1E1E1E1E1E1E1E1E1E1E1E1E1E1E1E1E1E1E1E1E1E1E1
310
BEE1E1E1E1E1E1E1E1E1E1E1E1E1E1E1E1E1E1E1E1E1E1E1E1E1E1BEE1E1E1E1E1E1E1E1E1E1E1E1E1E1E1E1E1E1E1E1E1E1E1E1E1E1E1E1E1E1E1E1E1E1E1E1E1E1E1E1E1E1E1E1E1E1E1E1E1E1E1E1BEE1E1E1E1E1E1E1E1E1E1E1E1E1E1E1E1E1E1E1E1E1E1E1E1E1E1E1E1E1E1E1E1E1E1E1E1E1E1E1E1E1E1E1E1E1E1
310
E1E1E1E1E1E1BEE1E1E1E1E1E1E1E1E1E1E1E1E1E1E1E1E1E1E1E1E1E1E1E1E1E1E1E1E1E1E1E1E1E1E1E1E1E1E1E1E1E1E1E1E1E1E1E1E1E1E1E1E1E1E1E1E1E1E1E1E1E1E1E1E1E1E1E1E1E1E1E1E1E1E1E1E1E1E1E1E1E1E1E1E1E1E1E1E1E1BEE1E1E1E128282828282828282828282828282828282828282828282828
310
282828282828282828282828282828282828282828282828282828282828282828282828282828282828282828282828282828282828282828282828282828282828282828282828282828282828282828282828282828282828282828282828282828282828282828280F0F0F0F0F0F0F0F0F0F0F282828282828BE282828
310
2828282828282828BEE1E1E1E1E1E1E1E1E1E1E1E1E1E1E1E1E1E1E1E1E1E1E1E1E1E1E1E1E1E1E1E1E1E1E1E1E1E1E1E1E1E1E1E1E1E1E1E1E1E1E1E1E1E1E1E1E1E1E1E1E1E1E1E1E1E1E1E1E1E1E1E1E1E1E1E1E1E1E1E1E1E1E1E1E1E1E1E1E1E1BEE1E1E1E128E1E1E1E1E1E1E1E1E1E1E1E1E1E1E1E1E1E1E1E1E1E1
310
E1E1E1E1E1E1E1E1E1E1E1E1E1E1E1E1E1E1E1E1E1E1E1E1E1E1E1E1E1E1E1E1E1E1E1E1E1E1E1E1E1E1E1E1E1E1E1E1E1E1E1E1E1E1E1E1E1E1E1E1E1E1E1E1E1E1E1E1E1E1E1E1E1E1E1E1E1E1E1E1E1E1E1E1E1E1E1E1E1E1E1E1E1E1E1E1E1E1E1E1E1E1E1E1E1E1E1E10F0F0F0F0F0F0F0F0F0F0FE1E1E1E1E1E1BEE1
310
E1E1E1E1E1E1E1E1E128BEE1E1E1E1E1E1E1E1E1E1E1E1E1E1E1E1E1E1E1E1E1E1E1E1E1E1E1E1E1E1E1E1E1E1E1E1E1E1E1E1E1E1E1E1E1E1E1E1E1E1E1E1E1E1E1E1E1E1E1E1E1E1E1E1E1E1E1E1E1E1E1E1E1E1E1E1E1E1E1E1E1E1E1E1E1E1E1E1E1E1BEE1E1E1E128E1E1E1E1E1E1E1E1E1E1E1E1E1E1E1E1E1E1E1E1
310
E1E1E1E1E1E1E1E1E1E1E1E1E1E1E1E1E1E1E1E1E1E1E1E1E1E1E1E1E1E1E1E1E1E1E1E1E1E1E1E1E1E1E1E1E1E1E1E1E1E1E1E1E1E1E1E1E1E1E1E1E1E1E1E1E1E1E1E1E1E1E1E1E1E1E1E1E1E1E1E1E1E1E1E1E1E1E1E1E1E1E1E1E1E1E1E1E1E1E1E1E1E1E1E1E1E1E1E1E1E10FBEBEBEBEBEBEBEBEBEBEBEBEBEBEBEBE
310
BEBEBEBEBEBEBEBEBEBEBEBEBEE1E1E1E1E1E1E1E1E1E1E1E1E1E1E1E1E1E1E1E1E1E1E1E1E1E1E1E1E1E1E1E1E1E1E1E1E1E1E1E1E1E1E1E1E1E1E1E1E1E1E1E1E1E1E1E1E1E1E1E1E1E1E1E1E1E1E1E1E1E1E1E1E1E1E1E1E1E1E1E1E1E1E1E1E1E1E1E1E1E1BEE1E1E1E128E1E1E1E1E1E1E1E1E1E1E1E1E1E1E1E1E1E1
310
E1E1E1E1E1E1E1E1E1E1E1E1E1E1E1E1E1E1E1E1E1E1E1E1E1E1E1E1E1E1E1E1E1E1E1E1E1E1E1E1E1E1E1E1E1E1E1E1E1E1E1E1E1E1E1E1E1E1E1E1E1E1E1E1E1E1E1E1E1E1E1E1E1E1E1E1E1E1E1E1E1E1E1E1E1E1E1E1E1E1E1E1E1E1E1E1E1E1E1E1E1E1E1E1E1E1E1E1E1E1E1E10F0F0F0F0F0FE1E1E1E10FE1E1E1E1
310
E1E1BEE1E1E1E1E1E1E1E1E1E128BEE1E1E1E1E1E1E1E1E1E1E1E1E1E1E1E1E1E1E1E1E1E1E1E1E1E1E1E1E1E1E1E1E1E1E1E1E1E1E1E1E1E1E1E1E1E1E1E1E1E1E1E1E1E1E1E1E1E1E1E1E1E1E1E1E1E1E1E1E1E1E1E1E1E1E1E1E1E1E1E1E1E1E1E1E1E1E1E1E1E1BEE1E1E1E128E1E1E1E1E1E1E1E1E1E1E1E1E1E1E1E1
310
E1E1E1E1E1E1E1E1E1E1E1E1E1E1E1E1E1E1E1E1E1E1E1E1E1E1E1E1E1E1E1E1E1E1E1E1E1E1E1E1E1E1E1E1E1E1E1E1E1E1E1E1E1E1E1E1E1E1E1E1E1E1E1E1E1E1E1E1E1E1E1E1E1E1E1E1E1E1E1E1E1E1E1E1E1E1E1E1E1E1E1E1E1E1E1E1E1E1E1E1E1E1E1E1E1E1E1E1E1E1E1E1E1E10F0F0F0F0F0FE1E1E1E10FE1E1
310
E1E1E1E1BEE1E1E1E1E1E1E1E1E1E128BEE1E1E1E1E1E1E1E1E1E1E1E1E1E1E1E1E1E1E1E1E1E1E1E1E1E1E1E1E1E1E1E1E1E1E1E1E1E1E1E1E1E1E1E1E1E1E1E1E1E1E1E1E1E1E1E1E1E1E1E1E1E1E1E1E1E1E1E1E1E1E1E1E1E1E1E1E1E1E1E1E1E1E1E1E1E1E1E1E1E1BEE1E1E1E128E1E1E1E1E1E1E1E1E1E1E1E1E1E1
310
E1E1E1E1E1E1E1E1E1E1E1E1E1E1E1E1E1E1E1E1E1E1E1E1E1E1E1E1E1E1E1E1E1E1E1E1E1E1E1E1E1E1E1E1E1E1E1E1E1E1E1E1E1E1E1E1E1E1E1E1E1E1E1E1E1E1E1E1E1E1E1E1E1E1E1E1E1E1E1E1E1E1E1E1E1E1E1E1E1E1E1E1E1E1E1E1E1E1E1E1E1E1E1E1E1E1E1E1E1E1E1E1E1E1E1E10F0F0F0F0F0F0F0F0F0F0F
310
0F0F0F0F0F0FBE0F0F0F0F0F0F0F0F0F0F0FBEE1E1E1E1E1E1E1E1E1E1E1E1E1E1E1E1E1E1E1E1E1E1E1E1E1E1E1E1E1E1E1E1E1E1E1E1E1E1E1E1E1E1E1E1E1E1E1E1E1E1E1E1E1E1E1E1E1E1E1E1E1E1E1E1E1E1E1E1E1E1E1E1E1E1E1E1E1E1E1E1E1E1E1E1E1E1E1E1E1E1BEE1E1E1E128E1E1E1E1E1E1E1E1E1E1E1E1
310
E1E1E1E1E1E1E1E1E1E1E1E1E1E1E1E1E1E1E1E1E1E1E1E1E1E1E1E1E1E1E1E1E1E1E1E1E1E1E1E1E1E1E1E1E1E1E1E1E1E1E1E1E1E1E1E1E1E1E1E1E1E1E1E1E1E1E1E1E1E1E1E1E1E1E1E1E1E1E1E1E1E1E1E1E1E1E1E1E1E1E1E1E1E1E1E1E1E1E1E1E1E1E1E1E1E1E1E1E1E1E1E1E1E1E1E1E1E10F0F0F0F0F0F0F0F0F
310
0F0F0F0F0F0F0F0FBE0F0F0F0F0F0F0F0F0F0F0FBEE1E1E1E1E1E1E1E1E1E1E1E1E1E1E1E1E1E1E1E1E1E1E1E1E1E1E1E1E1E1E1E1E1E1E1E1E1E1E1E1E1E1E1E1E1E1E1E1E1E1E1E1E1E1E1E1E1E1E1E1E1E1E1E1E1E1E1E1E1E1E1E1E1E1E1E1E1E1E1E1E1E1E1E1E1E1E1E1E1E1BEE1E1E1E128E1E1E1E1E1E1E1E1E1E1
310
E1E1E1E1E1E1E1E1E1E1E1E1E1E1E1E1E1E1E1E1E1E1E1E1E1E1E1E1E1E1E1E1E1E1E1E1E1E1E1E1E1E1E1E1E1E1E1E1E1E1E1E1E1E1E1E1E1E1E1E1E1E1E1E1E1E1E1E1E1E1E1E1E1E1E1E1E1E1E1E1E1E1E1E1E1E1E1E1E1E1E1E1E1E1E1E1E1E1E1E1E1E1E1E1E1E1E1E1E1E1E1E1E1E1E1E1E1E1E1E10F0F0F0F0F0F0F
310
0F0F0F0F0F0F0F0FE10F0F0F0F0F0F0FE10F0FE10F28BEE1E1E1E1E1E1E1E1E1E1E1E1E1E1E1E1E1E1E1E1E1E1E1E1E1E1E1E1E1E1E1E1E1E1E1E1E1E1E1E1E1E1E1E1E1E1E1E1E1E1E1E1E1E1E1E1E1E1E1E1E1E1E1E1E1E1E1E1E1E1E1E1E1E1E1E1E1E1E1E1E1E1E1E1E1E1E1E1E1E1BEE1E1E1E128E1E1E1E1E1E1E1E1
310
E1E1E1E1E1E1E1E1E1E1E1E1E1E1E1E1E1E1E1E1E1E1E1E1E1E1E1E1E1E1E1E1E1E1E1E1E1E1E1E1E1E1E1E1E1E1E1E1E1E1E1E1E1E1E1E1E1E1E1E1E1E1E1E1E1E1E1E1E1E1E1E1E1E1E1E1E1E1E1E1E1E1E1E1E1E1E1E1E1E1E1E1E1E1E1E1E1E1E1E1E1E1E1E1E1E1E1E1E1E1E1E1E1E1E1E1E1E1E1E1E1E10F0F0F0FE1
310
E1E1E10F0F0F0F0FE1E1E1E1E1E1E1E1E1E1E1E1E1E1E128BEE1E1E1E1E1E1E1E1E1E1E1E1E1E1E1E1E1E1E1E1E1E1E1E1E1E1E1E1E1E1E1E1E1E1E1E1E1E1E1E1E1E1E1E1E1E1E1E1E1E1E1E1E1E1E1E1E1E1E1E1E1E1E1E1E1E1E1E1E1E1E1E1E1E1E1E1E1E1E1E1E1E1E1E1E1E1E1E1E1E1BEE1E1E1E128E1E1E1E1E1E1
310
E1E1E1E1E1E1E1E1E1E1E1E1E1E1E1E1E1E1E1E1E1E1E1E1E1E1E1E1E1E1E1E1E1E1E1E1E1E1E1E1E1E1E1E1E1E1E1E1E1E1E1E1E1E1E1E1E1E1E1E1E1E1E1E1E1E1E1E1E1E1E1E1E1E1E1E1E1E1E1E1E1E1E1E1E1E1E1E1E1E1E1E1E1E1E1E1E1E1E1E1E1E1E1E1E1E1E1E1E1E1E1E1E1E1E1E1E1E1E1E1E1E1E1E10FBEBE
310
BEBEBEBE0F0F0F0F0F0F0F0F0F0F0F0F0F0F0F0F0F0F0F0F0F0FBEE1E1E1E1E1E1E1E1E1E1E1E1E1E1E1E1E1E1E1E1E1E1E1E1E1E1E1E1E1E1E1E1E1E1E1E1E1E1E1E1E1E1E1E1E1E1E1E1E1E1E1E1E1E1E1E1E1E1E1E1E1E1E1E1E1E1E1E1E1E1E1E1E1E1E1E1E1E1E1E1E1E1E1E1E1E1E1E1E1E1BEE1E1E1E128E1E1E1E1
310
E1E1E1E1E1E1E1E1E1E1E1E1E1E1E1E1E1E1E1E1E1E1E1E1E1E1E1E1E1E1E1E1E1E1E1E1E1E1E1E1E1E1E1E1E1E1E1E1E1E1E1E1E1E1E1E1E1E1E1E1E1E1E1E1E1E1E1E1E1E1E1E1E1E1E1E1E1E1E1E1E1E1E1E1E1E1E1E1E1E1E1E1E1E1E1E1E1E1E1E1E1E1E1E1E1E1E1E1E1E1E1E1E1E1E1E1E1E1E1E1E1E1E1E1E1E10F
310
BEBEBEBEBEBEBEE1E10FE1E1E1E1E1E1E1E1E1E1E1E2E2E2E2E2E228BEE1E1E1E1E1E1E1E1E1E1E1E1E1E1E1E1E1E1E1E1E1E1E1E1E1E1E1E1E1E1E1E1E1E1E1E1E1E1E1E1E1E1E1E1E1E1E1E1E1E1E1E1E1E1E1E1E1E1E1E1E1E1E1E1E1E1E1E1E1E1E1E1E1E1E1E1E1E1E1E1E1E1E1E1E1E1E1E1E1E1BEE1E1E1E128E1E1
310
E1E1E1E1E1E1E1E1E1E1E1E1E1E1E1E1E1E1E1E1E1E1E1E1E1E1E1E1E1E1E1E1E1E1E1E1E1E1E1E1E1E1E1E1E1E1E1E1E1E1E1E1E1E1E1E1E1E1E1E1E1E1E1E1E1E1E1E1E1E1E1E1E1E1E1E1E1E1E1E1E1E1E1E1E1E1E1E1E1E1E1E1E1E1E1E1E1E1E1E1E1E1E1E1E1E1E1E1E1E1E1E1E1E1E1E1E1E1E1E1E1E1E1E1E1E1E1
310
E1BEBEBEBEBEBEBEBEBEBEBEE1E1E1E1E1E1E1E1E1E1E1E2E2E2E2E2E228BEE1E1E1E1E1E1E1E1E1E1E1E1E1E1E1E1E1E1E1E1E1E1E1E1E1E1E1E1E1E1E1E1E1E1E1E1E1E1E1E1E1E1E1E1E1E1E1E1E1E1E1E1E1E1E1E1E1E1E1E1E1E1E1E1E1E1E1E1E1E1E1E1E1E1E1E1E1E1E1E1E1E1E1E1E1E1E1E1E1E1BEE1E1E1E128
310
E1E1E1E1E1E1E1E1E1E1E1E1E1E1E1E1E1E1E1E1E1E1E1E1E1E1E1E1E1E1E1E1E1E1E1E1E1E1E1E1E1E1E1E1E1E1E1E1E1E1E1E1E1E1E1E1E1E1E1E1E1E1E1E1E1E1E1E1E1E1E1E1E1E1E1E1E1E1E1E1E1E1E1E1E1E1E1E1E1E1E1E1E1E1E1E1E1E1E1E1E1E1E1E1E1E1E1E1E1E1E1E1E1E1E1E1E1E1E1E1E1E1E1E1E1E1E1
310
E1E1E10FBEE1E1BEBEE1E1E1E10FE1E1E1E1E1E1E1E1E1E1E1E1BEE2E2E2E2E2BEE1E1E1E1E1E1E1E1E1E1E1E1E1E1E1E1E1E1E1E1E1E1E1E1E1E1E1E1E1E1E1E1E1E1E1E1E1E1E1E1E1E1E1E1E1E1E1E1E1E1E1E1E1E1E1E1E1E1E1E1E1E1E1E1E1E1E1E1E1E1E1E1E1E1E1E1E1E1E1E1E1E1E1E1E1E1E1E1E1E1BEE1E1E1
310
E128E1E1E1E1E1E1E1E1E1E1E1E1E1E1E1E1E1E1E1E1E1E1E1E1E1E1E1E1E1E1E1E1E1E1E1E1E1E1E1E1E1E1E1E1E1E1E1E1E1E1E1E1E1E1E1E1E1E1E1E1E1E1E1E1E1E1E1E1E1E1E1E1E1E1E1E1E1E1E1E1E1E1E1E1E1E1E1E1E1E1E1E1E1E1E1E1E1E1E1E1E1E1E1E1E1E1E1E1E1E1E1E1E1E1E1E1E1E1E1E1E1E1E1E1E1
310
E1E1E1E1E10FBEE1E1BEBEE1E1E1E10FE1E1E1E1E1E1E1E1E1E1E1E1BEBEE2E2E2E2BEE1E1E1E1E1E1E1E1E1E1E1E1E1E1E1E1E1E1E1E1E1E1E1E1E1E1E1E1E1E1E1E1E1E1E1E1E1E1E1E1E1E1E1E1E1E1E1E1E1E1E1E1E1E1E1E1E1E1E1E1E1E1E1E1E1E1E1E1E1E1E1E1E1E1E1E1E1E1E1E1E1E1E1E1E1E1E1E1E1E1BEE1
310
E1E1BEBEE1E1E1E1E1E1E1E1E1E1E1E1E1E1E1E1E1E1E1E1E1E1E1E1E1E1E1E1E1E1E1E1E1E1E1E1E1E1E1E1E1E1E1E1E1E1E1E1E1E1E1E1E1E1E1E1E1E1E1E1E1E1E1E1E1E1E1E1E1E1E1E1E1E1E1E1E1E1E1E1E1E1E1E1E1E1E1E1E1E1E1E1E1E1E1E1E1E1E1E1E1E1E1E1E1E1E1E1E1E1E1E1E1E1E1E1E1E1E1E1E1E1E1
310
E1E1E1E1E1E1E10FBEE1E1BEBEE1E1E1E10FE1E1E1E1E1E1E1E1E1E1E1E1BEBEBEE2BEE2BEE1E1E1E1E1E1E1E1E1E1E1E1E1E1E1E1E1E1E1E1E1E1E1E1E1E1E1E1E1E1E1E1E1E1E1E1E1E1E1E1E1E1E1E1E1E1E1E1E1E1E1E1E1E1E1E1E1E1E1E1E1E1E1E1E1E1E1E1E1E1E1E1E1E1E1E1E1E1E1E1E1E1E1E1E1E1E1E1E1E1
310
BEE1E1E1BEBEE1E1E1E1E1E1E1E1E1E1E1E1E1E1E1E1E1E1E1E1E1E1E1E1E1E1E1E1E1E1E1E1E1E2E2E2E2E2E2E2E2E2E2E2E2E2E2E2E2E2E2E2E2E2E2E2E2E2E2E2E2E2E2E2E2E2E2E2E2E2E2E2E2E2E2E2E2E2E2E2E2E2E2E2E2E2E2E2E2E2E2E2E2E2E2E2E2E2E2E2E2E2E2E2E2E2E2E2E2E2E2E2E2E2E2E2E2E2E2E2E2
310
E1E1E1E1E1E1E1E1E10FBEE1E1BEBEE1E1E1E10FE1E1E1E1E1E1E1E1E1E1E1E1E1E1E1E1E128BEE1E1E1E1E1E1E1E1E1E1E1E1E1E1E1E1E1E1E1E1E1E1E1E1E1E1E1E1E1E1E1E1E1E1E1E1E1E1E1E1E1E1E1E1E1E1E1E1E1E1E1E1E1E1E1E1E1E1E1E1E1E1E1E1E1E1E1E1E1E1E1E1E1E1E1E1E1E1E1E1E1E1E1E1E1E1E1E1
310
E1E1BEE1E1E1BEBEE1E1E1E1E1E1E1E1E1E1E1E1E1E1E1E1E1E1E1E1E1E1E1E1E1E1E1E1E1E1E1E1E1E2E2E2E2E2E2E2E2E2E2E2E2E2E2E2E2E2E2E2E2E2E2E2E2E2E2E2E2E2E2E2E2E2E2E2E2E2E2E2E2E2E2E2E2E2E2E2E2E2E2E2E2E2E2E2E2E2E2E2E2E2E2E2E2E2E2E2E2E2E2E2E2E2E2E2E2E2E2E2E2E2E2E2E2E2E2
310
E2E2E1E1E1E1E1E1E1E1E10FBEE1E1BEBEE1E1E1E10FE1E1E1E1E1E1E1E1E1E1E1E1E1E1E1E1E128BEE1E1E1E1E1E1E1E1E1E1E1E1E1E1E1E1E1E1E1E1E1E1E1E1E1E1E1E1E1E1E1E1E1E1E1E1E1E1E1E1E1E1E1E1E1E1E1E1E1E1E1E1E1E1E1E1E1E1E1E1E1E1E1E1E1E1E1E1E1E1E1E1E1E1E1E1E1E1E1E1E1E1E1E1E1E1
310
E1E1E1E1BEE1E1E1BEBEE1E1E1E1E1E1E1E1E1E1E1E1E1E1E1E1E1E1E1E1E1E1E1E1E1E1E1E1E1E1E1E1E1E2E2E2E2E2E2E2E2E2E2E2E2E2E2E2E2E2E2E2E2E2E2E2E2E2E2E2E2E2E2E2E2E2E2E2E2E2E2E2E2E2E2E2E2E2E2E2E2E2E2E2E2E2E2E2E2E2E2E2E2E2E2E2E2E2E2E2E2E2E2E2E2E2E2E2E2E2E2E2E2E2E2E2E2
310
E2E2E2E2E1E1E1E1E1E1E1E1E10FBEE1E1BEBEE1E1E1E10FE1E1E1E1E1E1E1E1E1E1E1E1E1E1E1E1E128BEE1E1E1E1E1E1E1E1E1E1E1E1E1E1E1E1E1E1E1E1E1E1E1E1E1E1E1E1E1E1E1E1E1E1E1E1E1E1E1E1E1E1E1E1E1E1E1E1E1E1E1E1E1E1E1E1E1E1E1E1E1E1E1E1E1E1E1E1E1E1E1E1E1E1E1E1E1E1E1E1E1E1E1E1
310
E1E1E1E1E1E1BEE1E1E1BEBEE1E1E1E1E1E1E1E1E1E1E1E1E1E1E1E1E1E1E1E1E1E1E1E1E1E1E1E1E1E1E1E1E1E2E2E2E2E1E1E1E1E1E1E1E1E1E1E1E1E1E1E1E1E1E1E1E1E1E1E1E1E1E1E1E1E1E1E1E1E1E1E1E1E1E1E1BEE1E1E1E1E1E1E1E1E1E1E1E1E1E1E1E1E1E1E1E1E1E1E1E1E1E1E1E1E1E1E1E1E1E1E1E1E1E1
310
E1E1E2E2E2E2E1E1E1E1E1E1E1E1E10F0F0F0FBE0F0F0F0F0F0F0F0F0F0F0F0F0F0F0F0F0F0F0F0F0F0F0F0FBEE1E1E1E1E1E1E1E1E1E1E1E1E1E1E1E1E1E1E1E1E1E1E1E1E1E1E1E1E1E1E1E1E1E1E1E1E1E1E1E1E1E1E1E1E1E1E1E1E1E1E1E1E1E1E1E1E1E1E1E1E1E1E1E1E1E1E1E1E1E1E1E1E1E1E1E1E1E1E1E1E1E1
310
E1E1E1E1E1E1E1E1BEE1E1E1BEBEE1E1E1E1E1E1E1E1E1E1E1E1E1E1E1E1E1E1E1E1E1E1E1E1E1E1E1E1E1E1E1E1E1E2E2E2E2E1E1E1E1E1E1E1E1E1E1E1E1E1E1E1E1E1E1E1E1E1E1E1E1E1E1E1E1E1E1E1E1E1E1E1E1E1E1E1BEE1E1E1E1E1E1E1E1E1E1E1E1E1E1E1E1E1E1E1E1E1E1E1E1E1E1E1E1E1E1E1E1E1E1E1E1
310
E1E1E1E1E2E2E1E2E1E1E1E1E1E1E1E1E10FE2E2E1E1E1E1E1E1E1E1E1E1E1E1E1E1E1E1E1E1E1E1E1E1E1E1E128BEE1E1E1E1E1E1E1E1E1E1E1E1E1E1E1E1E1E1E1E1E1E1E1E1E1E1E1E1E1E1E1E1E1E1E1E1E1E1E1E1E1E1E1E1E1E1E1E1E1E1E1E1E1E1E1E1E1E1E1E1E1E1E1E1E1E1E1E1E1E1E1E1E1E1E1E1E1E1E1E1
310
E1E1E1E1E1E1E1E1E1E1BEE1E1E1BEBEE1E1E1E1E1E1E1E1E1E1E1E1E1E1E1E1E1E1E1E1E1E1E1E1E1E1E1E1E1E1E1E1E1E2E2E2E2E1E1E1E1E1E1E1E1E1E1E1E1E1E1E1E1E1E1E1E1E1E1E1E1E1E1E1E1E1E1E1E1E1E1E1E1E1E1E1BEE1E1E1E1E1E1E1E1E1E1E1E1E1E1E1E1E1E1E1E1E1E1E1E1E1E1E1E1E1E1E1E1E1E1
310
E1E1E1E1E1E1E2E2E1E2E1E1E1E1E1E1E1E1E10FE1E1E1E1E1E1E1E1E1E1E1E1E1E1E1E1E1E1E1E1E1E1E1E1E1E1E128BEE1E1E1E1E1E1E1E1E1E1E1E1E1E1E1E1E1E1E1E1E1E1E1E1E1E1E1E1E1E1E1E1E1E1E1E1E1E1E1E1E1E1E1E1E1E1E1E1E1E1E1E1E1E1E1E1E1E1E1E1E1E1E1E1E1E1E1E1E1E1E1E1E1E1E1E1E1E1
310
E1E1E1E1E1E1E1E1E1E1E1E1BEE1E1E1BEBEE1E1E1E1E1E1E1E1E1E1E1E1E1E1E1E1E1E1E1E1E1E1E1E1E1E1E1E1E1E1E1E1E1E2E2E2E2E1E1E1E1E1E1E1E1E1E1E1E1E1E1E1E1E1E1E1E1E1E1E1E1E1E1E1E1E1E1E1E1E1E1E1E1E1E1E1BEE1E1E1E1E1E1E1E1E1E1E1E1E1E1E1E1E1E1E1E1E1E1E1E1E1E1E1E1E1E1E1E1
310
E1E1E1E1E1E1E1E1E2E2E1E2E1E1E1E1E1E1E1E1E10FE2E2E2E2E2E2E2E2E2E2E2E2E2E2E2E2E2E2E2E2E2E2E2E2E2E2E228BEE1E1E1E1E1E1E1E1E1E1E1E1E1E1E1E1E1E1E1E1E1E1E1E1E1E1E1E1E1E1E1E1E1E1E1E1E1E1E1E1E1E1E1E1E1E1E1E1E1E1E1E1E1E1E1E1E1E1E1E1E1E1E1E1E1E1E1E1E1E1E1E1E1E1E1E1
310
E1E1E1E1E1E1E1E1E1E1E1E1E1E1BEE1E1E1BEBEE1E1E1E1E1E1E1E1E1E1E1E1E1E1E1E1E1E1E1E1E1E1E1E1E1E1E1E1E1E1E1E1E1E2E2E2E2E1E1E1E1E1E1E1E1E1E1E1E1E1E1E1E1E1E1E1E1E1E1E1E1E1E1E1E1E1E1E1E1E1E1E1E1E1E1E1BEE1E1E1E1E1E1E1E1E1E1E1E1E1E1E1E1E1E1E1E1E1E1E1E1E1E1E1E1E1E1
310
E1E1E1E1E1E1E1E1E1E1E2E2E1E2E1E1E1E1E1E1E1E1E10FE2E2E2E2E2E2E2E2E2E2E2E2E2E2E2E2E2E2E2E2E2E2E2E2E2E2E228BEE1E1E1E1E1E1E1E1E1E1E1E1E1E1E1E1E1E1E1E1E1E1E1E1E1E1E1E1E1E1E1E1E1E1E1E1E1E1E1E1E1E1E1E1E1E1E1E1E1E1E1E1E1E1E1E1E1E1E1E1E1E1E1E1E1E1E1E1E1E1E1E1E1E1
310
E1E1E1E1E1E1E1E1E1E1E1E1E1E1E1E1BEE1E1E1BEBEE1E1E1E1E1E1E1E1E1E1E1E1E1E1E1E1E1E1E1E1E1E1E1E1E1E1E1E1E1E1E1E1E1E2E2E2E2E1E1E1E1E1E1E1E1E1E1E1E1E1E1E1E1E1E1E1E1E1E1E1E1E1E1E1E1E1E1E1E1E1E1E1E1E1E1E1BEE1E1E1E1E1E1E1E1E1E1E1E1E1E1E1E1E1E1E1E1E1E1E1E1E1E1E1E1
310
E1E1E1E1E1E1E1E1E1E1E1E1E2E2E1E2E1E1E1E1E1E1E1E1E10FE2E2E2E2E2E2E2E2E2E2E2E1E1E1E1E1E1E1E1E1E1E1E1E1E1E1E128BEE1E1E1E1E1E1E1E1E1E1E1E1E1E1E1E1E1E1E1E1E1E1E1E1E1E1E1E1E1E1E1E1E1E1E1E1E1E1E1E1E1E1E1E1E1E1E1E1E1E1E1E1E1E1E1E1E1E1E1E1E1E1E1E1E1E1E1E1E1E1E1E1
310
E1E1E1E1E1E1E1E1E1E1E1E1E1E1E1E1E1E1BEE1E1E1BEBEE1E1E1E1E1E1E1E1E1E1E1E1E1E1E1E1E1E1E1E1E1E1E1E1E1E1E1E1E1E1E1E1E1E2E2E2E2E1E1E1E1E1E1E1E1E1E1E1E1E1E1E1E1E1E1E1E1E1E1E1E1E1E1E1E1E1E1E1E1E1E1E1E1E1E1E1BEE1E1E1E1E1E1E1E1E1E1E1E1E1E1E1E1E1E1E1E1E1E1E1E1E1E1
310
E1E1E1E1E1E1E1E1E1E1E1E1E1E1E2E2E1E2E1E1E1E1E1E1E1E1E10FE2E2E2E2E2E2E2E2E2E2E2E1E1E1E1E1E1E1E1E1E1E1E1E1E1E1E128BEE1E1E1E1E1E1E1E1E1E1E1E1E1E1E1E1E1E1E1E1E1E1E1E1E1E1E1E1E1E1E1E1E1E1E1E1E1E1E1E1E1E1E1E1E1E1E1E1E1E1E1E1E1E1E1E1E1E1E1E1E1E1E1E1E1E1E1E1E1E1
310
E1E1E1E1E1E1E1E1E1E1E1E1E1E1E1E1E1E1E1E1BEE1E1E1BEBEE1E1E1E1E1E1E1E1E1E1E1E1E1E1E1E1E1E1E1E1E1E1E1E1E1E1E1E1E1E1E1E1E1E2E2E2E2E1E1E1E1E1E1E1E1E1E1E1E1E1E1E1E1E1E1E1E1E1E1E1E1E1E1E1E1E1E1E1E1E1E1E1E1E1E1E1BEE1E1E1E1E1E1E1E1E1E1E1E1E1E1E1E1E1E1E1E1E1E1E1E1
310
E1E1E1E1E1E1E1E1E1E1E1E1E1E1E1E1E2E2E1E2E1E1E1E1E1E1E1E1E10FE2E2E2E2E2E2E2E1E2E2E2E2E2E2E2E1E1E1E1E1E1E1E1E1E1E1E128BEE1E1E1E1E1E1E1E1E1E1E1E1E1E1E1E1E1E1E1E1E1E1E1E1E1E1E1E1E1E1E1E1E1E1E1E1E1E1E1E1E1E1E1E1E1E1E1E1E1E1E1E1E1E1E1E1E1E1E1E1E1E1E1E1E1E1E1E1
310
E1E1E1E1E1E1E1E1E1E1E1E1E1E1E1E1E1E1E1E1E1E1BEE1E1E1BEBEE1E1E1E1E1E1E1E1E1E1E1E1E1E1E1E1E1E1E1E1E1E1E1E1E1E1E1E1E1E1E1E1E1E2E2E2E2E1E1E1E1E1E1E1E1E1E1E1E1E1E1E1E1E1E1E1E1E1E1E1E1E1E1E1E1E1E1E1E1E1E1E1E1E1E1E1BEE1E1E1E1E1E1E1E1E1E1E1E1E1E1E1E1E1E1E1E1E1E1
310
E1E1E1E1E1E1E1E1E1E1E1E1E1E1E1E1E1E1E2E2E1E2E1E1E1E1E1E1E1E1E10F0FE2E2E2E2E20FE20FE2E2E2E20F0F0F0F0F0F0F0F0F0F0F0F0F0F0FBEE1E1E1E1E1E1E1E1E1E1E1E1E1E1E1E1E1E1E1E1E1E1E1E1E1E1E1E1E1E1E1E1E1E1E1E1E1E1E1E1E1E1E1E1E1E1E1E1E1E1E1E1E1E1E1E1E1E1E1E1E1E1E1E1E1E1
310
E1E1E1E1E1E1E1E1E1E1E1E1E1E1E1E1E1E1E1E1E1E1E1E1BEE1E1E1BEBEE1E1E1E1E1E1E1E1E1E1E1E1E1E1E1E1E1E1E1E1E1E1E1E1E1E1E1E1E1E1E1E1E1E2E2E2E2E1E1E1E1E1E1E1E1E1E1E1E1E1E1E1E1E1E1E1E1E1E1E1E1E1E1E1E1E1E1E1E1E1E1E1E1E1E1E1BEE1E1E1E1E1E1E1E1E1E1E1E1E1E1E1E1E1E1E1E1
310
E1E1E1E1E1E1E1E1E1E1E1E1E1E1E1E1E1E1E1E1E2E2E1E2E1E1E1E1E1E1E1E1E10FBEE1E1E1E1E1E1E1E1E1E1E1E1E1E1E1E1E1E1E1E1E1E1E1E1E1E128BEE1E1E1E1E1E1E1E1E1E1E1E1E1E1E1E1E1E1E1E1E1E1E1E1E1E1E1E1E1E1E1E1E1E1E1E1E1E1E1E1E1E1E1E1E1E1E1E1E1E1E1E1E1E1E1E1E1E1E1E1E1E1E1E1
310
E1E1E1E1E1E1E1E1E1E1E1E1E1E1E1E1E1E1E1E1E1E1E1E1E1E1BEE1E1E1BEBEE1E1E1E1E1E1E1E1E1E1E1E1E1E1E1E1E1E1E1E1E1E1E1E1E1E1E1E1E1E1E1E1E1E2E2E2E2E1E1E1E1E1E1E1E1E1E1E1E1E1E1E1E1E1E1E1E1E1E1E1E1E1E1E1E1E1E1E1E1E1E1E1E1E1E1E1BEE1E1E1E1E1E1E1E1E1E1E1E1E1E1E1E1E1E1
310
E1E1E1E1E1E1E1E1E1E1E1E1E1E1E1E1E1E1E1E1E1E1E2E2E1E2E1E1E1E1E1E1E1E1E10FBEBEBEBEBEBEBEBEBEBEBEBEBEBEBEBEBEBEBEBEBEBEBEBEBEBEE128BEE1E1E1E1E1E1E1E1E1E1E1E1E1E1E1E1E1E1E1E1E1E1E1E1E1E1E1E1E1E1E1E1E1E1E1E1E1E1E1E1E1E1E1E1E1E1E1E1E1E1E1E1E1E1E1E1E1E1E1E1E1E1
310
E1E1E1E1E1E1E1E1E1E1E1E1E1E1E1E1E1E1E1E1E1E1E1E1E1E1E1E1BEE1E1E1BEBEE1E1E1E1E1E1E1E1E1E1E1E1E1E1E1E1E1E1E1E1E1E1E1E1E1E1E1E1E1E1E1E1E1E2E2E2E2E1E1E1E1E1E1E1E1E1E1E1E1E1E1E1E1E1E1E1E1E1E1E1E1E1E1E1E1E1E1E1E1E1E1E1E1E1E1E1BEE1E1E1E1E1E1E1E1E1E1E1E1E1E1E1E1
310
E1E1E1E1E1E1E1E1E1E1E1E1E1E1E1E1E1E1E1E1E1E1E1E1E2E2E1E2E1E1E1E1E1E1E1E1E10FE1E1E1E1E1E1E2E2E2E2E2E2E2E2E2E2E2E2E2E1E1E1E1E1E1E1E128BEE1E1E1E1E1E1E1E1E1E1E1E1E1E1E1E1E1E1E1E1E1E1E1E1E1E1E1E1E1E1E1E1E1E1E1E1E1E1E1E1E1E1E1E1E1E1E1E1E1E1E1E1E1E1E1E1E1E1E1E1
310
E1E1E1E1E1E1E1E1E1E1E1E1E1E1E1E1E1E1E1E1E1E1E1E1E1E1E1E1E1E1BEE1E1E1BEBEE1E1E1E1E1E1E1E1E1E1E1E1E1E1E1E1E1E1E1E1E1E1E1E1E1E1E1E1E1E1E1E1E1E2E2E2E2E1E1E1E1E1E1E1E1E1E1E1E1E1E1E1E1E1E1E1E1E1E1E1E1E1E1E1E1E1E1E1E1E1E1E1E1E1E1E1BEE1E1E1E1E1E1E1E1E1E1E1E1E1E1
310
E1E1E1E1E1E1E1E1E1E1E1E1E1E1E1E1E1E1E1E1E1E1E1E1E1E1E2E2E1E2E1E1E1E1E1E1E1E1E10FE1E1E1E1E1E1E2E2E2E2E2E2E2E2E2E2E2E2E2E1E1E1E1E1E1E1E128BEE1E1E1E1E1E1E1E1E1E1E1E1E1E1E1E1E1E1E1E1E1E1E1E1E1E1E1E1E1E1E1E1E1E1E1E1E1E1E1E1E1E1E1E1E1E1E1E1E1E1E1E1E1E1E1E1E1E1
310
E1E1E1E1E1E1E1E1E1E1E1E1E1E1E1E1E1E1E1E1E1E1E1E1E1E1E1E1E1E1E1E1BEE1E1E1BEBEE1E1E1E1E1E1E1E1E1E1E1E1E1E1E1E1E1E1E1E1E1E1E1E1E1E1E1E1E1E1E1E1E1E2E2E2E2E1E1E1E1E1E1E1E1E1E1E1E1E1E1E1E1E1E1E1E1E1E1E1E1E1E1E1E1E1E1E1E1E1E1E1E1E1E1E1BEE1E1E1E1E1E1E1E1E1E1E1E1
310
E1E1E1E1E1E1E1E1E1E1E1E1E1E1E1E1E1E1E1E1E1E1E1E1E1E1E1E1E2E2E1E2E1E1E1E1E1E1E1E1E10F0F0F0F0F0F0F0F0F0F0F0F0F0F0F0F0F0F0F0FE1E1E1E1E1E1E1E128BEE1E1E1E1E1E1E1E1E1E1E1E1E1E1E1E1E1E1E1E1E1E1E1E1E1E1E1E1E1E1E1E1E1E1E1E1E1E1E1E1E1E1E1E1E1E1E1E1E1E1E1E1E1E1E1E1
310
E1E1E1E1E1E1E1E1E1E1E1E1E1E1E1E1E1E1E1E1E1E1E1E1E1E1E1E1E1E1E1E1E1E1BEE1E1E1BEBEE1E1E1E1E1E1E1E1E1E1E1E1E1E1E1E1E1E1E1E1E1E1E1E1E1E1E1E1E1E1E1E1E1E2E2E2E2E1E1E1E1E1E1E1E1E1E1E1E1E1E1E1E1E1E1E1E1E1E1E1E1E1E1E1E1E1E1E1E1E1E1E1E1E1E1E1BEE1E1E1E1E1E1E1E1E1E1
310
E1E1E1E1E1E1E1E1E1E1E1E1E1E1E1E1E1E1E1E1E1E1E1E1E1E1E1E1E1E1E2E2E1E2E1E1E1E1E1E1E1E1E10F0F0F0F0F0F0F0F0F0F0F0F0F0F0F0F0F0F0F0F0F0F0F0F0F0F0FBE0FBEE1E1E1E1E1E1E1E1E1E1E1E1E1E1E1E1E1E1E1E1E1E1E1E1E1E1E1E1E1E1E1E1E1E1E1E1E1E1E1E1E1E1E1E1E1E1E1E1E1E1E1E1E1E1
310
E1E1E1E1E1E1E1E1E1E1E1E1E1E1E1E1E1E1E1E1E1E1E1E1E1E1E1E1E1E1E1E1E1E1E1E1BEE1E1E1BEBEE1E1E1E1E1E1E1E1E1E1E1E1E1E1E1E1E1E1E1E1E1E1E1E1E1E1E1E1E1E1E1E1E1E2E2E2E2E1E1E1E1E1E1E1E1E1E1E1E1E1E1E1E1E1E1E1E1E1E1E1E1E1E1E1E1E1E1E1E1E1E1E1E1E1E1E1BEE1E1E1E1E1E1E1E1
310
E1E1E1E1E1E1E1E1E1E1E1E1E1E1E1E1E1E1E1E1E1E1E1E1E1E1E1E1E1E1E1E2E2E2E1E2E1E1E1E1E1E1E1E1E10FBEBEBEBEE1E1E1E2E2E1E1E1E1E1E1E1E1E1E1E1E1E1BE0FBE0FBE0FBEE1E1E1E1E1E1E1E1E1E1E1E1E1E1E1E1E1E1E1E1E1E1E1E1E1E1E1E1E1E1E1E1E1E1E1E1E1E1E1E1E1E1E1E1E1E1E1E1E1E1E1E1
310
E1E1E1E1E1E1E1E1E1E1E1E1E1E1E1E1E1E1E1E1E1E1E1E1E1E1E1E1E1E1E1E1E1E1E1E1E1E1BEE1E1E1BEBEE1E1E1E1E1E1E1E1E1E1E1E1E1E1E1E1E1E1E1E1E1E1E1E1E1E1E1E1E1E1E1E1E1E2E2E2E2E2E2E2E2E2E2E2E2E2E2E2E2E2E2E2E2E2E2E2E2E2E2E2E2E2E2E2E2E2E2E2E2E2E2E2E2E2E2E2E2E2E2E2E2E2E2
310
E2E2E2E2E2E2E2E2E2E2E2E2E2E2E2E2E2E2E2E2E2E2E2E2E2E2E2E2E2E2E2E2E2E2E2E2BEE2E1E1E1E1E1E1E1E1E10FBEBEBEBEBEBEE2E2E2E1E1E1E1E1E1E1E1E1E1E1E1E1E10F0F0FBE0FBEE1E1E1E1E1E1E1E1E1E1E1E1E1E1E1E1E1E1E1E1E1E1E1E1E1E1E1E1E1E1E1E1E1E1E1E1E1E1E1E1E1E1E1E1E1E1E1E1E1E1
310
E1E1E1E1E1E1E1E1E1E1E1E1E1E1E1E1E1E1E1E1E1E1E1E1E1E1E1E1E1E1E1E1E1E1E1E1E1E1E1E1BEE1E1E1BEBEE1E1E1E1E1E1E1E1E1E1E1E1E1E1E1E1E1E1E1E1E1E1E1E1E1E1E1E1E1E1E1E1E1E2E2E2E2E2E2E2E2E2E2E2E2E2E2E2E2E2E2E2E2E2E2E2E2E2E2E2E2E2E2E2E2E2E2E2E2E2E2E2E2E2E2E2E2E2E2E2E2
310
E2E2E2E2E2E2E2E2E2E2E2E2E2E2E2E2E2E2E2E2E2E2E2E2E2E2E2E2E2E2E2E2E2E2E2E2E2E2E2E2E1E1E1E1E1E1E1E1E10FBEBEBEBEBEBE0F0F0F0F0F0F0F0F0F0F0F0F0F0F0F0FE1E1E1E1BE28BEE1E1E1E1E1E1E1E1E1E1E1E1E1E1E1E1E1E1E1E1E1E1E1E1E1E1E1E1E1E1E1E1E1E1E1E1E1E1E1E1E1E1E1E1E1E1E1E1
310
E1E1E1E1E1E1E1E1E1E1E1E1E1E1E1E1E1E1E1E1E1E1E1E1E1E1E1E1E1E1E1E1E1E1E1E1E1E1E1E1E1E1BEE1E1E1BEBEE1E1E1E1E1E1E1E1E1E1E1E1E1E1E1E1E1E1E1E1E1E1E1E1E1E1E1E1E1E1E1E1E1E1E1E1E1E1E1E1E1E1E1E1E1E1E1E1E1E1E1E1E1E1E1E1E1E1E1E1E1E1E1E1E1E1E1E1E1E1E1E1E1E1E1E1BEE1E1
310
E1E1E1E1E1E1E1E1E1E1E1E1E1E1E1E1E1E1E1E1E1E1E1E1E1E1E1E1E1E1E1E1E1E1E1E1E1E1E1E1E1E1E1E1E1E1E1E1E1E1E10FBEBEBEBEBEE10F0F0F0F0F0F0F0F0F0F0F0F0F0F0F0FE1E1E1E1E128BEE1E1E1E1E1E1E1E1E1E1E1E1E1E1E1E1E1E1E1E1E1E1E1E1E1E1E1E1E1E1E1E1E1E1E1E1E1E1E1E1E1E1E1E1E1E1
310
E1E1E1E1E1E1E1E1E1E1E1E1E1E1E1E1E1E1E1E1E1E1E1E1E1E1E1E1E1E1E1E1E1E1E1E1E1E1E1E1E1E1E1E1BEE1E1E1BEBEE1E1E1E1E1E1E1E1E1E1E1E1E1E1E1E1E1E1E1E1E1E1E1E1E1E1E1E1E1E1E1E1E1E1E1E1E1E1E1E1E1E1E1E1E1E1E1E1E1E1E1E1E1E1E1E1E1E1E1E1E1E1E1E1E1E1E1E1E1E1E1E1E1E1E1E1E1
310
E1E1E1E1E1E1E1E1E1E1E1E1E1E1E1E1E1E1E1E1E1E1E1E1E1E1E1E1E1E1E1E1E1E1E1E1E1E1E1E1E1E1E1E1E1E1E1E1E1E1E1E1E10FE1BEE1BEBEE10F0F0F0F0F0F0F0F0F0F0F0F0F0FE1E10FE1E1E1E128BEE1E1E1E1E1E1E1E1E1E1E1E1E1E1E1E1E1E1E1E1E1E1E1E1E1E1E1E1E1E1E1E1E1E1E1E1E1E1E1E1E1E1E1E1
310
E1E1E1E1E1E1E1E1E1E1E1E1E1E1E1E1E1E1E1E1E1E1E1E1E1E1E1E1E1E1E1E1E1E1E1E1E1E1E1E1E1E1E1E1E1E1BEE1E1E1BEBEE1E1E1E1E1E1E1E1E1E1E1E1E1E1E1E1E1E1E1E1E1E1E1E1E1E1E1E1E1E1E1E1E1E1E1E1E1E1E1E1E1E1E1E1E1E1E1E1E1E1E1E1E1E1E1E1E1E1E1E1E1E1E1E1E1E1E1E1E1E1E1E1E1E1E1
310
E1E1E1E1E1E1E1E1E1E1E1E1E1E1E1E1E1E1E1E1E1E1E1E1E1E1E1E1E1E1E1E1E1E1E1E1E1E1E1E1E1E1E1E1E1E1E1E1E1E1E1E1E1E1E10FE1E1BEE1E1E10F0F0F0F0F0F0F0F0F0F0F0F0F0F0F0F0FE1E1E1E128BEE1E1E1E1E1E1E1E1E1E1E1E1E1E1E1E1E1E1E1E1E1E1E1E1E1E1E1E1E1E1E1E1E1E1E1E1E1E1E1E1E1E1
310
E1E1E1E1E1E1E1E1E1E1E1E1E1E1E1E1E1E1E1E1E1E1E1E1E1E1E1E1E1E1E1E1E1E1E1E1E1E1E1E1E1E1E1E1E1E1E1E1BEE1E1E1BEBEE1E1E1E1E1E1E1E1E1E1E1E1E1E1E1E1E1E1E1E1E1E1E1E1E1E1E1E1E1E1E1E1E1E1E1E1E1E1E1E1E1E1E1E1E1E1E1E1E1E1E1E1E1E1E1E1E1E1E1E1E1E1E1E1E1E1E1E1E1E1E1E1E1
310
E1E1E1E1E1E1E1E1E1E1E1E1E1E1E1E1E1E1E1E1E1E1E1E1E1E1E1E1E1E1E1E1E1E1E1E1E1E1E1E1E1E1E1E1E1E1E1E1E1E1E1E1E1E1E1E1E10FBEBEBEBEBEBE0F0F0F0F0F0F0F0F0F0F0F0F0F0F0FE1E1E1E1E1E128BEE1E1E1E1E1E1E1E1E1E1E1E1E1E1E1E1E1E1E1E1E1E1E1E1E1E1E1E1E1E1E1E1E1E1E1E1E1E1E1E1
310
E1E1E1E1E1E1E1E1E1E1E1E1E1E1E1E1E1E1E1E1E1E1E1E1E1E1E1E1E1E1E1E1E1E1E1E1E1E1E1E1E1E1E1E1E1E1E1E1E1E1BEE1E1E1BEBEE1E1E1E1E1E1E1E1E1E1E1E1E1E1E1E1E1E1E1E1E1E1E1E1E1E1E1E1E1E1E1E1E1E1E1E1E1E1E1E1E1E1E1E1E1E1E1E1E1E1E1E1E1E1E1E1E1E1E1E1E1E1E1E1E1E1E1E1E1E1E1
310
E1E1E1E1E1E1E1E1E1E1E1E1E1E1E1E1E1E1E1E1E1E1E1E1E1E1E1E1E1E1E1E1E1E1E1E1E1E1E1E1E1E1E1E1E1E1E1E1E1E1E1E1E1E1E1E1E1E1E10F0F0F0F0F0F0F0F0F0F0F0F0F0F0F0F0F0F0F0F0F0F0F0F0F0F0F0F0FBEE1E1E1E1E1E1E1E1E1E1E1E1E1E1E1E1E1E1E1E1E1E1E1E1E1E1E1E1E1E1E1E1E1E1E1E1E1E1
310
E1E1E1E1E1E1E1E1E1E1E1E1E1E1E1E1E1E1E1E1E1E1E1E1E1E1E1E1E1E1E1E1E1E1E1E1E1E1E1E1E1E1E1E1E1E1E1E1E1E1E1E1BEE1E1E1BEBEE1E1E1E1E1E1E1E1E1E1E1E1E1E1E1E1E1E1E1E1E1E1E1E1E1E1E1E1E1E1E1E1E1E1E1E1E1E1E1E1E1E1E1E1E1E1E1E1E1E1E1E1E1E1E1E1E1E1E1E1E1E1E1E1E1E1E1E1E1
310
E1E1E1E1E1E1E1E1E1E1E1E1E1E1E1E1E1E1E1E1E1E1E1E1E1E1E1E1E1E1E1E1E1E1E1E1E1E1E1E1E1E1E1E1E1E1E1E1E1E1E1E1E1E1E1E1E1E1E1E1E10FE10FE1E1E1E1E1E1E1E1E1E1E1E1E1E1E1E1E1E1E1E1E1E1E1E1E128BEE1E1E1E1E1E1E1E1E1E1E1E1E1E1E1E1E1E1E1E1E1E1E1E1E1E1E1E1E1E1E1E1E1E1E1E1
310
E1E1E1E1E1E1E1E1E1E1E1E1E1E1E1E1E1E1E1E1E1E1E1E1E1E1E1E1E1E1E1E1E1E1E1E1E1E1E1E1E1E1E1E1E1E1E1E1E1E1E1E1E1E1BEE1E1E1BEBEE1E1E1E1E1E1E1E1E1E1E1E1E1E1E1E1E1E1E1E1E1E1E1E1E1E1E1E1E1E1E1E1E1E1E1E1E1E1E1E1E1E1E1E1E1E1E1E1E1E1E1E1E1E1E1E1E1E1E1E1E1E1E1E1E1E1E1
310
E1E1E1E1E1E1E1E1E1E1E1E1E1E1E1E1E1E1E1E1E1E1E1E1E1E1E1E1E1E1E1E1E1E1E1E1E1E1E1E1E1E1E1E1E1E1E1E1E1E1E1E1E1E1E1E1E1E1E1E1E1E1E10FBEBEBEBEBEBE0FE1E1E1E1E1E1E1E1E1E1E1E1E1E1E1E1E1E1E1E128BEE1E1E1E1E1E1E1E1E1E1E1E1E1E1E1E1E1E1E1E1E1E1E1E1E1E1E1E1E1E1E1E1E1E1
310
E1E1E1E1E1E1E1E1E1E1E1E1E1E1E1E1E1E1E1E1E1E1E1E1E1E1E1E1E1E1E1E1E1E1E1E1E1E1E1E1E1E1E1E1E1E1E1E1E1E1E1E1E1E1E1E1BEE1E1E1BEBEE1E1E1E1E1E1E1E1E1E1E1E1E1E1E1E1E1E1E1E1E1E1E1E1E1E1E1E1E1E1E1E1E1E1E1E1E1E1E1E1E1E1E1E1E1E1E1E1E1E1E1E1E1E1E1E1E1E1E1E1E1E1E1E1E1
310
E1E1E1E1E1E1E1E1E1E1E1E1E1E1E1E1E1E1E1E1E1E1E1E1E1E1E1E1E1E1E1E1E1E1E1E1E1E1E1E1E1E1E1E1E1E1E1E1E1E1E1E1E1E1E1E1E1E1E1E1E1E1E1E1E10FE10FE1E1E1E1E1E1E1E1E1E1E1E1E1E1E1E1E1E1E1E1E1E1E1E1E128BEE1E1E1E1E1E1E1E1E1E1E1E1E1E1E1E1E1E1E1E1E1E1E1E1E1E1E1E1E1E1E1E1
310
E1E1E1E1E1E1E1E1E1E1E1E1E1E1E1E1E1E1E1E1E1E1E1E1E1E1E1E1E1E1E1E1E1E1E1E1E1E1E1E1E1E1E1E1E1E1E1E1E1E1E1E1E1E1E1E1E1E1BEE1E1E1BEBEE1E1E1E1E1E1E1E1E1E1E1E1E1E1E1E1E1E1E1E1E1E1E1E1E1E1E1E1E1E1E1E1E1E1E1E1E1E1E1E1E1E1E1E1E1E1E1E1E1E1E1E1E1E1E1E1E1E1E1E1E1E1E1
310
E1E1E1E1E1E1E1E1E1E1E1E1E1E1E1E1E1E1E1E1E1E1E1E1E1E1E1E1E1E1E1E1E1E1E1E1E1E1E1E1E1E1E1E1E1E1E1E1E1E1E1E1E1E1E1E1E1E1E1E1E1E1E1E1E1E1E10FE1BEBEBEBEBEBEE1E1E1E1E1E1E1E1E1E1E1E1E1E1E1E1E1E1E1E128BEE1E1E1E1E1E1E1E1E1E1E1E1E1E1E1E1E1E1E1E1E1E1E1E1E1E1E1E1E1E1
310
E1E1E1E1E1E1E1E1E1E1E1E1E1E1E1E1E1E1E1E1E1E1E1E1E1E1E1E1E1E1E1E1E1E1E1E1E1E1E1E1E1E1E1E1E1E1E1E1E1E1E1E1E1E1E1E1E1E1E1E1BEE1E1E1BEBEE1E1E1E1E1E1E1E1E1E1E1E1E1E1E1E1E1E1E1E1E1E1E1E1E1E1E1E1E1E1E1E1E1E1E1E1E1E1E1E1E1E1E1E1E1E1E1E1E1E1E1E1E1E1E1E1E1E1E1E1E1
310
E1E1E1E1E1E1E1E1E1E1E1E1E1E1E1E1E1E1E1E1E1E1E1E1E1E1E1E1E1E1E1E1E1E1E1E1E1E1E1E1E1E1E1E1E1E1E1E1E1E1E1E1E1E1E1E1E1E1E1E1E1E1E1E1E1E1E1E1E10F0F0F0F0F0F0F0F0F0F0F0F0F0F0F0F0F0F0F0F0F0F0F0F0F0F0F0F0FBEE1E1E1E1E1E1E1E1E1E1E1E1E1E1E1E1E1E1E1E1E1E1E1E1E1E1E1E1
310
E1E1E1E1E1E1E1E1E1E1E1E1E1E1E1E1E1E1E1E1E1E1E1E1E1E1E1E1E1E1E1E1E1E1E1E1E1E1E1E1E1E1E1E1E1E1E1E1E1E1E1E1E1E1E1E1E1E1E1E1E1E1BEE1E1E1BEBEE1E1E1E1E1E1E1E1E1E1E1E1E1E1E1E1E1E1E1E1E1E1E1E1E1E1E1E1E1E1E1E1E1E1E1E1E1E1E1E1E1E1E1E1E1E1E1E1E1E1E1E1E1E1E1E1E1E1E1
310
E1E1E1E1E1E1E1E1E1E1E1E1E1E1E1E1E1E1E1E1E1E1E1E1E1E1E1E1E1E1E1E1E1E1E1E1E1E1E1E1E1E1E1E1E1E1E1E1E1E1E1E1E1E1E1E1E1E1E1E1E1E1E1E1E1E1E1E1E1E1E10FBEBEBEBEBEE1E1E1E1E1E1E1E1E1E1E1E1E1E1E1E1E1E1E1E1E1E128BEE1E1E1E1E1E1E1E1E1E1E1E1E1E1E1E1E1E1E1E1E1E1E1E1E1E1
310
E1E1E1E1E1E1E1E1E1E1E1E1E1E1E1E1E1E1E1E1E1E1E1E1E1E1E1E1E1E1E1E1E1E1E1E1E1E1E1E1E1E1E1E1E1E1E1E1E1E1E1E1E1E1E1E1E1E1E1E1E1E1E1E1BEE1E1E1BEBEE1E1E1E1E1E1E1E1E1E1E1E1E1E1E1E1E1E1E1E1E1E1E1E1E1E1E1E1E1E1E1E1E1E1E1E1E1E1E1E1E1E1E1E1E1E1E1E1E1E1E1E1E1E1E1E1E1
310
E1E1E1E1E1E1E1E1E1E1E1E1E1E1E1E1E1E1E1E1E1E1E1E1E1E1E1E1E1E1E1E1E1E1E1E1E1E1E1E1E1E1E1E1E1E1E1E1E1E1E1E1E1E1E1E1E1E1E1E1E1E1E1E1E1E1E1E1E1E1E1E1E10FBEBEBEBEBEBEBEE2E2E1E1E1E1E1E1E1E1E1E1E1E1E1E1E1E1E1E128BEE1E1E1E1E1E1E1E1E1E1E1E1E1E1E1E1E1E1E1E1E1E1E1E1
310
E1E1E1E1E1E1E1E1E1E1E1E1E1E1E1E1E1E1E1E1E1E1E1E1E1E1E1E1E1E1E1E1E1E1E1E1E1E1E1E1E1E1E1E1E1E1E1E1E1E1E1E1E1E1E1E1E1E1E1E1E1E1E1E1E1E1BEE1E1E1BEBEE1E1E1E1E1E1E1E1E1E1E1E1E1E1E1E1E1E1E1E1E1E1E1E1E1E1E1E1E1E1E1E1E1E1E1E1E1E1E1E1E1E1E1E1E1E1E1E1E1E1E1E1E1E1E1
310
E1E1E1E1E1E1E1E1E1E1E1E1E1E1E1E1E1E1E1E1E1E1E1E1E1E1E1E1E1E1E1E1E1E1E1E1E1E1E1E1E1E1E1E1E1E1E1E1E1E1E1E1E1E1E1E1E1E1E1E1E1E1E1E1E1E1E1E1E1E1E1E1E1E1E10F0F0F0F0F0F0F0F0F0F0F0F0F0F0F0F0F0F0F0F0F0F0F0F0F0F0F0F0FBEE1E1E1E1E1E1E1E1E1E1E1E1E1E1E1E1E1E1E1E1E1E1
310
E1E1E1E1E1E1E1E1E1E1E1E1E1E1E1E1E1E1E1E1E1E1E1E1E1E1E1E1E1E1E1E1E1E1E1E1E1E1E1E1E1E1E1E1E1E1E1E1E1E1E1E1E1E1E1E1E1E1E1E1E1E1E1E1E1E1E1E1BEE1E1E1BEBEE1E1E1E1E1E1E1E1E1E1E1E1E1E1E1E1E1E1E1E1E1E1E1E1E1E1E1E1E1E1E1E1E1E1E1E1E1E1E1E1E1E1E1E1E1E1E1E1E1E1E1E1E1
310
E1E1E1E1E1E1E1E1E1E1E1E1E1E1E1E1E1E1E1E1E1E1E1E1E1E1E1E1E1E1E1E1E1E1E1E1E1E1E1E1E1E1E1E1E1E1E1E1E1E1E1E1E1E1E1E1E1E1E1E1E1E1E1E1E1E1E1E1E1E1E1E1E1E1E1E1E1E1E1E1E1E1E1E1E1E1E1E1E1E1E1E1E1E1E1E1E1E1E1E1E1E1E1E1E128BEE1E1E1E1E1E1E1E1E1E1E1E1E1E1E1E1E1E1E1E1
310
E1E1E1E1E1E1E1E1E1E1E1E1E1E1E1E1E1E1E1E1E1E1E1E1E1E1E1E1E1E1E1E1E1E1E1E1E1E1E1E1E1E1E1E1E1E1E1E1E1E1E1E1E1E1E1E1E1E1E1E1E1E1E1E1E1E1E1E1E1E1BEE1E1E1BEBEE1E1E1E1E1E1E1E1E1E1E1E1E1E1E1E1E1E1E1E1E1E1E1E1E1E1E1E1E1E1E1E1E1E1E1E1E1E1E1E1E1E1E1E1E1E1E1E1E1E1E1
310
E1E1E1E1E1E1E1E1E1E1E1E1E1E1E1E1E1E1E1E1E1E1E1E1E1E1E1E1E1E1E1E1E1E1E1E1E1E1E1E1E1E1E1E1E1E1E1E1E1E1E1E1E1E1E1E1E1E1E1E1E1E1E1E1E1E1E1E1E1E1E1E1E1E1E1E1E1E1E1E1E1E1E1E1E1E1E1E1E1E1E1E1E1E1E1E1E1E1E1E1E1E1E1E1E1E1E128BEE1E1E1E1E1E1E1E1E1E1E1E1E1E1E1E1E1E1
310
E1E1E1E1E1E1E1E1E1E1E1E1E1E1E1E1E1E1E1E1E1E1E1E1E1E1E1E1E1E1E1E1E1E1E1E1E1E1E1E1E1E1E1E1E1E1E1E1E1E1E1E1E1E1E1E1E1E1E1E1E1E1E1E1E1E1E1E1E1E1E1E1BEE1E1E1BEBEE1E1E1E1E1E1E1E1E1E1E1E1E1E1E1E1E1E1E1E1E1E1E1E1E1E1E1E1E1E1E1E1E1E1E1E1E1E1E1E1E1E1E1E1E1E1E1E1E1
310
E1E1E1E1E1E1E1E1E1E1E1E1E1E1E1E1E1E1E1E1E1E1E1E1E1E1E1E1E1E1E1E1E1E1E1E1E1E1E1E1E1E1E1E1E1E1E1E1E1E1E1E1E1E1E1E1E1E1E1E1E1E1E1E1E1E1E1E1E1E1E1E1E1E1E1E1E1E1E1E1E1E1E1E1E1E1E1E1E1E1E1E1E1E1E1E1E1E1E1E1E1E1E1E1E1E1E1E1E128BEE1E1E1E1E1E1E1E1E1E1E1E1E1E1E1E1
310
E1E1E1E1E1E1E1E1E1E1E1E1E1E1E1E1E1E1E1E1E1E1E1E1E1E1E1E1E1E1E1E1E1E1E1E1E1E1E1E1E1E1E1E1E1E1E1E1E1E1E1E1E1E1E1E1E1E1E1E1E1E1E1E1E1E1E1E1E1E1E1E1E1E1BEE1E1E1BEBEE1E1E1E1E1E1E1E1E1E1E1E1E1E1E1E1E1E1E1E1E1E1E1E1E1E1E1E1E1E1E1E1E1E1E1E1E1E1E1E1E1E1E1E1E1E1E1
310
E1E1E1E1E1E1E1E1E1E1E1E1E1E1E1E1E1E1E1E1E1E1E1E1E1E1E1E1E1BEE1E1E1E1E1E1E1E1E1E1E1E1E1E1E1E1E1E1E1E1E1E1E1E1E1E1E1E1E1E1E1E1E1E1E1E1E1E1E1E1E1E1E1E1E1E1E1E1E1E1E1E1E1E1E1E1E1E1E1E1E1E1E1E1E1E1E1E1E1E1E1E1E1E1E1E1E1E1E1E1E128BEE1E1E1E1E1E1E1E1E1E1E1E1E1E1
310
E1E1E1E1E1E1E1E1E1E1E1E1E1E1E1E1E1E1E1E1E1E1E1E1E1E1E1E1E1E1E1E1E1E1E1E1E1E1E1E1E1E1E1E1E1E1E1E1E1E1E1E1E1E1E1E1E1E1E1E1E1E1E1E1E1E1E1E1E1E1E1E1E1E1E1E1BEE1E1E1BEBEE1E1E1E1E1E1E1E1E1E1E1E1E1E1E1E1E1E1E1E1E1E1E1E1E1E1E1E1E1E1E1E1E1E2E2E2E2E2E2E2E2E2E2E2E2
310
E2E2E2E2E2E2E2E2E2E2E2E2E2E2E2E2E2E2E2E2E2E2E2E2E2E2E2E2E2E2E2BEE2E2E2E2E2E2E2E2E2E2E2E2E2E2E2E2E2E2E2E2E2E2E2E2E2E2E2E2E2E2E2E2E2E2E2E2E2E2E2E2E2E2E2E1E1E1E1E1E1E1E1E1E1E1E1E1E1E1E1E1E1E1E1E1E1E1E1E1E1E1E1E1E1E1E1E1E1E1E1E1E128BEE1E1E1E1E1E1E1E1E1E1E1E1
310
E1E1E1E1E1E1E1E1E1E1E1E1E1E1E1E1E1E1E1E1E1E1E1E1E1E1E1E1E1E1E1E1E1E1E1E1E1E1E1E1E1E1E1E1E1E1E1E1E1E1E1E1E1E1E1E1E1E1E1E1E1E1E1E1E1E1E1E1E1E1E1E1E1E1E1E1E1E1BEE1E1E1BEBEE1E1E1E1E1E1E1E1E1E1E1E1E1E1E1E1E1E1E1E1E1E1E1E1E1E1E1E1E1E1E1E1E1E2BEBEBEBEBEBEBEBEBE
310
BEBEBEBEBEBEBEBEBEBEBEBEBEBEBEBEBEBEBEBEBEBEBEBEBEBEBEBEBEBEBEBEBEBEBEBEBEBEBEBEBEBEBEBEBEBEBEBEBEBEBEBEBEBEBEBEBEBEBEBEBEBEBEBEBEBEBEBEBEBEBEBEBEBEBEBEBEE1E1E1E1E1E1E1E1E1E1E1E1E1E1E1E1E1E1E1E1E1E1E1E1E1E1E1E1E1E1E1E1E1E1E1E1E1E128BEE1E1E1E1E1E1E1E1E1E1
310
E1E1E1E1E1E1E1E1E1E1E1E1E1E1E1E1E1E1E1E1E1E1E1E1E1E1E1E1E1E1E1E1E1E1E1E1E1E1E1E1E1E1E1E1E1E1E1E1E1E1E1E1E1E1E1E1E1E1E1E1E1E1E1E1E1E1E1E1E1E1E1E1E1E1E1E1E1E1E1E1BEE1E1E1BEBEE1E1E1E1E1E1E1E1E1E1E1E1E1E1E1E1E1E1E1E1E1E1E1E1E1E1E1E1E1E1E1E1E1BEBEBEBEBEBEBEBE
310
BEBEBEBEBEBEBEBEBEBEBEBEBEBEBEBEBEBEBEBEBEBEBEBEBEBEBEBEBEBEBEBEBEBEBEBEBEBEBEBEBEBEBEBEBEBEBEBEBEBEBEBEBEBEBEBEBEBEBEBEBEBEBEBEBEBEBEBEBEBEBEBEBEBEBEBEBEBEBEE1E1E1E1E1E1E1E1E1E1E1E1E1E1E1E1E1E1E1E1E1E1E1E1E1E1E1E1E1E1E1E1E1E1E1E1E1E128BEE1E1E1E1E1E1E1E1
310
E1E1E1E1E1E1E1E1E1E1E1E1E1E1E1E1E1E1E1E1E1E1E1E1E1E1E1E1E1E1E1E1E1E1E1E1E1E1E1E1E1E1E1E1E1E1E1E1E1E1E1E1E1E1E1E1E1E1E1E1E1E1E1E1E1E1E1E1E1E1E1E1E1E1E1E1E1E1E1E1E1E1BEE1E1E1BEBEE1E1E1E1E1E1E1E1E1E1E1E1E1E1E1E1E1E1E1E1E1E1E1E1E1E1E1E1E1E1E1E1E1BEBEE1E2E1E1
310
E1E1E1E1E1E1E1E1E1E1E1E1E1E1E1E1E1E1E1E1E1E1E1E1E1E1E1E1E1E1E1E1E1E1E1E1E1BEE1E1E1E1E1E1E1E1E1E1E1E1E1E1E1E1E1E1E1E1E1E1E1E1E1E1E1E1E1E1E1E1E1E1E1E1E1E1E1E2E1BEBEE1E1E1E1E1E1E1E1E1E1E1E1E1E1E1E1E1E1E1E1E1E1E1E1E1E1E1E1E1E1E1E1E1E1E1E1E1E128BEE1E1E1E1E1E1
310
E1E1E1E1E1E1E1E1E1E1E1E1E1E1E1E1E1E1E1E1E1E1E1E1E1E1E1E1E1E1E1E1E1E1E1E1E1E1E1E1E1E1E1E1E1E1E1E1E1E1E1E1E1E1E1E1E1E1E1E1E1E1E1E1E1E1E1E1E1E1E1E1E1E1E1E1E1E1E1E1E1E1E1E1BEE1E1E1BEBEE1E1E1E1E1E1E1E1E1E1E1E1E1E1E1E1E1E1E1E1E1E1E1E1E1E1E1E1E1E1E1E1E1BEBEE2E2
310
E1E1E1E1E1E1E1E1E1E1E1E1E1E1E1E1E1E1E1E1E1E1E1E1E1E1E1E1E1E1E1E1E1E1E1E1E1E1E1BEE1E1E1E1E1E1E1E1E1E1E1E1E1E1E1E1E1E1E1E1E1E1E1E1E1E1E1E1E1E1E1E1E1E1E1E1E1E1E1E2E2BEBEE1E1E1E1E1E1E1E1E1E1E1E1E1E1E1E1E1E1E1E1E1E1E1E1E1E1E1E1E1E1E1E1E1E1E1E1E1E128BEE1E1E1E1
310
E1E1E1E1E1E1E1E1E1E1E1E1E1E1E1E1E1E1E1E1E1E1E1E1E1E1E1E1E1E1E1E1E1E1E1E1E1E1E1E1E1E1E1E1E1E1E1E1E1E1E1E1E1E1E1E1E1E1E1E1E1E1E1E1E1E1E1E1E1E1E1E1E1E1E1E1E1E1E1E1E1E1E1E1E1E1BEE1E1E1BE28E1E1E1E1E1E1E1E1E1E1E1E1E1E1E1E1E1E1E1E1E1E1E1E1E1E1E1E1E1E1E1E1E1BEBE
310
E2E2E2E2E2E2E2E2E2E2E2E2E2E2E2E2E2E2E2E2E2E2E2E2E2E2E2E2E2E2E2E2E2E2E2E2E2E2E2E2E2BEE2E2E2E2E2E2E2E2E2E2E2E2E2E2E2E2E2E2E2E2E2E2E2E2E2E2E2E2E2E2E2E2E2E2E2E2E2E2E2E2E2BEBEBEE1E1E1E1E1E1E1E1E1E1E1E1E1E1E1E1E1E1E1E1E1E1E1E1E1E1E1E1E1E1E1E1E1E1E1E1E128BEE1E1
310
E1E1E1E1E1E1E1E1E1E1E1E1E1E1E1E1E1E1E1E1E1E1E1E1E1E1E1E1E1E1E1E1E1E1E1E1E1E1E1E1E1E1E1E1E1E1E1E1E1E1E1E1E1E1E1E1E1E1E1E1E1E1E1E1E1E1E1E1E1E1E1E1E1E1E1E1E1E1E1E1E1E1E1E1E1E1E1E1BEE1E1E1E128E1E1E1E1E1E1E1E1E1E1E1E1E1E1E1E1E1E1E1E1E1E1E1E1E1E1E1E1E1E1E1E1E1
310
E1E1E1E1E1E1E1E1E1E1E1E1E1E1E1E1E1E1E1E1E1E1E1E1E1E1E1E1E1E1E1E1E1E1E1E1E1E1E1E1E1E1E1BEE1E1E1E1E1E1E1E1E1E1E1E1E1E1E1E1E1E1E1E1E1E1E1E1E1E1E1E1E1E1E1E1E1E1E1E1E1E1E1E1E1E1E1E1E1E1E1E1E1E1E1E1E1E1E1E1E1E1E1E1E1E1E1E1E1E1E1E1E1E1E1E1E1E1E1E1E1E1E1E1E128BE
310
E1E1E1E1E1E1E1E1E1E1E1E1E1E1E1E1E1E1E1E1E1E1E1E1E1E1E1E1E1E1E1E1E1E1E1E1E1E1E1E1E1E1E1E1E1E1E1E1E1E1E1E1E1E1E1E1E1E1E1E1E1E1E1E1E1E1E1E1E1E1E1E1E1E1E1E1E1E1E1E1E1E1E1E1E1E1E1E1E1E1BEE1E1E1E128E1E1E1E1E1E1E1E1E1E1E1E1E1E1E1E1E1E1E1E1E1E1E1E1E1E1E1E1E1E1E1
310
E1E1E1E1E1E1E1E1E1E1E1E1E1E1E1E1E1E1E1E1E1E1E1E1E1E1E1E1E1E1E1E1E1E1E1E1E1E1E1E1E1E1E1E1E1E1E1E1E1E1E1E1E1E1E1E1E1E1E1E1E1E1E1E1E1E1E1E1E1E1E1E1E1E1E1E1E1E1E1E1E1E1E1E1E1E1E1E1E1E1E1E1E1E1E1E1E1E1E1E1E1E1E1E1E1E1E1E1E1E1E1E1E1E1E1E1E1E1E1E1E1E1E1E1E1E1E1
310
28BEE1E1E1E1E1E1E1E1E1E1E1E1E1E1E1E1E1E1E1E1E1E1E1E1E1E1E1E1E1E1E1E1E1E1E1E1E1E1E1E1E1E1E1E1E1E1E1E1E1E1E1E1E1E1E1E1E1E1E1E1E1E1E1E1E1E1E1E1E1E1E1E1E1E1E1E1E1E1E1E1E1E1E1E1E1E1E1E1E1E1BEE1E1E1E128E1E1E1E1E1E1E1E1E1E1E1E1E1E1E1E1E1E1E1E1E1E1E1E1E1E1E1E1E1
310
E1E1E1E1E1E1E1E1E1E1E1E1E1E1E1E1E1E1E1E1E1E1E1E1E1E1E1E1E1E1E1E1E1E1E1E1E1E1E1E1E1E1E1E1E1E1E1E1E1E1E1E1E1E1E1E1E1E1E1E1E1E1E1E1E1E1E1E1E1E1E1E1E1E1E1E1E1E1E1E1E1E1E1E1E1E1E1E1E1E1E1E1E1E1E1E1E1E1E1E1E1E1E1E1E1E1E1E1E1E1E1E1E1E1E1E1E1E1E1E1E1E1E1E1E1E1E1
310
E1E128BEE1E1E1E1E1E1E1E1E1E1E1E1E1E1E1E1E1E1E1E1E1E1E1E1E1E1E1E1E1E1E1E1E1E1E1E1E1E1E1E1E1E1E1E1E1E1E1E1E1E1E1E1E1E1E1E1E1E1E1E1E1E1E1E1E1E1E1E1E1E1E1E1E1E1E1E1E1E1E1E1E1E1E1E1E1E1E1E1E1E1BEE1E1E1E128E1E1E1E1E1E1E1E1E1E1E1E1E1E1E1E1E1E1E1E1E1E1E1E1E1E1E1
310
E1E1E1E1E1E1E1E1E1E1E1E1E1E1E1E1E1E1E1E1E1E1E1E1E1E1E1E1E1E1E1E1E1E1E1E1E1E1E1E1E1E1E1E1E1E1E1E1E1E1E1E1E1E1E1E1E1E1E1E1E1E1E1E1E1E1E1E1E1E1E1E1E1E1E1E1E1E1E1E1E1E1E1E1E1E1E1E1E1E1E1E1E1E1E1E1E1E1E1E1E1E1E1E1E1E1E1E1E1E1E1E1E1E1E1E1E1E1E1E1E1E1E1E1E1E1E1
310
E1E1E1E128BEE1E1E1E1E1E1E1E1E1E1E1E1E1E1E1E1E1E1E1E1E1E1E1E1E1E1E1E1E1E1E1E1E1E1E1E1E1E1E1E1E1E1E1E1E1E1E1E1E1E1E1E1E1E1E1E1E1E1E1E1E1E1E1E1E1E1E1E1E1E1E1E1E1E1E1E1E1E1E1E1E1E1E1E1E1E1E1E1E1E1BEE1E1E1E128E1E1E1E1E1E1E1E1E1E1E1E1E1E1E1E1E1E1E1E1E1E1E1E1E1
310
E1E1E1E1E1E1E1E1E1E1E1E1E1E1E1E1E1E1E1E1E1E1E1E1E1E1E1E1E1E1E1E1E1E1E1E1E1E1E1E1E1E1E1E1E1E1E1E1E1E1E1E1E1E1E1E1E1E1E1E1E1E1E1E1E1E1E1E1E1E1E1E1E1E1E1E1E1E1E1E1E1E1E1E1E1E1E1E1E1E1E1E1E1E1E1E1E1E1E1E1E1E1E1E1E1E1E1E1E1E1E1E1E1E1E1E1E1E1E1E1E1E1E1E1E1E1E1
310
E1E1E1E1E1E128BEE1E1E1E1E1E1E1E1E1E1E1E1E1E1E1E1E1E1E1E1E1E1E1E1E1E1E1E1E1E1E1E1E1E1E1E1E1E1E1E1E1E1E1E1E1E1E1E1E1E1E1E1E1E1E1E1E1E1E1E1E1E1E1E1E1E1E1E1E1E1E1E1E1E1E1E1E1E1E1E1E1E1E1E1E1E1E1E1E1E1BEE1E1E1E128E1E1E1E1E1E1E1E1E1E1E1E1E1E1E1E1E1E1E1E1E1E1E1
310
E1E1E1E1E1E1E1E1E1E1E1E1E1E1E1E1E1E1E1E1E1E1E1E1E1E1E1E1E1E1E1E1E1E1E1E1E1E1E1E1E1E1E1E1E1E1E1E1E1E1E1E1E1E1E1E1E1E1E1E1E1E1E1E1E1E1E1E1E1E1E1E1E1E1E1E1E1E1E1E1E1E1E1E1E1E1E1E1E1E1E1E1E1E1E1E1E1E1E1E1E1E1E1E1E1E1E1E1E1E1E1E1E1E1E1E1E1E1E1E1E1E1E1E1E1E1E1
310
E1E1E1E1E1E1E1E128BEE1E1E1E1E1E1E1E1E1E1E1E1E1E1E1E1E1E1E1E1E1E1E1E1E1E1E1E1E1E1E1E1E1E1E1E1E1E1E1E1E1E1E1E1E1E1E1E1E1E1E1E1E1E1E1E1E1E1E1E1E1E1E1E1E1E1E1E1E1E1E1E1E1E1E1E1E1E1E1E1E1E1E1E1E1E1E1E1E1E1BEE1E1E1E128E1E1E1E1E1E1E1E1E1E1E1E1E1E1E1E1E1E1E1E1E1
310
E1E1E1E1E1E1E1E1E1E1E1E1E1E1E1E1E1E1E1E1E1E1E1E1E1E1E1E1E1E1E1E1E1E1E1E1E1E1E1E1E1E1E1E1E1E1E1E1E1E1E1E1E1E1E1E1E1E1E1E1E1E1E1E1E1E1E1E1E1E1E1E1E1E1E1E1E1E1E1E1E1E1E1E1E1E1E1E1E1E1E1E1E1E1E1E1E1E1E1E1E1E1E1E1E1E1E1E1E1E1E1E1E1E1E1E1E1E1E1E1E1E1E1E1E1E1E1
310
E1E1E1E1E1E1E1E1E1E128BEE1E1E1E1E1E1E1E1E1E1E1E1E1E1E1E1E1E1E1E1E1E1E1E1E1E1E1E1E1E1E1E1E1E1E1E1E1E1E1E1E1E1E1E1E1E1E1E1E1E1E1E1E1E1E1E1E1E1E1E1E1E1E1E1E1E1E1E1E1E1E1E1E1E1E1E1E1E1E1E1E1E1E1E1E1E1E1E1E1E1BEE1E1E1E128E1E1E1E1E1E1E1E1E1E1E1E1E1E1E1E1E1E1E1
310
E1E1E1E1E1E1E1E1E1E1E1E1E1E1E1E1E1E1E1E1E1E1E1E1E1E1E1E1E1E1E1E1E1E1E1E1E1E1E1E1E1E1E1E1E1E1E1E1E1E1E1E1E1E1E1E1E1E1E1E1E1E1E1E1E1E1E1E1E1E1E1E1E1E1E1E1E1E1E1E1E1E1E1E1E1E1E1E1E1E1E1E1E1E1E1E1E1E1E1E1E1E1E1E1E1E1E1E1E1E1E1E1E1E1E1E1E1E1E1E1E1E1E1E1E1E1E1
310
E1E1E1E1E1E1E1E1E1E1E1E128BEE1E1E1E1E1E1E1E1E1E1E1E1E1E1E1E1E1E1E1E1E1E1E1E1E1E1E1E1E1E1E1E1E1E1E1E1E1E1E1E1E1E1E1E1E1E1E1E1E1E1E1E1E1E1E1E1E1E1E1E1E1E1E1E1E1E1E1E1E1E1E1E1E1E1E1E1E1E1E1E1E1E1E1E1E1E1E1E1E1E1BEE1E1E1E128E1E1E1E1E1E1E1E1E1E1E1E1E1E1E1E1E1
310
E1E1E1E1E1E1E1E1E1E1E1E1E1E1E1E1E1E1E1E1E1E1E1E1E1E1E1E1E1E1E1E1E1E1E1E1E1E1E1E1E1E1E1E1E1E1E1E1E1E1E1E1E1E1E1E1E1E1E1E1E1E1E1E1E1E1E1E1E1E1E1E1E1E1E1E1E1E1E1E1E1E1E1E1E1E1E1E1E1E1E1E1E1E1E1E1E1E1E1E1E1E1E1E1E1E1E1E1E1E1E1E1E1E1E1E1E1E1E1E1E1E1E1E1E1E1E1
310
E1E1E1E1E1E1E1E1E1E1E1E1E1E128BEE1E1E1E1E1E1E1E1E1E1E1E1E1E1E1E1E1E1E1E1E1E1E1E1E1E1E1E1E1E1E1E1E1E1E1E1E1E1E1E1E1E1E1E1E1E1E1E1E1E1E1E1E1E1E1E1E1E1E1E1E1E1E1E1E1E1E1E1E1E1E1E1E1E1E1E1E1E1E1E1E1E1E1E1E1E1E1E1E1E1BEE1E1E1E128E1E1E1E1E1E1E1E1E1E1E1E1E1E1E1
310
E1E1E1E1E1E1E1E1E1E1E1E1E1E1E1E1E1E1E1E1E1E1E1E1E1E1E1E1E1E1E1E1E1E1E1E1E1E1E1E1E1E1E1E1E1E1E1E1E1E1E1E1E1E1E1E1E1E1E1E1E1E1E1E1E1E1E1E1E1E1E1E1E1E1E1E1E1E1E1E1E1E1E1E1E1E1E1E1E1E1E1E1E1E1E1E1E1E1E1E1E1E1E1E1E1E1E1E1E1E1E1E1E1E1E1E1E1E1E1E1E1E1E1E1E1E1E1
310
E1E1E1E1E1E1E1E1E1E1E1E1E1E1E1E128BEE1E1E1E1E1E1E1E1E1E1E1E1E1E1E1E1E1E1E1E1E1E1E1E1E1E1E1E1E1E1E1E1E1E1E1E1E1E1E1E1E1E1E1E1E1E1E1E1E1E1E1E1E1E1E1E1E1E1E1E1E1E1E1E1E1E1E1E1E1E1E1E1E1E1E1E1E1E1E1E1E1E1E1E1E1E1E1E1E1E1BEE1E1E1E128E1E1E1E1E1E1E1E1E1E1E1E1E1
310
E1E1E1E1E1E1E1E1E1E1E1E1E1E1E1E1E1E1E1E1E1E1E1E1E1E1E1E1E1E1E1E1E1E1E1E1E1E1E1E1E1E1E1E1E1E1E1E1E1E1E1E1E1E1E1E1E1E1E1E1E1E1E1E1E1E1E1E1E1E1E1E1E1E1E1E1E1E1E1E1E1E1E1E1E1E1E1E1E1E1E1E1E1E1E1E1E1E1E1E1E1E1E1E1E1E1E1E1E1E1E1E1E1E1E1E1E1E1E1E1E1E1E1E1E1E1E1
310
E1E1E1E1E1E1E1E1E1E1E1E1E1E1E1E1E1E128BEE1E1E1E1E1E1E1E1E1E1E1E1E1E1E1E1E1E1E1E1E1E1E1E1E1E1E1E1E1E1E1E1E1E1E1E1E1E1E1E1E1E1E1E1E1E1E1E1E1E1E1E1E1E1E1E1E1E1E1E1E1E1E1E1E1E1E1E1E1E1E1E1E1E1E1E1E1E1E1E1E1E1E1E1E1E1E1E1E1E1BEE1E1E1E128E1E1E1E1E1E1E1E1E1E1E1
310
E1E1E1E1E1E1E1E1E1E1E1E1E1E1E1E1E1E1E1E1E1E1E1E1E1E1E1E1E1E1E1E1E1E1E1E1E1E1E1E1E1E1E1E1E1E1E1E1E1E1E1E1E1E1E1E1E1E1E1E1E1E1E1E1E1E1E1E1E1E1E1E1E1E1E1E1E1E1E1E1E1E1E1E1E1E1E1E1E1E1E1E1E1E1E1E1E1E1E1E1E1E1E1E1E1E1E1E1E1E1E1E1E1E1E1E1E1E1E1E1E1E1E1E1E1E1E1
310
E1E1E1E1E1E1E1E1E1E1E1E1E1E1E1E1E1E1E1E128BEE1E1E1E1E1E1E1E1E1E1E1E1E1E1E1E1E1E1E1E1E1E1E1E1E1E1E1E1E1E1E1E1E1E1E1E1E1E1E1E1E1E1E1E1E1E1E1E1E1E1E1E1E1E1E1E1E1E1E1E1E1E1E1E1E1E1E1E1E1E1E1E1E1E1E1E1E1E1E1E1E1E1E1E1E1E1E1E1E1E1BEE1E1E1E128E1E1E1E1E1E1E1E1E1
310
E1E1E1E1E1E1E1E1E1E1E1E1E1E1E1E1E1E1E1E1E1E1E1E1E1E1E1E1E1E1E1E1E1E1E1E1E1E1E1E1E1E1E1E1E1E1E1E1E1E1E1E1E1E1E1E1E1E1E1E1E1E1E1E1E1E1E1E1E1E1E1E1E1E1E1E1E1E1E1E1E1E1E1E1E1E1E1E1E1E1E1E1E1E1E1E1E1E1E1E1E1E1E1E1E1E1E1E1E1E1E1E1E1E1E1E1E1E1E1E1E1E1E1E1E1E1E1
310
E1E1E1E1E1E1E1E1E1E1E1E1E1E1E1E1E1E1E1E1E1E128BEE1E1E1E1E1E1E1E1E1E1E1E1E1E1E1E1E1E1E1E1E1E1E1E1E1E1E1E1E1E1E1E1E1E1E1E1E1E1E1E1E1E1E1E1E1E1E1E1E1E1E1E1E1E1E1E1E1E1E1E1E1E1E1E1E1E1E1E1E1E1E1E1E1E1E1E1E1E1E1E1E1E1E1E1E1E1E1E1E1E1BEE1E1E1E128E1E1E1E1E1E1E1
310
E1E1E1E1E1E1E1E1E1E1E1E1E1E1E1E1E1E1E1E1E1E1E1E1E1E1E1E1E1E1E1E1E1E1E1E1E1E1E1E1E1E1E1E1E1E1E1E1E1E1E1E1E1E1E1E1E1E1E1E1E1E1E1E1E1E1E1E1E1E1E1E1E1E1E1E1E1E1E1E1E1E1E1E1E1E1E1E1E1E1E1E1E1E1E1E1E1E1E1E1E1E1E1E1E1E1E1E1E1E1E1E1E1E1E1E1E1E1E1E1E1E1E1E1E1E1E1
310
E1E1E1E1E1E1E1E1E1E1E1E1E1E1E1E1E1E1E1E1E1E1E1E128BEE1E1E1E1E1E1E1E1E1E1E1E1E1E1E1E1E1E1E1E1E1E1E1E1E1E1E1E1E1E1E1E1E1E1E1E1E1E1E1E1E1E1E1E1E1E1E1E1E1E1E1E1E1E1E1E1E1E1E1E1E1E1E1E1E1E1E1E1E1E1E1E1E1E1E1E1E1E1E1E1E1E1E1E1E1E1E1E1E1E1BEE1E1E1E128E1E1E1E1E1
310
E1E1E1E1E1E1E1E1E1E1E1E1E1E1E1E1E1E1E1E1E1E1E1E1E1E1E1E1E1E1E1E1E1E1E1E1E1E1E1E1E1E1E1E1E1E1E1E1E1E1E1E1E1E1E1E1E1E1E1E1E1E1E1E1E1E1E1E1E1E1E1E1E1E1E1E1E1E1E1E1E1E1E1E1E1E1E1E1E1E1E1E1E1E1E1E1E1E1E1E1E1E1E1E1E1E1E1E1E1E1E1E1E1E1E1E1E1E1E1E1E1E1E1E1E1E1E1
310
E1E1E1E1E1E1E1E1E1E1E1E1E1E1E1E1E1E1E1E1E1E1E1E1E1E128BEE1E1E1E1E1E1E1E1E1E1E1E1E1E1E1E1E1E1E1E1E1E1E1E1E1E1E1E1E1E1E1E1E1E1E1E1E1E1E1E1E1E1E1E1E1E1E1E1E1E1E1E1E1E1E1E1E1E1E1E1E1E1E1E1E1E1E1E1E1E1E1E1E1E1E1E1E1E1E1E1E1E1E1E1E1E1E1E1E1E1BEE1E1E1E128E1E1E1
310
E1E1E1E1E1E1E1E1E1E1E1E1E1E1E1E1E1E1E1E1E1E1E1E1E1E1E1E1E1E1E1E1E1E1E1E1E1E1E1E1E1E1E1E1E1E1E1E1E1E1E1E1E1E1E1E1E1E1E1E1E1E1E1E1E1E1E1E1E1E1E1E1E1E1E1E1E1E1E1E1E1E1E1E1E1E1E1E1E1E1E1E1E1E1E1E1E1E1E1E1E1E1E1E1E1E1E1E1E1E1E1E1E1E1E1E1E1E1E1E1E1E1E1E1E1E1E1
310
E1E1E1E1E1E1E1E1E1E1E1E1E1E1E1E1E1E1E1E1E1E1E1E1E1E1E1E128BEE1E1E1E1E1E1E1E1E1E1E1E1E1E1E1E1E1E1E1E1E1E1E1E1E1E1E1E1E1E1E1E1E1E1E1E1E1E1E1E1E1E1E1E1E1E1E1E1E1E1E1E1E1E1E1E1E1E1E1E1E1E1E1E1E1E1E1E1E1E1E1E1E1E1E1E1E1E1E1E1E1E1E1E1E1E1E1E1E1E1BEE1E1E1E128E1
310
E1E1E1E1E1E1E1E1E1E1E1E1E1E1E1E1E1E1E1E1E1E1E1E1E1E1E1E1E1E1E1E1E1E1E1E1E1E1E1E1E1E1E1E1E1E1E1E1E1E1E1E1E1E1E1E1E1E1E1E1E1E1E1E1E1E1E1E1E1E1E1E1E1E1E1E1E1E1E1E1E1E1E1E1E1E1E1E1E1E1E1E1E1E1E1E1E1E1E1E1E1E1E1E1E1E1E1E1E1E1E1E1E1E1E1E1E1E1E1E1E1E1E1E1E1E1E1
310
E1E1E1E1E1E1E1E1E1E1E1E1E1E1E1E1E1E1E1E1E1E1E1E1E1E1E1E1E1E128BEE1E1E1E1E1E1E1E1E1E1E1E1E1E1E1E1E1E1E1E1E1E1E1E1E1E1E1E1E1E1E1E1E1E1E1E1E1E1E1E1E1E1E1E1E1E1E1E1E1E1E1E1E1E1E1E1E1E1E1E1E1E1E1E1E1E1E1E1E1E1E1E1E1E1E1E1E1E1E1E1E1E1E1E1E1E1E1E1E1E1BEE1E1E1E1
310
28E1E1E1E1E1E1E1E1E1E1E1E1E1E1E1E1E1E1E1E1E1E1E1E1E1E1E1E1E1E1E1E1E1E1E1E1E1E1E1E1E1E1E1E1E1E1E1E1E1E1E1E1E1E1E1E1E1E1E1E1E1E1E1E1E1E1E1E1E1E1E1E1E1E1E1E1E1E1E1E1E1E1E1E1E1E1E1E1E1E1E1E1E1E1E1E1E1E1E1E1E1E1E1E1E1E1E1E1E1E1E1E1E1E1E1E1E1E1E1E1E1E1E1E1E1E1
310
E1E1E1E1E1E1E1E1E1E1E1E1E1E1E1E1E1E1E1E1E1E1E1E1E1E1E1E1E1E1E1E128BEE1E1E1E1E1E1E1E1E1E1E1E1E1E1E1E1E1E1E1E1E1E1E1E1E1E1E1E1E1E1E1E1E1E1E1E1E1E1E1E1E1E1E1E1E1E1E1E1E1E1E1E1E1E1E1E1E1E1E1E1E1E1E1E1E1E1E1E1E1E1E1E1E1E1E1E1E1E1E1E1E1E1E1E1E1E1E1E1E1E1BEE1E1
310
E1E128E1E1E1E1E1E1E1E1E1E1E1E1E1E1E1E1E1E1E1E1E1E1E1E1E1E1E1E1E1E1E1E1E1E1E1E1E1E1E1E1E1E1E1E1E1E1E1E1E1E1E1E1E1E1E1E1E1E1E1E1E1E1E1E1E1E1E1E1E1E1E1E1E1E1E1E1E1E1E1E1E1E1E1E1E1E1E1E1E1E1E1E1E1E1E1E1E1E1E1E1E1E1E1E1E1E1E1E1E1E1E1E1E1E1E1E1E1E1E1E1E1E1E1E1
310
E1E1E1E1E1E1E1E1E1E1E1E1E1E1E1E1E1E1E1E1E1E1E1E1E1E1E1E1E1E1E1E1E1E128BEE1E1E1E1E1E1E1E1E1E1E1E1E1E1E1E1E1E1E1E1E1E1E1E1E1E1E1E1E1E1E1E1E1E1E1E1E1E1E1E1E1E1E1E1E1E1E1E1E1E1E1E1E1E1E1E1E1E1E1E1E1E1E1E1E1E1E1E1E1E1E1E1E1E1E1E1E1E1E1E1E1E1E1E1E1E1E1E1E1E1BE
310
E1E1E1E128E1E1E1E1E1E1BEE1E1E1E1BEE1E1E1E1E1E1E1E1E1E1E1E1E1E1E1E1E1E1E1E1E1E1E1E1E1E1E1E1E1E1E1E1E1E1E1E1E1E1E1E1E1E1E1E1E1E1E1E1E1E1E1E1E1E1E1E1E1E1E1E1E1E1E1E1E1E1E1E1E1E1E1E1E1E1E1E1E1E1E1E1E1E1E1E1E1E1E1E1E1E1E1E1E1E1E1E1E1E1E1E1E1E1E1E1E1E1E1E1E1E1
310
E1E1E1E1E1E1E1E1E1E1E1E1E1E1E1E1E1E1E1E1E1E1E1E1E1E1E1E1E1E1E1E1E1E1E1E128BEE1E1E1E1E1E1E1E1E1E1E1E1E1E1E1E1E1E1E1E1E1E1E1E1E1E1E1E1E1E1E1E1E1E1E1E1E1E1E1E1E1E1E1E1E1E1E1E1E1E1E1E1E1E1E1E1E1E1E1E1E1E1E1E1E1E1E1E1E1E1E1E1E1E1E1E1E1E1E1E1E1E1E1E1E1E1E1E1E1
310
E1BEE1E1E1E128E1E1E1E1E1E1BE0F0F0F0FE2E1E1E1E1E1E1E1E1E1E1E1E1E1E1E1E1E1E1E1E1E1E1E1E1E1E1E1E1E1E1E1E1E1E1E1E1E1E1E1E1E1E1E1E1E1E1E1E1E1E1E1E1E1E1E1E1E1E1E1E1E1E1E1E1E1E1E1E1E1E1E1E1E1E1E1E1E1E1E1E1E1E1E1E1E1E1E1E1E1E1E1E1E1E1E1E1E1E1E1E1E1E1E1E1E1E1E1E1
310
E1E1E1E1E1E1E1E1E1E1E1E1E1E1E1E1E1E1E1E1E1E1E1E1E1E1E1E1E1E1E1E1E1E1E1E1E1E128BEE1E1E1E1E1E1E1E1E1E1E1E1E1E1E1E1E1E1E1E1E1E1E1E1E1E1E1E1E1E1E1E1E1E1E1E1E1E1E1E1E1E1E1E1E1E1E1E1E1E1E1E1E1E1E1E1E1E1E1E1E1E1E1E1E1E1E1E1E1E1E1E1E1E1E1E1E1E1E1E1E1E1E1E1E1E1E1
310
E1E1E1BEE1E1E1E128E1E1E1E1E1E1BE0F0F0F0FBEE1E1E1E1E1E1E1E1E1E1E1E1E1E1E1E1E1E1E1E1E1E1E1E1E1E1E1E1E1E1E1E1E1E1E1E1E1E1E1E1E1E1E1E1E1E1E1E1E1E1E1E1E1E1E1E1E1E1E1E1E1E1E1E1E1E1E1E1E1E1E1E1E1E1E1E1E1E1E1E1E1E1E1E1E1E1E1E1E1E1E1E1E1E1E1E1E1E1E1E1E1E1E1E1E1E1
310
E1E1E1E1E1E1E1E1E1E1E1E1E1E1E1E1E1E1E1E1E1E1E1E1E1E1E1E1E1E1E1E1E1E1E1E1E1E1E1E128BEE1E1E1E1E1E1E1E1E1E1E1E1E1E1E1E1E1E1E1E1E1E1E1E1E1E1E1E1E1E1E1E1E1E1E1E1E1E1E1E1E1E1E1E1E1E1E1E1E1E1E1E1E1E1E1E1E1E1E1E1E1E1E1E1E1E1E1E1E1E1E1E1E1E1E1E1E1E1E1E1E1E1E1E1E1
310
E1E1E1E1E1BEE1E1E1E128E1E1E1E1E1E1E2E1E1E1E1BEE1E1E1E1E1E1E1E1E1E1E1E1E1E1E1E1E1E1E1E1E1E1E1E1E1E1E1E1E1E1E1E1E1E1E1E1E1E1E1E1E1E1E1E1E1E1E1E1E1E1E1E1E1E1E1E1E1E1E1E1E1E1E1E1BEE1E1E1E1E1E1E1E1E1E1E1E1E1E1E1E1E1E1E1E1E1E1E1E1E1E1E1E1E1E1E1E1E1E1E1E1E1E1E1
310
E1E1E1E1E1E1E1E1E1E1E1E1E1E1E1E1E1E1E1E1E1E1E1E1E1E1E1E1E1E1E1E1E1E1E1E1E1E1E1E1E1E1BEBEE1E1E1E1E1E1E1E1E1E1E1E1E1E1E1E1E1E1E1E1E1E1E1E1E1E1E1E1E1E1E1E1E1E1E1E1E1E1E1E1E1E1E1E1E1E1E1E1E1E1E1E1E1E1E1E1E1E1E1E1E1E1E1E1E1E1E1E1E1E1E1E1E1E1E1E1E1E1E1E1E1E1E1
310
E1E1E1E1E1E1E1BEE1E1E1E128E1E1E1E1E1E1BEE1E1E1E1E2E1E1E1E1E1E1E1E1E1E1E1E1E1E1E1E1E1E1E1E1E1E2E2E2E2E2E2E2E2E2E2E2E2E2E2E2E2E2E2E2E2E2E2E2E2E2E2E2E2E2E2E2E2E2E2E2E2E2E2E2E2E2E2E2E2E2E2E2E2E2E2E2E2E2E2E2E2E2E2E2E2E2E2E2E2E2E2E2E2E2E2E2E2E2E2E2E2E2E2E2E2E2
310
E2E2E2E2E2E2BEBEBEBEE1E1E1E1E1E1E1E1E1E1E1E1E1E1E1E1E1E1E1E1E1E1E1E1E1E1E1E1E1E1E1E1E1E128BEE1E1E1E1E1E1E1E1E1E1E1E1E1E1E1E1E1E1E1E1E1E1E1E1E1E1E1E1E1E1E1E1E1E1E1E1E1E1E1E1E1E1E1E1E1E1E1E1E1E1E1E1E1E1E1E1E1E1E1E1E1E1E1E1E1E1E1E1E1E1E1E1E1E1E1E1E1E1E1E1E1
310
E1E1E1E1E1E1E1E1E1BEE1E1E1E128E1E1E1E1E1E1BEBEBEBEBEBEE1E1E1E1E1E1E1E1E1E1E1E1E1E1E1E1E1E1E1E1E1E2BEE2BEBEBEBEBEBEBEBEBEBEBEBEBEBEBEBEBEBEBEBEBEBEBEBEBEBEBEBEBEBEBEBEBEBEBEBEBEBEBEBEBEBEBEBEBEBEBEBEBEBEBEBEBEBEBEBEBEBEBEBEBEBEBEBEBEBEBEBEBEBEBEBEBEBEBEBE
310
BEBEBEBEBEE2E2E2E2E1E1BEE1E1E1E1E1E1E1E1E1E1E1E1E1E1E1E1E1E1E1E1E1E1E1E1E1E1E1E1E1E1E1E1E1E128BEE1E1E1E1E1E1E1E1E1E1E1E1E1E1E1E1E1E1E1E1E1E1E1E1E1E1E1E1E1E1E1E1E1E1E1E1E1E1E1E1E1E1E1E1E1E1E1E1E1E1E1E1E1E1E1E1E1E1E1E1E1E1E1E1E1E1E1E1E1E1E1E1E1E1E1E1E1E1E1
310
E1E1E1E1E1E1E1E1E1E1E1BEE1E1E1E128E1E1E1E1E1E1BEBEBEBEBEBEE1E1E1E1E1E1E1E1E1E1E1E1E1E1E1E1E1E1E1E1E1E2E2E2E2E2E2E2E2E2E2E2E2E2E2E2E2E2E2E2E2E2E2E2E2E2E2E2E2E2E2E2E2E2E2E2E2E2E2E2E2E2E2E2E2E2E2E2E2E2E2E2E2E2E2E2E2E2E2E2E2E2E2E2E2E2E2E2E2E2E2E2E2E2E2E2E2E2
310
E2E2E2E2E2E2E2E2E2E2E2E1E1BEE1E1E1E1E1E1E1E1E1E1E1E1E1E1E1E1E1E1E1E1E1E1E1E1E1E1E1E1E1E1E1E1E1E128BEE1E1E1E1E1E1E1E1E1E1E1E1E1E1E1E1E1E1E1E1E1E1E1E1E1E1E1E1E1E1E1E1E1E1E1E1E1E1E1E1E1E1E1E1E1E1E1E1E1E1E1E1E1E1E1E1E1E1E1E1E1E1E1E1E1E1E1E1E1E1E1E1E1E1E1E1E1
310
E1E1E1E1E1E1E1E1E1E1E1E1E1BEE1E1E1E128E1E1E1E1E1E1BEBEE1E1E2E2E1E1E1E1E1E1E1E1E1E1E1E1E1E1E1E1E1E1E1E1E1E2E2E2E2E1E1E1E1E1E1E1E1E1E1E1E1E1E1E1E1E1E1E1E1E1E1E1E1E1E1E1E1E1E1E1E1E1E1E1E1E1E1E1BEE1E1E1E1E1E1E1E1E1E1E1E1E1E1E1E1E1E1E1E1E1E1E1E1E1E1E1E1E1E1E1
310
E1E1E1E1E1E1E1E1E2E2BEE2E2E1E1BEE1E1E1E1E1E1E1E1E1E1E1E1E1E1E1E1E1E1E1E1E1E1E1E1E1E1E1E1E1E1E1E1E1E128BEE1E1E1E1E1E1E1E1E1E1E1E1E1E1E1E1E1E1E1E1E1E1E1E1E1E1E1E1E1E1E1E1E1E1E1E1E1E1E1E1E1E1E1E1E1E1E1E1E1E1E1E1E1E1E1E1E1E1E1E1E1E1E1E1E1E1E1E1E1E1E1E1E1E1E1
310
E1E1E1E1E1E1E1E1E1E1E1E1E1E1E1BEE1E1E1E128E1E1E1E1E1E1E2BEBEE2E2E2E1E1E1E1E1E1E1E1E1E1E1E1E1E1E1E1E1E1E1E1E1E2BEE1E2E1E1E1E1E1E1E1E1E1E1E1E1E1E1E1E1E1E1E1E1E1E1E1E1E1E1E1E1E1E1E1E1E1E1E1E1E1E1E1BEE1E1E1E1E1E1E1E1E1E1E1E1E1E1E1E1E1E1E1E1E1E1E1E1E1E1E1E1E1
310
E1E1E1E1E1E1E1E1E1E1E2E1BEE2E2E1E1BEE1E1E1E1E1E1E1E1E1E1E1E1E1E1E1E1E1E1E1E1E1E1E1E1E1E1E1E1E1E1E1E1E1E128BEE1E1E1E1E1E1E1E1E1E1E1E1E1E1E1E1E1E1E1E1E1E1E1E1E1E1E1E1E1E1E1E1E1E1E1E1E1E1E1E1E1E1E1E1E1E1E1E1E1E1E1E1E1E1E1E1E1E1E1E1E1E1E1E1E1E1E1E1E1E1E1E1E1
310
E1E1E1E1E1E1E1E1E1E1E1E1E1E1E1E1E1BEE1E1E1E128E1E1E1E1E1E1E2BEBEE1E1E2E1E1E1E1E1E1E1E1E1E1E1E1E1E1E1E1E1E1E1E1E1E2BEE1E2E1E1E1E1E1E1E1E1E1E1E1E1E1E1E1E1E1E1E1E1E1E1E1E1E1E1E1E1E1E1E1E1E1E1E1E1E1E1E1BEE1E1E1E1E1E1E1E1E1E1E1E1E1E1E1E1E1E1E1E1E1E1E1E1E1E1E1
310
E1E1E1E1E1E1E1E1E1E1E1E1E2E1BEE2E2E1E1BEE1E1E1E1E1E1E1E1E1E1E1E1E1E1E1E1E1E1E1E1E1E1E1E1E1E1E1E1E1E1E1E1E1E128BEE1E1E1E1E1E1E1E1E1E1E1E1E1E1E1E1E1E1E1E1E1E1E1E1E1E1E1E1E1E1E1E1E1E1E1E1E1E1E1E1E1E1E1E1E1E1E1E1E1E1E1E1E1E1E1E1E1E1E1E1E1E1E1E1E1E1E1E1E1E1E1
310
E1E1E1E1E1E1E1E1E1E1E1E1E1E1E1E1E1E1E1BEE1E1E1E128E1E1E1E1E1E1E1BEBEE1E1E2E1E1E1E1E1E1E1E1E1E1E1E1E1E1E1E1E1E1E1E1E1E2BEE1E2E1E1E1E1E1E1E1E1E1E1E1E1E1E1E1E1E1E1E1E1E1E1E1E1E1E1E1E1E1E1E1E1E1E1E1E1E1E1E1BEE1E1E1E1E1E1E1E1E1E1E1E1E1E1E1E1E1E1E1E1E1E1E1E1E1
310
E1E1E1E1E1E1E1E1E1E1E1E1E1E1E2E1BEE2E2E1E1BEE1E1E1E1E1E1E1E1E1E1E1E1E1E1E1E1E1E1E1E1E1E1E1E1E1E1E1E1E1E1E1E1E1E128BEE1E1E1E1E1E1E1E1E1E1E1E1E1E1E1E1E1E1E1E1E1E1E1E1E1E1E1E1E1E1E1E1E1E1E1E1E1E1E1E1E1E1E1E1E1E1E1E1E1E1E1E1E1E1E1E1E1E1E1E1E1E1E1E1E1E1E1E1E1
310
E1E1E1E1E1E1E1E1E1E1E1E1E1E1E1E1E1E1E1E1E1BEE1E1E1E128E1E1E1E1E1E1E1BEBEE1E1E2E1E1E1E1E1E1E1E1E1E1E1E1E1E1E1E1E1E1E1E1E1E2BEE1E2E1E1E1E1E1E1E1E1E1E1E1E1E1E1E1E1E1E1E1E1E1E1E1E1E1E1E1E1E1E1E1E1E1E1E1E1E1E1E1BEE1E1E1E1E1E1E1E1E1E1E1E1E1E1E1E1E1E1E1E1E1E1E1
310
E1E1E1E1E1E1E1E1E1E1E1E1E1E1E1E1E2E1E1BEE2E1E1BEE1E1E1E1E1E1E1E1E1E1E1E1E1E1E1E1E1E1E1E1E1E1E1E1E1E1E1E1E1E1E1E1E1E128BEE1E1E1E1E1E1E1E1E1E1E1E1E1E1E1E1E1E1E1E1E1E1E1E1E1E1E1E1E1E1E1E1E1E1E1E1E1E1E1E1E1E1E1E1E1E1E1E1E1E1E1E1E1E1E1E1E1E1E1E1E1E1E1E1E1E1E1
310
E1E1E1E1E1E1E1E1E1E1E1E1E1E1E1E1E1E1E1E1E1E1E1BEE1E1E1E128E1E1E1E1E1E1E1BEBEE1E1E2E1E1E1E1E1E1E1E1E1E1E1E1E1E1E1E1E1E1E1E1E1E2BEE1E2E1E1E1E1E1E1E1E1E1E1E1E1E1E1E1E1E1E1E1E1E1E1E1E1E1E1E1E1E1E1E1E1E1E1E1E1E1E1E1BEE1E1E1E1E1E1E1E1E1E1E1E1E1E1E1E1E1E1E1E1E1
310
E1E1E1E1E1E1E1E1E1E1E1E1E1E1E1E1E1E1E2E1E1BEE2E10F0FE1E1E1E1E1E1E1E1E1E1E1E1E1E1E1E1E1E1E1E1E1E1E1E1E1E1E1E1E1E1E1E1E1E128BEE1E1E1E1E1E1E1E1E1E1E1E1E1E1E1E1E1E1E1E1E1E1E1E1E1E1E1E1E1E1E1E1E1E1E1E1E1E1E1E1E1E1E1E1E1E1E1E1E1E1E1E1E1E1E1E1E1E1E1E1E1E1E1E1E1
310
E1E1E1E1E1E1E1E1E1E1E1E1E1E1E1E1E1E1E1E1E1E1E1E1E1BEE1E1E1E128E1E1E1E1E1E1E1BEBEE1E1E2E1E1E1E1E1E1E1E1E1E1E1E1E1E1E1E1E1E1E1E1E1E2BEE1E2E1E1E1E1E1E1E1E1E1E1E1E1E1E1E1E1E1E1E1E1E1E1E1E1E1E1E1E1E1E1E1E1E1E1E1E1E1E1E1BEE1E1E1E1E1E1E1E1E1E1E1E1E1E1E1E1E1E1E1
310
E1E1E1E1E1E1E1E1E1E1E1E1E1E1E1E1E1E1E1E1E2E1E1BEE2E10F0FE1E1E1E1E1E1E1E1E1E1E1E1E1E1E1E1E1E1E1E1E1E1E1E1E1E1E1E1E1E1E1E1E1E128BEE1E1E1E1E1E1E1E1E1E1E1E1E1E1E1E1E1E1E1E1E1E1E1E1E1E1E1E1E1E1E1E1E1E1E1E1E1E1E1E1E1E1E1E1E1E1E1E1E1E1E1E1E1E1E1E1E1E1E1E1E1E1E1
310
E1E1E1E1E1E1E1E1E1E1E1E1E1E1E1E1E1E1E1E1E1E1E1E1E1E1E1BEE1E1E1E128E1E1E1E1E1E1E1BEBEE1E1E2E1E1E1E1E1E1E1E1E1E1E1E1E1E1E1E1E1E1E1E1E1E2BEE1E2E1E1E1E1E1E1E1E1E1E1E1E1E1E1E1E1E1E1E1E1E1E1E1E1E1E1E1E1E1E1E1E1E1E1E1E1E1E1E1BEE1E1E1E1E1E1E1E1E1E1E1E1E1E1E1E1E1
310
E1E1E1E1E1E1E1E1E1E1E1E1E1E1E1E1E1E1E1E1E1E1E2E1E1BEE2E10F0FE1E1E1E1E1E1E1E1E1E1E1E1E1E1E1E1E1E1E1E1E1E1E1E1E1E1E1E1E1E1E1E1E1E128BEE1E1E1E1E1E1E1E1E1E1E1E1E1E1E1E1E1E1E1E1E1E1E1E1E1E1E1E1E1E1E1E1E1E1E1E1E1E1E1E1E1E1E1E1E1E1E1E1E1E1E1E1E1E1E1E1E1E1E1E1E1
310
E1E1E1E1E1E1E1E1E1E1E1E1E1E1E1E1E1E1E1E1E1E1E1E1E1E1E1E1E1BEE1E1E1E128E1E1E1E1E1E1E1E2BEBEE1E2E1E1E1E1E1E1E1E1E1E1E1E1E1E1E1E1E1E1E1E1E1E2BEE1E2E1E1E1E1E1E1E1E1E1E1E1E1E1E1E1E1E1E1E1E1E1E1E1E1E1E1E1E1E1E1E1E1E1E1E1E1E1E1E1BEE1E1E1E1E1E1E1E1E1E1E1E1E1E1E1
310
E1E1E1E1E1E1E1E1E1E1E1E1E1E1E1E1E1E1E1E1E1E1E1E1E2E1E1BEE2E10F0FE1E1E1E1E1E1E1E1E1E1E1E1E1E1E1E1E1E1E1E1E1E1E1E1E1E1E1E1E1E1E1E1E1E128BEE1E1E1E1E1E1E1E1E1E1E1E1E1E1E1E1E1E1E1E1E1E1E1E1E1E1E1E1E1E1E1E1E1E1E1E1E1E1E1E1E1E1E1E1E1E1E1E1E1E1E1E1E1E1E1E1E1E1E1
310
E1E1E1E1E1E1E1E1E1E1E1E1E1E1E1E1E1E1E1E1E1E1E1E1E1E1E1E1E1E1E1BEE1E1E1E128E1E1E1E1E1E1E1E2BEBEE1E2E1E1E1E1E1E1E1E1E1E1E1E1E1E1E1E1E1E1E1E1E1E2BEE1E2E1E1E1E1E1E1E1E1E1E1E1E1E1E1E1E1E1E1E1E1E1E1E1E1E1E1E1E1E1E1E1E1E1E1E1E1E1E1E1BEE1E1E1E1E1E1E1E1E1E1E1E1E1
310
E1E1E1E1E1E1E1E1E1E1E1E1E1E1E1E1E1E1E1E1E1E1E1E1E1E1E2E1E1BEE2E10F0FE1E1E1E1E1E1E1E1E1E1E1E1E1E1E1E1E1E1E1E1E1E1E1E1E1E1E1E1E1E1E1E1E1E128BEE1E1E1E1E1E1E1E1E1E1E1E1E1E1E1E1E1E1E1E1E1E1E1E1E1E1E1E1E1E1E1E1E1E1E1E1E1E1E1E1E1E1E1E1E1E1E1E1E1E1E1E1E1E1E1E1E1
310
E1E1E1E1E1E1E1E1E1E1E1E1E1E1E1E1E1E1E1E1E1E1E1E1E1E1E1E1E1E1E1E1E1BEE1E1E1E128E1E1E1E1E1E1E1E2BEBEE1E2E1E1E1E1E1E1E1E1E1E1E1E1E1E1E1E1E1E1E1E1E1E2BEE1E2E1E1E1E1E1E1E1E1E1E1E1E1E1E1E1E1E1E1E1E1E1E1E1E1E1E1E1E1E1E1E1E1E1E1E1E1E1E1E1BEE1E1E1E1E1E1E1E1E1E1E1
310
E1E1E1E1E1E1E1E1E1E1E1E1E1E1E1E1E1E1E1E1E1E1E1E1E1E1E1E1E2E1E1BEE2E1E1BEE1E1E1E1E1E1E1E1E1E1E1E1E1E1E1E1E1E1E1E1E1E1E1E1E1E1E1E1E1E1E1E1E1E128BEE1E1E1E1E1E1E1E1E1E1E1E1E1E1E1E1E1E1E1E1E1E1E1E1E1E1E1E1E1E1E1E1E1E1E1E1E1E1E1E1E1E1E1E1E1E1E1E1E1E1E1E1E1E1E1
310
E1E1E1E1E1E1E1E1E1E1E1E1E1E1E1E1E1E1E1E1E1E1E1E1E1E1E1E1E1E1E1E1E1E1E1BEE1E1E1E128E1E1E1E1E1E1E1E2BEBEE1E2E1E1E1E1E1E1E1E1E1E1E1E1E1E1E1E1E1E1E1E1E1E2BEE1E2E1E1E1E1E1E1E1E1E1E1E1E1E1E1E1E1E1E1E1E1E1E1E1E1E1E1E1E1E1E1E1E1E1E1E1E1E1E1E1BEE1E1E1E1E1E1E1E1E1
310
E1E1E1E1E1E1E1E1E1E1E1E1E1E1E1E1E1E1E1E1E1E1E1E1E1E1E1E1E1E1E2E1E1BEE2E1E1BEE1E1E1E1E1E1E1E1E1E1E1E1E1E1E1E1E1E1E1E1E1E1E1E1E1E1E1E1E1E1E1E1E1E128BEE1E1E1E1E1E1E1E1E1E1E1E1E1E1E1E1E1E1E1E1E1E1E1E1E1E1E1E1E1E1E1E1E1E1E1E1E1E1E1E1E1E1E1E1E1E1E1E1E1E1E1E1E1
310
E1E1E1E1E1E1E1E1E1E1E1E1E1E1E1E1E1E1E1E1E1E1E1E1E1E1E1E1E1E1E1E1E1E1E1E1E1BEE1E1E1E128E1E1E1E1E1E1E1E1BEBEE1E2E1E1E1E1E1E1E1E1E1E1E1E1E1E1E1E1E1E1E1E1E1E2BEE1E2E1E1E1E1E1E1E1E1E1E1E1E1E1E1E1E1E1E1E1E1E1E1E1E1E1E1E1E1E1E1E1E1E1E1E1E1E1E1E1BEE1E1E1E1E1E1E1
310
E1E1E1E1E1E1E1E1E1E1E1E1E1E1E1E1E1E1E1E1E1E1E1E1E1E1E1E1E1E1E1E1E2E1E1BEE2E1E1BEE1E1E1E1E1E1E1E1E1E1E1E1E1E1E1E1E1E1E1E1E1E1E1E1E1E1E1E1E1E1E1E1E1E128BEE1E1E1E1E1E1E1E1E1E1E1E1E1E1E1E1E1E1E1E1E1E1E1E1E1E1E1E1E1E1E1E1E1E1E1E1E1E1E1E1E1E1E1E1E1E1E1E1E1E1E1
310
E1E1E1E1E1E1E1E1E1E1E1E1E1E1E1E1E1E1E1E1E1E1E1E1E1E1E1E1E1E1E1E1E1E1E1E1E1E1E1BEE1E1E1E128E1E1E1E1E1E1E1E1BEBEE2E2E1E1E1E1E1E1E1E1E1E1E1E1E1E1E1E1E1E1E1E1E1E2BEE1E2E1E1E1E1E1E1E1E1E1E1E1E1E1E1E1E1E1E1E1E1E1E1E1E1E1E1E1E1E1E1E1E1E1E1E1E1E1E1E1BEE1E1E1E1E1
310
E1E1E1E1E1E1E1E1E1E1E1E1E1E1E1E1E1E1E1E1E1E1E1E1E1E1E1E1E1E1E1E1E1E1E2E1E1BEE2E1E1BEE1E1E1E1E1E1E1E1E1E1E1E1E1E1E1E1E1E1E1E1E1E1E1E1E1E1E1E1E1E1E1E1E1E128BEE1E1E1E1E1E1E1E1E1E1E1E1E1E1E1E1E1E1E1E1E1E1E1E1E1E1E1E1E1E1E1E1E1E1E1E1E1E1E1E1E1E1E1E1E1E1E1E1E1
310
E1E1E1E1E1E1E1E1E1E1E1E1E1E1E1E1E1E1E1E1E1E1E1E1E1E1E1E1E1E1E1E1E1E1E1E1E1E1E1E1E1BEE1E1E1E128E1E1E1E1E1E1E1E1E2BEBEE2E2E1E1E1E1E1E1E1E1E1E1E1E1E1E1E1E1E1E1E1E1E2BEE1E2E1E1E1E1E1E1E1E1E1E1E1E1E1E1E1E1E1E1E1E1E1E1E1E1E1E1E1E1E1E1E1E1E1E1E1E1E1E1E1BEE1E1E1
310
E1E1E1E1E1E1E1E1E1E1E1E1E1E1E1E1E1E1E1E1E1E1E1E1E1E1E1E1E1E1E1E1E1E1E1E1E2E1E1BEE2E1E1BEE1E1E1E1E1E1E1E1E1E1E1E1E1E1E1E1E1E1E1E1E1E1E1E1E1E1E1E1E1E1E1E1E1E128BEE1E1E1E1E1E1E1E1E1E1E1E1E1E1E1E1E1E1E1E1E1E1E1E1E1E1E1E1E1E1E1E1E1E1E1E1E1E1E1E1E1E1E1E1E1E1E1
310
E1E1E1E1E1E1E1E1E1E1E1E1E1E1E1E1E1E1E1E1E1E1E1E1E1E1E1E1E1E1E1E1E1E1E1E1E1E1E1E1E1E1E1BEE1E1E1E128E1E1E1E1E1E1E1E1E2BEBEBEE2E1E1E1E1E1E1E1E1E1E1E1E1E1E1E1E1E1E1E1E1E2BEE1E2E2E2E2E2E2E2E2E2E2E2E2E2E2E2E2E2E2E2E2E2E2E2E2E2E2E2E2E2E2E2E2E2E2E2E2E2E2E2E2E2E2
310
E2E2E2E2E2E2E2E2E2E2E2E2E2E2E2E2E2E2E2E2E2E2E2E2E2E2E2E2E2E2E2E2E2E2E2E2E2E2E2E1E1BEE2E1E1BEE1E1E1E1E1E1E1E1E1E1E1E1E1E1E1E1E1E1E1E1E1E1E1E1E1E1E1E1E1E1E1E1E1E128BEE1E1E1E1E1E1E1E1E1E1E1E1E1E1E1E1E1E1E1E1E1E1E1E1E1E1E1E1E1E1E1E1E1E1E1E1E1E1E1E1E1E1E1E1E1
310
E1E1E1E1E1E1E1E1E1E1E1E1E1E1E1E1E1E1E1E1E1E1E1E1E1E1E1E1E1E1E1E1E1E1E1E1E1E1E1E1E1E1E1E1E1BEE1E1E1E128E1E1E1E1E1E1E1E1E2BEBEBEBEE1E1E1E1E1E1E1E1E1E1E1E1E1E1E1E1E1E1E1E1E2E2E2E2E2E2E2E2E2E2E2E2E2E2E2E2E2E2E2E2E2E2E2E2E2E2E2E2E2E2E2E2E2E2E2E2E2E2E2E2E2E2E2
310
E2E2E2E2E2E2E2E2E2E2E2E2E2E2E2E2E2E2E2E2E2E2E2E2E2E2E2E2E2E2E2E2E2E2E2E2E2E2E2E2E2E2E2BEE2E1E1BEE1E1E1E1E1E1E1E1E1E1E1E1E1E1E1E1E1E1E1E1E1E1E1E1E1E1E1E1E1E1E1E1E1E128BEE1E1E1E1E1E1E1E1E1E1E1E1E1E1E1E1E1E1E1E1E1E1E1E1E1E1E1E1E1E1E1E1E1E1E1E1E1E1E1E1E1E1E1
310
E1E1E1E1E1E1E1E1E1E1E1E1E1E1E1E1E1E1E1E1E1E1E1E1E1E1E1E1E1E1E1E1E1E1E1E1E1E1E1E1E1E1E1E1E1E1E1BEE1E1E1E128E1E1E1E1E1E1E1E1E1E1E1BEBEE1E1E1E1E1E1E1E1E1E1E1E1E1E1E1E1E1E1E1E1BEE2E2E2E2E2E2E2E2E2E2E2E2E2E2E2E2E2E2E2E2E2E2E2E2E2E2E2E2E2E2E2E2E2E2E2E2E2E2E2E2
310
E2E2E2E2E2E2E2E2E2E2E2E2E2E2E2E2E2E2E2E2E2E2E2E2E2E2E2E2E2E2E2E2E2E2E2E2E2E2E2E2E2E2E2E2E2E2BEBEBEBEE1E1E1E1E1E1E1E1E1E1E1E1E1E1E1E1E1E1E1E1E1E1E1E1E1E1E1E1E1E1E1E1E1E128BEE1E1E1E1E1E1E1E1E1E1E1E1E1E1E1E1E1E1E1E1E1E1E1E1E1E1E1E1E1E1E1E1E1E1E1E1E1E1E1E1E1
310
E1E1E1E1E1E1E1E1E1E1E1E1E1E1E1E1E1E1E1E1E1E1E1E1E1E1E1E1E1E1E1E1E1E1E1E1E1E1E1E1E1E1E1E1E1E1E1E1E1BEE1E1E1E128E1E1E1E1E1E1E1E1E1E1E1E1E1E1E1E1E1E1E1E1E1E1E1E1E1E1E1E1E1E1E1E1E1BEE1E1E1E1E1E1E1E1E1E1E1E1E1E1E1E1E1E1E1E1E1E1E1E1E1E1E1E1E1E1E1E1E1E1E1E1E1E1
310
E1E1E1E1BEE1E1E1E1E1E1E1E1E1E1E1E1E1E1E1E1E1E1E1E1E1E1E1E1E1E1E1E1E1E1E1E1E1E1E1E1E1E1E1E1E1E1E1BEE1E1E1E1E1E1E1E1E1E1E1E1E1E1E1E1E1E1E1E1E1E1E1E1E1E1E1E1E1E1E1E1E1E1E1E1E128BEE1E1E1E1E1E1E1E1E1E1E1E1E1E1E1E1E1E1E1E1E1E1E1E1E1E1E1E1E1E1E1E1E1E1E1E1E1E1E1
310
E1E1E1E1E1E1E1E1E1E1E1E1E1E1E1E1E1E1E1E1E1E1E1E1E1E1E1E1E1E1E1E1E1E1E1E1E1E1E1E1E1E1E1E1E1E1E1E1E1E1E1BEE1E1E1E128E1E1E1E1E1E1E1E1E1E1E1E1E1E1E1E1E1E1E1E1E1E1E1E1E1E1E1E1E1E1E1E1E1BEE1E1E1E1E1E1E1E1E1E1E1E1E1E1E1E1E1E1E1E1E1E1E1E1E1E1E1E1E1E1E1E1E1E1E1E1
310
E1E1E1E1E1E1E1E1E1E1E1E1E1E1E1E1E1E1E1E1E1E1E1E1E1E1E1E1E1E1E1E1E1E1E1E1E1E1E1E1E1E1E1E1E1E1E1E1E1E1BEE1E1E1E1E1E1E1E1E1E1E1E1E1E1E1E1E1E1E1E1E1E1E1E1E1E1E1E1E1E1E1E1E1E1E1E1E128BEE1E1E1E1E1E1E1E1E1E1E1E1E1E1E1E1E1E1E1E1E1E1E1E1E1E1E1E1E1E1E1E1E1E1E1E1E1
310
E1E1E1E1E1E1E1E1E1E1E1E1E1E1E1E1E1E1E1E1E1E1E1E1E1E1E1E1E1E1E1E1E1E1E1E1E1E1E1E1E1E1E1E1E1E1E1E1E1E1E1E1E1BEE1E1E1E128E1E1E1E1E1E1E1E1E1E1E1E1E1E1E1E1E1E1E1E1E1E1E1E1E1E1E1E1E1E1E1E1E1BEBEBEBEBEBEBEBEBEBEBEBEBEBEBEBEBEBEBEBEBEBEBEBEBEBEBEBEBEBEBEBEBEBEBE
310
BEBEBEBEBEBEBEBEBEBEBEBEBEBEBEBEBEBEBEBEBEBEBEBEBEBEBEBEBEBEBEBEBEBEBEBEBEBEBEBEBEBEBEBEBEBEBEBEBEBEBEBEBEE1E1E1E1E1E1E1E1E1E1E1E1E1E1E1E1E1E1E1E1E1E1E1E1E1E1E1E1E1E1E1E1E1E1E1E1E128BEE1E1E1E1E1E1E1E1E1E1E1E1E1E1E1E1E1E1E1E1E1E1E1E1E1E1E1E1E1E1E1E1E1E1E1
310
E1E1E1E1E1E1E1E1E1E1E1E1E1E1E1E1E1E1E1E1E1E1E1E1E1E1E1E1E1E1E1E1E1E1E1E1E1E1E1E1E1E1E1E1E1E1E1E1E1E1E1E1E1E1E1BEE1E1E1E128E1E1E1E1E1E1E1E1E1E1E1E1E1E1E1E1E1E1E1E1E1E1E1E1E1E1E1E1E1E1E1E1E1BEBEE1E1E1E1E1E1E1E1E1E1E1E1E1E1E1E1E1E1E1E1E1E1E1E1E1E1E1E1E1E1E1
310
E1E1E1E1E1E1E1E10F0F0F0F0FE1E1E1E1E1E1E1E1E1E1E1E1E1E1E1E1E1E1E1E1E1E1E1E1E1E1E1E1E1E1E1E1E1E1E1E1E1E1E1E1BEBEE1E1E1E1E1E1E1E1E1E1E1E1E1E1E1E1E1E1E1E1E1E1E1E1E1E1E1E1E1E1E1E1E1E1E1E1E128BEE1E1E1E1E1E1E1E1E1E1E1E1E1E1E1E1E1E1E1E1E1E1E1E1E1E1E1E1E1E1E1E1E1
310
E1E1E1E1E1E1E1E1E1E1E1E1E1E1E1E1E1E1E1E1E1E1E1E1E1E1E1E1E1E1E1E1E1E1E1E1E1E1E1E1E1E1E1E1E1E1E1E1E1E1E1E1E1E1E1E1E1BEE1E1E1E128E1E1E1E1E1E1E1E1E1E1E1E1E1E1E1E1E1E1E1E1E1E1E1E1E1E1E1E1E1E1E1E1E1E1E1E1E1E1E1E1E1E1E1E1E1E1E1E1E1E1E1E1E1E1E1E1E1E1E1E1E1E1E1E1
310
E1E1E1E1E1E1E1E1E1E10F0F0FE10FE1E1E1E1E1E1E1E1E1E1E1E1E1E1E1E1E1E1E1E1E1E1E1E1E1E1E1E1E1E1E1E1E1E1E1E1E1E1E1E1E1E1E1E1E1E1E1E1E1E1E1E1E1E1E1E1E1E1E1E1E1E1E1E1E1E1E1E1E1E1E1E1E1E1E1E1E1E1E128BEE1E1E1E1E1E1E1E1E1E1E1E1E1E1E1E1E1E1E1E1E1E1E1E1E1E1E1E1E1E1E1
310
E1E1E1E1E1E1E1E1E1E1E1E1E1E1E1E1E1E1E1E1E1E1E1E1E1E1E1E1E1E1E1E1E1E1E1E1E1E1E1E1E1E1E1E1E1E1E1E1E1E1E1E1E1E1E1E1E1E1E1BEE1E1E1E128E1E1E1E1E1E1E1E1E1E1E1E1E1E1E1E1E1E1E1E1E1E1E1E1E1E1E1E1E1E1E1E1E1E1E1E1E1E1E1E1E1E1E1E1E1E1E1E1E1E1E1E1E1E1E1E1E1E1E1E1E1E1
310
E1E1E1E1E1E1E1E1E1E1E1E1E1E1E1E1E1E1E1E1E1E1E1E1E1E1E1E1E1E1E1E1E1E1E1E1E1E1E1E1E1E1E1E1E1E1E1E1E1E1E1E1E1E1E1E1E1E1E1E1E1E1E1E1E1E1E1E1E1E1E1E1E1E1E1E1E1E1E1E1E1E1E1E1E1E1E1E1E1E1E1E1E1E1E1E128BEE1E1E1E1E1E1E1E1E1E1E1E1E1E1E1E1E1E1E1E1E1E1E1E1E1E1E1E1E1
310
E1E1E1E1E1E1E1E1E1E1E1E1E1E1E1E1E1E1E1E1E1E1E1E1E1E1E1E1E1E1E1E1E1E1E1E1E1E1E1E1E1E1E1E1E1E1E1E1E1E1E1E1E1E1E1E1E1E1E1E1E1BEE1E1E1E128E1E1E1E1E1E1E1E1E1E1E1E1E1E1E1E1E1E1E1E1E1E1E1E1E1E1E1E1E1E1E1E1E1E1E1E1E1E1E1E1E1E1E1E1E1E1E1E1E1E1E1E1E1E1E1E1E1E1E1E1
310
E1E1E1E1E1E1E1E1E1E1E1E1E1E1E1E1E1E1E1E1E1E1E1E1E1E1E1E1E1E1E1E1E1E1E1E1E1E1E1E1E1E1E1E1E1E1E1E1E1E1E1E1E1E1E1E1E1E1E1E1E1E1E1E1E1E1E1E1E1E1E1E1E1E1E1E1E1E1E1E1E1E1E1E1E1E1E1E1E1E1E1E1E1E1E1E1E1E128BEE1E1E1E1E1E1E1E1E1E1E1E1E1E1E1E1E1E1E1E1E1E1E1E1E1E1E1
310
E1E1E1E1E1E1E1E1E1E1E1E1E1E1E1E1E1E1E1E1E1E1E1E1E1E1E1E1E1E1E1E1E1E1E1E1E1E1E1E1E1E1E1E1E1E1E1E1E1E1E1E1E1E1E1E1E1E1E1E1E1E1E1BEE1E1E1E128E1E1E1E1E1E1E1E1E1E1E1E1E1E1E1E1E1E1E1E1E1E1E1E1E1E1E1E1E1E1E1E1E1E1E1E1E1E1E1E1E1E1E1E1E1E1E1E1E1E1E1E1E1E1E1E1E1E1
310
E1E1E1E1E1E1E1E1E1E1E1E1E1E1E1E1E1E1E1E1E1E1E1E1E1E1E1E1E1E1E1E1E1E1E1E1E1E1E1E1E1E1E1E1E1E1E1E1E1E1E1E1E1E1E1E1E1E1E1E1E1E1E1E1E1E1E1E1E1E1E1E1E1E1E1E1E1E1E1E1E1E1E1E1E1E1E1E1E1E1E1E1E1E1E1E1E1E1E1E128BEE1E1E1E1E1E1E1E1E1E1E1E1E1E1E1E1E1E1E1E1E1E1E1E1E1
310
E1E1E1E1E1E1E1E1E1E1E1E1E1E1E1E1E1E1E1E1E1E1E1E1E1E1E1E1E1E1E1E1E1E1E1E1E1E1E1E1E1E1E1E1E1E1E1E1E1E1E1E1E1E1E1E1E1E1E1E1E1E1E1E1E1BEE1E1E1E128E1E1E1E1E1E1E1E1E1E1E1E1E1E1E1E1E1E1E1E1E1E1E1E1E1E1E1E1E1E1E1E1E1E1E1E1E1E1E1E1E1E1E1E1E1E1E1E1E1E1E1E1E1E1E1E1
310
E1E1E1E1E1E1E1E1E1E1E1E1E1E1E1E1E1E1E1E1E1E1E1E1E1E1E1E1E1E1E1E1E1E1E1E1E1E1E1E1E1E1E1E1E1E1E1E1E1E1E1E1E1E1E1E1E1E1E1E1E1E1E1E1E1E1E1E1E1E1E1E1E1E1E1E1E1E1E1E1E1E1E1E1E1E1E1E1E1E1E1E1E1E1E1E1E1E1E1E1E1E128BEE1E1E1E1E1E1E1E1E1E1E1E1E1E1E1E1E1E1E1E1E1E1E1
310
E1E1E1E1E1E1E1E1E1E1E1E1E1E1E1E1E1E1E1E1E1E1E1E1E1E1E1E1E1E1E1E1E1E1E1E1E1E1E1E1E1E1E1E1E1E1E1E1E1E1E1E1E1E1E1E1E1E1E1E1E1E1E1E1E1E1E1BEE1E1E1E128E1E1E1E1E1E1E1E1E1E1E1E1E1E1E1E1E1E1E1E1E1E1E1E1E1E1E1E1E1E1E1E1E1E1E1E1E1E1E1E1E1E1E1E1E1E1E1E1E1E1E1E1E1E1
310
E1E1E1E1E1E1E1E1E1E1E1E1E1E1E1E1E1E1E1E1E1E1E1E1E1E1E1E1E1E1E1E1E1E1E1E1E1E1E1E1E1E1E1E1E1E1E1E1E1E1E1E1E1E1E1E1E1E1E1E1E1E1E1E1E1E1E1E1E1E1E1E1E1E1E1E1E1E1E1E1E1E1E1E1E1E1E1E1E1E1E1E1E1E1E1E1E1E1E1E1E1E1E1E128BEE1E1E1E1E1E1E1E1E1E1E1E1E1E1E1E1E1E1E1E1E1
310
E1E1E1E1E1E1E1E1E1E1E1E1E1E1E1E1E1E1E1E1E1E1E1E1E1E1E1E1E1E1E1E1E1E1E1E1E1E1E1E1E1E1E1E1E1E1E1E1E1E1E1E1E1E1E1E1E1E1E1E1E1E1E1E1E1E1E1E1E1BEE1E1E1E1282828282828282828282828282828282828282828282828282828BE28282828282828282828282828282828282828282828282828
310
28BE28282828282828282828282828282828282828282828282828282828282828282828282828282828282828282828282828282828BE28282828282828282828282828282828282828282828282828282828282828282828282828282828282828282828282828282828BEE1E1E1E1E1E1E1E1E1E1E1E1E1E1E1E1E1E1E1
310
E1E1E1E1E1E1E1E1E1E1E1E1E1E1E1E1E1E1E1E1E1E1E1E1E1E1E1E1E1E1E1E1E1E1E1E1E1E1E1E1E1E1E1E1E1E1E1E1E1E1E1E1E1E1E1E1E1E1E1E1E1E1E1E1E1E1E1E1E1E1E1BEE1E1E1E1E1E1E1E1E1E1E1E1E1E1E1E1E1E1E1E1E1E1E1E1E1E1E1E1E1E1E1BEE1E1E1E1E1E1E1E1E1E1E1E1E1E1E1E1E1E1E1E1E1E1E1
310
E1E1E1BEE1E1E1E1E1E1E1E1E1E1E1E1E1E1E1E1E1E1E1E1E1E1E1E1E1E1E1E1E1E1E1E1E1E1E1E1E1E1E1E1E1E1E1E1E1E1E1E1E1E1E1E1BEE1E1E1E1E1E1E1E1E1E1E1E1E1E1E1E1E1E1E1E1E1E1E1E1E1E1E1E1E1E1E1E1E1E1E1E1E1E1E1E1E1E1E1E1E1E1E1E1E1E1E1E1BEE1E1E1E1E1E1E1E1E1E1E1E1E1E1E1E1E1
310
E1E1E1E1E1E1E1E1E1E1E1E1E1E1E1E1E1E1E1E1E1E1E1E1E1E1E1E1E1E1E1E1E1E1E1E1E1E1E1E1E1E1E1E1E1E1E1E1E1E1E1E1E1E1E1E1E1E1E1E1E1E1E1E1E1E1E1E1E1E1E1E1E1BEBEBEBEBEBEBEBEBEBEBEBEBEBEBEBEBEBEBEBEBEBEBEBEBEBEBEBEBEBEBEBEBEBEBEBEBEBEBEBEBEBEBEBEBEBEBEBEBEBEBEBEBEBE
310
BEBEBEBEBEBEBEBEBEBEBEBEBEBEBEBEBEBEBEBEBEBEBEBEBEBEBEBEBEBEBEBEBEBEBEBEBEBEBEBEBEBEBEBEBEBEBEBEBEBEBEBEBEBEBEBEBEBEBEBEBEBEBEBEBEBEBEBEBEBEBEBEBEBEBEBEBEBEBEBEBEBEBEBEBEBEBEBEBEBEBEBEBEBEBEBEBEBEBEBEBEBEBEBEBEBEBEBEBEBEBEBEE1E1E1E1E1E1E1E1E1E1E1E1E1E1E1
310
E1E1E1E1E1E1E1E1E1E1E1E1E1E1E1E1E1E1E1E1E1E1E1E1E1E1E1E1E1E1
  0
XRECORD
  5
BE7C8
102
{ACAD_REACTORS
330
BE7C7
102
}
330
BE7C7
100
AcDbXrecord
280
     1
102
MATERIAL
148
0.0
149
0.0
149
0.0
 93
        0
 94
       63
282
     0
 72
     1
 77
     1
171
     1
175
     1
179
     1
273
     0
  0
XRECORD
  5
BE7C6
102
{ACAD_REACTORS
330
BE7C5
102
}
330
BE7C5
100
AcDbXrecord
280
     1
102
MATERIAL
148
0.0
149
0.0
149
0.0
 93
        0
 94
       63
282
     0
 72
     1
 77
     1
171
     1
175
     1
179
     1
273
     0
  0
XRECORD
  5
BE7CA
102
{ACAD_REACTORS
330
BE7C9
102
}
330
BE7C9
100
AcDbXrecord
280
     1
102
MATERIAL
148
0.0
149
0.0
149
0.0
 93
        0
 94
       63
282
     0
 72
     1
 77
     1
171
     1
175
     1
179
     1
273
     0
  0
CELLSTYLEMAP
  5
BE7BA
102
{ACAD_REACTORS
330
BE77E
102
}
330
BE77E
100
AcDbCellStyleMap
 90
        3
300
CELLSTYLE
  1
TABLEFORMAT_BEGIN
 90
        5
170
     1
 91
        0
 92
    32768
 62
   257
 93
        1
300
CONTENTFORMAT
  1
CONTENTFORMAT_BEGIN
 90
        0
 91
        0
 92
        4
 93
        0
300

 40
0.0
140
1.0
 94
        5
 62
     0
340
11
144
6.0
309
CONTENTFORMAT_END
171
     1
301
MARGIN
  1
CELLMARGIN_BEGIN
 40
1.5
 40
1.5
 40
1.5
 40
1.5
 40
0.18
 40
0.18
309
CELLMARGIN_END
 94
        6
 95
        1
302
GRIDFORMAT
  1
GRIDFORMAT_BEGIN
 90
        0
 91
        1
 62
     0
 92
       -2
340
0
 93
        0
 40
0.045
309
GRIDFORMAT_END
 95
        2
302
GRIDFORMAT
  1
GRIDFORMAT_BEGIN
 90
        0
 91
        1
 62
     0
 92
       -2
340
0
 93
        0
 40
0.045
309
GRIDFORMAT_END
 95
        4
302
GRIDFORMAT
  1
GRIDFORMAT_BEGIN
 90
        0
 91
        1
 62
     0
 92
       -2
340
0
 93
        0
 40
0.045
309
GRIDFORMAT_END
 95
        8
302
GRIDFORMAT
  1
GRIDFORMAT_BEGIN
 90
        0
 91
        1
 62
     0
 92
       -2
340
0
 93
        0
 40
0.045
309
GRIDFORMAT_END
 95
       16
302
GRIDFORMAT
  1
GRIDFORMAT_BEGIN
 90
        0
 91
        1
 62
     0
 92
       -2
340
0
 93
        0
 40
0.045
309
GRIDFORMAT_END
 95
       32
302
GRIDFORMAT
  1
GRIDFORMAT_BEGIN
 90
        0
 91
        1
 62
     0
 92
       -2
340
0
 93
        0
 40
0.045
309
GRIDFORMAT_END
309
TABLEFORMAT_END
  1
CELLSTYLE_BEGIN
 90
        1
 91
        1
300
_TITLE
309
CELLSTYLE_END
300
CELLSTYLE
  1
TABLEFORMAT_BEGIN
 90
        5
170
     1
 91
        0
 92
        0
 62
   257
 93
        1
300
CONTENTFORMAT
  1
CONTENTFORMAT_BEGIN
 90
        0
 91
        0
 92
        4
 93
        0
300

 40
0.0
140
1.0
 94
        5
 62
     0
340
11
144
4.5
309
CONTENTFORMAT_END
171
     1
301
MARGIN
  1
CELLMARGIN_BEGIN
 40
1.5
 40
1.5
 40
1.5
 40
1.5
 40
0.18
 40
0.18
309
CELLMARGIN_END
 94
        6
 95
        1
302
GRIDFORMAT
  1
GRIDFORMAT_BEGIN
 90
        0
 91
        1
 62
     0
 92
       -2
340
0
 93
        0
 40
0.045
309
GRIDFORMAT_END
 95
        2
302
GRIDFORMAT
  1
GRIDFORMAT_BEGIN
 90
        0
 91
        1
 62
     0
 92
       -2
340
0
 93
        0
 40
0.045
309
GRIDFORMAT_END
 95
        4
302
GRIDFORMAT
  1
GRIDFORMAT_BEGIN
 90
        0
 91
        1
 62
     0
 92
       -2
340
0
 93
        0
 40
0.045
309
GRIDFORMAT_END
 95
        8
302
GRIDFORMAT
  1
GRIDFORMAT_BEGIN
 90
        0
 91
        1
 62
     0
 92
       -2
340
0
 93
        0
 40
0.045
309
GRIDFORMAT_END
 95
       16
302
GRIDFORMAT
  1
GRIDFORMAT_BEGIN
 90
        0
 91
        1
 62
     0
 92
       -2
340
0
 93
        0
 40
0.045
309
GRIDFORMAT_END
 95
       32
302
GRIDFORMAT
  1
GRIDFORMAT_BEGIN
 90
        0
 91
        1
 62
     0
 92
       -2
340
0
 93
        0
 40
0.045
309
GRIDFORMAT_END
309
TABLEFORMAT_END
  1
CELLSTYLE_BEGIN
 90
        2
 91
        1
300
_HEADER
309
CELLSTYLE_END
300
CELLSTYLE
  1
TABLEFORMAT_BEGIN
 90
        5
170
     1
 91
        0
 92
        0
 62
   257
 93
        1
300
CONTENTFORMAT
  1
CONTENTFORMAT_BEGIN
 90
        0
 91
        0
 92
        4
 93
        0
300

 40
0.0
140
1.0
 94
        2
 62
     0
340
11
144
4.5
309
CONTENTFORMAT_END
171
     1
301
MARGIN
  1
CELLMARGIN_BEGIN
 40
1.5
 40
1.5
 40
1.5
 40
1.5
 40
0.18
 40
0.18
309
CELLMARGIN_END
 94
        6
 95
        1
302
GRIDFORMAT
  1
GRIDFORMAT_BEGIN
 90
        0
 91
        1
 62
     0
 92
       -2
340
0
 93
        0
 40
0.045
309
GRIDFORMAT_END
 95
        2
302
GRIDFORMAT
  1
GRIDFORMAT_BEGIN
 90
        0
 91
        1
 62
     0
 92
       -2
340
0
 93
        0
 40
0.045
309
GRIDFORMAT_END
 95
        4
302
GRIDFORMAT
  1
GRIDFORMAT_BEGIN
 90
        0
 91
        1
 62
     0
 92
       -2
340
0
 93
        0
 40
0.045
309
GRIDFORMAT_END
 95
        8
302
GRIDFORMAT
  1
GRIDFORMAT_BEGIN
 90
        0
 91
        1
 62
     0
 92
       -2
340
0
 93
        0
 40
0.045
309
GRIDFORMAT_END
 95
       16
302
GRIDFORMAT
  1
GRIDFORMAT_BEGIN
 90
        0
 91
        1
 62
     0
 92
       -2
340
0
 93
        0
 40
0.045
309
GRIDFORMAT_END
 95
       32
302
GRIDFORMAT
  1
GRIDFORMAT_BEGIN
 90
        0
 91
        1
 62
     0
 92
       -2
340
0
 93
        0
 40
0.045
309
GRIDFORMAT_END
309
TABLEFORMAT_END
  1
CELLSTYLE_BEGIN
 90
        3
 91
        2
300
_DATA
309
CELLSTYLE_END
  0
XRECORD
  5
BE7C4
102
{ACAD_REACTORS
330
BE77E
102
}
330
BE77E
100
AcDbXrecord
280
     1
102
ACAD_ROUNDTRIP_PRE2007_TABLESTYLE
 90
        4
 91
        0
  1

 92
        4
 93
        0
  2

 94
        4
 95
        0
  3

  0
XRECORD
  5
BE7D6
102
{ACAD_REACTORS
330
BE7D5
102
}
330
BE7D5
100
AcDbXrecord
280
     1
102
RTVSPropertyOp0
 70
     1
102
RTVSPropertyOp1
 70
     1
102
RTVSPropertyOp2
 70
     1
102
RTVSPropertyOp3
 70
     1
102
RTVSPropertyOp4
 70
     1
102
RTVSPropertyOp5
 70
     1
102
RTVSPropertyOp6
 70
     1
102
RTVSPropertyOp7
 70
     1
102
RTVSPropertyOp8
 70
     1
102
RTVSPropertyOp9
 70
     1
102
RTVSPropertyOp10
 70
     1
102
RTVSPropertyOp11
 70
     1
102
RTVSPropertyOp12
 70
     1
102
RTVSPropertyOp13
 70
     1
102
RTVSPropertyOp14
 70
     1
102
RTVSPropertyOp15
 70
     1
102
RTVSPropertyOp16
 70
     1
102
RTVSPropertyOp17
 70
     1
102
RTVSPropertyOp18
 70
     1
102
RTVSPropertyOp19
 70
     1
102
RTVSPropertyOp20
 70
     1
102
RTVSPropertyOp21
 70
     1
102
RTVSPropertyOp22
 70
     1
102
RTVSPropertyOp23
 70
     1
102
RTVSPropertyOp24
 70
     1
102
RTVSPropertyOp25
 70
     1
102
RTVSPropertyOp26
 70
     1
102
RTVSPropertyOp27
 70
     1
  0
XRECORD
  5
BE7DA
102
{ACAD_REACTORS
330
BE7D9
102
}
330
BE7D9
100
AcDbXrecord
280
     1
102
RTVSPropertyOp0
 70
     1
102
RTVSPropertyOp1
 70
     1
102
RTVSPropertyOp2
 70
     1
102
RTVSPropertyOp3
 70
     1
102
RTVSPropertyOp4
 70
     1
102
RTVSPropertyOp5
 70
     1
102
RTVSPropertyOp6
 70
     1
102
RTVSPropertyOp7
 70
     1
102
RTVSPropertyOp8
 70
     1
102
RTVSPropertyOp9
 70
     1
102
RTVSPropertyOp10
 70
     1
102
RTVSPropertyOp11
 70
     1
102
RTVSPropertyOp12
 70
     1
102
RTVSPropertyOp13
 70
     1
102
RTVSPropertyOp14
 70
     1
102
RTVSPropertyOp15
 70
     1
102
RTVSPropertyOp16
 70
     1
102
RTVSPropertyOp17
 70
     1
102
RTVSPropertyOp18
 70
     1
102
RTVSPropertyOp19
 70
     1
102
RTVSPropertyOp20
 70
     1
102
RTVSPropertyOp21
 70
     1
102
RTVSPropertyOp22
 70
     1
102
RTVSPropertyOp23
 70
     1
102
RTVSPropertyOp24
 70
     1
102
RTVSPropertyOp25
 70
     1
102
RTVSPropertyOp26
 70
     1
102
RTVSPropertyOp27
 70
     1
  0
XRECORD
  5
BE7D8
102
{ACAD_REACTORS
330
BE7D7
102
}
330
BE7D7
100
AcDbXrecord
280
     1
102
RTVSPropertyOp0
 70
     1
102
RTVSPropertyOp1
 70
     1
102
RTVSPropertyOp2
 70
     1
102
RTVSPropertyOp3
 70
     1
102
RTVSPropertyOp4
 70
     1
102
RTVSPropertyOp5
 70
     1
102
RTVSPropertyOp6
 70
     1
102
RTVSPropertyOp7
 70
     1
102
RTVSPropertyOp8
 70
     1
102
RTVSPropertyOp9
 70
     1
102
RTVSPropertyOp10
 70
     1
102
RTVSPropertyOp11
 70
     1
102
RTVSPropertyOp12
 70
     1
102
RTVSPropertyOp13
 70
     1
102
RTVSPropertyOp14
 70
     1
102
RTVSPropertyOp15
 70
     1
102
RTVSPropertyOp16
 70
     1
102
RTVSPropertyOp17
 70
     1
102
RTVSPropertyOp18
 70
     1
102
RTVSPropertyOp19
 70
     1
102
RTVSPropertyOp20
 70
     1
102
RTVSPropertyOp21
 70
     1
102
RTVSPropertyOp22
 70
     1
102
RTVSPropertyOp23
 70
     1
102
RTVSPropertyOp24
 70
     1
102
RTVSPropertyOp25
 70
     1
102
RTVSPropertyOp26
 70
     1
102
RTVSPropertyOp27
 70
     1
  0
XRECORD
  5
BE7D4
102
{ACAD_REACTORS
330
BE7D3
102
}
330
BE7D3
100
AcDbXrecord
280
     1
102
RTVSPropertyOp0
 70
     1
102
RTVSPropertyOp1
 70
     1
102
RTVSPropertyOp2
 70
     1
102
RTVSPropertyOp3
 70
     1
102
RTVSPropertyOp4
 70
     1
102
RTVSPropertyOp5
 70
     1
102
RTVSPropertyOp6
 70
     1
102
RTVSPropertyOp7
 70
     1
102
RTVSPropertyOp8
 70
     1
102
RTVSPropertyOp9
 70
     1
102
RTVSPropertyOp10
 70
     1
102
RTVSPropertyOp11
 70
     1
102
RTVSPropertyOp12
 70
     1
102
RTVSPropertyOp13
 70
     1
102
RTVSPropertyOp14
 70
     1
102
RTVSPropertyOp15
 70
     1
102
RTVSPropertyOp16
 70
     1
102
RTVSPropertyOp17
 70
     1
102
RTVSPropertyOp18
 70
     1
102
RTVSPropertyOp19
 70
     1
102
RTVSPropertyOp20
 70
     1
102
RTVSPropertyOp21
 70
     1
102
RTVSPropertyOp22
 70
     1
102
RTVSPropertyOp23
 70
     1
102
RTVSPropertyOp24
 70
     1
102
RTVSPropertyOp25
 70
     1
102
RTVSPropertyOp26
 70
     1
102
RTVSPropertyOp27
 70
     1
  0
XRECORD
  5
BE7E2
102
{ACAD_REACTORS
330
BE7E1
102
}
330
BE7E1
100
AcDbXrecord
280
     1
102
RTVSPropertyOp0
 70
     1
102
RTVSPropertyOp1
 70
     1
102
RTVSPropertyOp2
 70
     1
102
RTVSPropertyOp3
 70
     1
102
RTVSPropertyOp4
 70
     1
102
RTVSPropertyOp5
 70
     1
102
RTVSPropertyOp6
 70
     1
102
RTVSPropertyOp7
 70
     1
102
RTVSPropertyOp8
 70
     1
102
RTVSPropertyOp9
 70
     1
102
RTVSPropertyOp10
 70
     1
102
RTVSPropertyOp11
 70
     1
102
RTVSPropertyOp12
 70
     1
102
RTVSPropertyOp13
 70
     1
102
RTVSPropertyOp14
 70
     1
102
RTVSPropertyOp15
 70
     1
102
RTVSPropertyOp16
 70
     1
102
RTVSPropertyOp17
 70
     1
102
RTVSPropertyOp18
 70
     1
102
RTVSPropertyOp19
 70
     1
102
RTVSPropertyOp20
 70
     1
102
RTVSPropertyOp21
 70
     1
102
RTVSPropertyOp22
 70
     1
102
RTVSPropertyOp23
 70
     1
102
RTVSPropertyOp24
 70
     1
102
RTVSPropertyOp25
 70
     1
102
RTVSPropertyOp26
 70
     1
102
RTVSPropertyOp27
 70
     1
  0
XRECORD
  5
BE7EA
102
{ACAD_REACTORS
330
BE7E9
102
}
330
BE7E9
100
AcDbXrecord
280
     1
102
RTVSPropertyOp0
 70
     1
102
RTVSPropertyOp1
 70
     1
102
RTVSPropertyOp2
 70
     1
102
RTVSPropertyOp3
 70
     1
102
RTVSPropertyOp4
 70
     1
102
RTVSPropertyOp5
 70
     1
102
RTVSPropertyOp6
 70
     1
102
RTVSPropertyOp7
 70
     1
102
RTVSPropertyOp8
 70
     1
102
RTVSPropertyOp9
 70
     1
102
RTVSPropertyOp10
 70
     1
102
RTVSPropertyOp11
 70
     1
102
RTVSPropertyOp12
 70
     1
102
RTVSPropertyOp13
 70
     1
102
RTVSPropertyOp14
 70
     1
102
RTVSPropertyOp15
 70
     1
102
RTVSPropertyOp16
 70
     1
102
RTVSPropertyOp17
 70
     1
102
RTVSPropertyOp18
 70
     1
102
RTVSPropertyOp19
 70
     1
102
RTVSPropertyOp20
 70
     1
102
RTVSPropertyOp21
 70
     1
102
RTVSPropertyOp22
 70
     1
102
RTVSPropertyOp23
 70
     1
102
RTVSPropertyOp24
 70
     1
102
RTVSPropertyOp25
 70
     1
102
RTVSPropertyOp26
 70
     1
102
RTVSPropertyOp27
 70
     1
  0
XRECORD
  5
BE7DC
102
{ACAD_REACTORS
330
BE7DB
102
}
330
BE7DB
100
AcDbXrecord
280
     1
102
RTVSPropertyOp0
 70
     1
102
RTVSPropertyOp1
 70
     1
102
RTVSPropertyOp2
 70
     1
102
RTVSPropertyOp3
 70
     1
102
RTVSPropertyOp4
 70
     1
102
RTVSPropertyOp5
 70
     1
102
RTVSPropertyOp6
 70
     1
102
RTVSPropertyOp7
 70
     1
102
RTVSPropertyOp8
 70
     1
102
RTVSPropertyOp9
 70
     1
102
RTVSPropertyOp10
 70
     1
102
RTVSPropertyOp11
 70
     1
102
RTVSPropertyOp12
 70
     1
102
RTVSPropertyOp13
 70
     1
102
RTVSPropertyOp14
 70
     1
102
RTVSPropertyOp15
 70
     1
102
RTVSPropertyOp16
 70
     1
102
RTVSPropertyOp17
 70
     1
102
RTVSPropertyOp18
 70
     1
102
RTVSPropertyOp19
 70
     1
102
RTVSPropertyOp20
 70
     1
102
RTVSPropertyOp21
 70
     1
102
RTVSPropertyOp22
 70
     1
102
RTVSPropertyOp23
 70
     1
102
RTVSPropertyOp24
 70
     1
102
RTVSPropertyOp25
 70
     1
102
RTVSPropertyOp26
 70
     1
102
RTVSPropertyOp27
 70
     1
  0
XRECORD
  5
BE7E0
102
{ACAD_REACTORS
330
BE7DF
102
}
330
BE7DF
100
AcDbXrecord
280
     1
102
RTVSPropertyOp0
 70
     1
102
RTVSPropertyOp1
 70
     1
102
RTVSPropertyOp2
 70
     1
102
RTVSPropertyOp3
 70
     1
102
RTVSPropertyOp4
 70
     1
102
RTVSPropertyOp5
 70
     1
102
RTVSPropertyOp6
 70
     1
102
RTVSPropertyOp7
 70
     1
102
RTVSPropertyOp8
 70
     1
102
RTVSPropertyOp9
 70
     1
102
RTVSPropertyOp10
 70
     1
102
RTVSPropertyOp11
 70
     1
102
RTVSPropertyOp12
 70
     1
102
RTVSPropertyOp13
 70
     1
102
RTVSPropertyOp14
 70
     1
102
RTVSPropertyOp15
 70
     1
102
RTVSPropertyOp16
 70
     1
102
RTVSPropertyOp17
 70
     1
102
RTVSPropertyOp18
 70
     1
102
RTVSPropertyOp19
 70
     1
102
RTVSPropertyOp20
 70
     1
102
RTVSPropertyOp21
 70
     1
102
RTVSPropertyOp22
 70
     1
102
RTVSPropertyOp23
 70
     1
102
RTVSPropertyOp24
 70
     1
102
RTVSPropertyOp25
 70
     1
102
RTVSPropertyOp26
 70
     1
102
RTVSPropertyOp27
 70
     1
  0
XRECORD
  5
BE7F0
102
{ACAD_REACTORS
330
BE7EF
102
}
330
BE7EF
100
AcDbXrecord
280
     1
102
RTVSPropertyOp0
 70
     0
102
RTVSPropertyOp1
 70
     0
102
RTVSPropertyOp2
 70
     0
102
RTVSPropertyOp3
 70
     0
102
RTVSPropertyOp4
 70
     0
102
RTVSPropertyOp5
 70
     0
102
RTVSPropertyOp6
 70
     0
102
RTVSPropertyOp7
 70
     0
102
RTVSPropertyOp8
 70
     0
102
RTVSPropertyOp9
 70
     0
102
RTVSPropertyOp10
 70
     0
102
RTVSPropertyOp11
 70
     0
102
RTVSPropertyOp12
 70
     0
102
RTVSPropertyOp13
 70
     0
102
RTVSPropertyOp14
 70
     2
102
RTVSPropertyOp15
 70
     0
102
RTVSPropertyOp16
 70
     0
102
RTVSPropertyOp17
 70
     0
102
RTVSPropertyOp18
 70
     0
102
RTVSPropertyOp19
 70
     0
102
RTVSPropertyOp20
 70
     0
102
RTVSPropertyOp21
 70
     0
102
RTVSPropertyOp22
 70
     0
102
RTVSPropertyOp23
 70
     0
102
RTVSPropertyOp24
 70
     0
102
RTVSPropertyOp25
 70
     0
102
RTVSPropertyOp26
 70
     0
102
RTVSPropertyOp27
 70
     0
  0
XRECORD
  5
BE7E8
102
{ACAD_REACTORS
330
BE7E7
102
}
330
BE7E7
100
AcDbXrecord
280
     1
102
RTVSPropertyOp0
 70
     1
102
RTVSPropertyOp1
 70
     1
102
RTVSPropertyOp2
 70
     1
102
RTVSPropertyOp3
 70
     1
102
RTVSPropertyOp4
 70
     1
102
RTVSPropertyOp5
 70
     1
102
RTVSPropertyOp6
 70
     1
102
RTVSPropertyOp7
 70
     1
102
RTVSPropertyOp8
 70
     1
102
RTVSPropertyOp9
 70
     1
102
RTVSPropertyOp10
 70
     1
102
RTVSPropertyOp11
 70
     1
102
RTVSPropertyOp12
 70
     1
102
RTVSPropertyOp13
 70
     1
102
RTVSPropertyOp14
 70
     1
102
RTVSPropertyOp15
 70
     1
102
RTVSPropertyOp16
 70
     1
102
RTVSPropertyOp17
 70
     1
102
RTVSPropertyOp18
 70
     1
102
RTVSPropertyOp19
 70
     1
102
RTVSPropertyOp20
 70
     1
102
RTVSPropertyOp21
 70
     1
102
RTVSPropertyOp22
 70
     1
102
RTVSPropertyOp23
 70
     1
102
RTVSPropertyOp24
 70
     1
102
RTVSPropertyOp25
 70
     1
102
RTVSPropertyOp26
 70
     1
102
RTVSPropertyOp27
 70
     1
  0
XRECORD
  5
BE7CC
102
{ACAD_REACTORS
330
BE7CB
102
}
330
BE7CB
100
AcDbXrecord
280
     1
102
RTVSPropertyOp0
 70
     1
102
RTVSPropertyOp1
 70
     1
102
RTVSPropertyOp2
 70
     1
102
RTVSPropertyOp3
 70
     1
102
RTVSPropertyOp4
 70
     1
102
RTVSPropertyOp5
 70
     1
102
RTVSPropertyOp6
 70
     1
102
RTVSPropertyOp7
 70
     1
102
RTVSPropertyOp8
 70
     1
102
RTVSPropertyOp9
 70
     1
102
RTVSPropertyOp10
 70
     1
102
RTVSPropertyOp11
 70
     1
102
RTVSPropertyOp12
 70
     1
102
RTVSPropertyOp13
 70
     1
102
RTVSPropertyOp14
 70
     1
102
RTVSPropertyOp15
 70
     1
102
RTVSPropertyOp16
 70
     1
102
RTVSPropertyOp17
 70
     1
102
RTVSPropertyOp18
 70
     1
102
RTVSPropertyOp19
 70
     1
102
RTVSPropertyOp20
 70
     1
102
RTVSPropertyOp21
 70
     1
102
RTVSPropertyOp22
 70
     1
102
RTVSPropertyOp23
 70
     1
102
RTVSPropertyOp24
 70
     1
102
RTVSPropertyOp25
 70
     1
102
RTVSPropertyOp26
 70
     1
102
RTVSPropertyOp27
 70
     1
  0
XRECORD
  5
BE7CE
102
{ACAD_REACTORS
330
BE7CD
102
}
330
BE7CD
100
AcDbXrecord
280
     1
102
RTVSPropertyOp0
 70
     1
102
RTVSPropertyOp1
 70
     1
102
RTVSPropertyOp2
 70
     1
102
RTVSPropertyOp3
 70
     1
102
RTVSPropertyOp4
 70
     1
102
RTVSPropertyOp5
 70
     1
102
RTVSPropertyOp6
 70
     1
102
RTVSPropertyOp7
 70
     1
102
RTVSPropertyOp8
 70
     1
102
RTVSPropertyOp9
 70
     1
102
RTVSPropertyOp10
 70
     1
102
RTVSPropertyOp11
 70
     1
102
RTVSPropertyOp12
 70
     1
102
RTVSPropertyOp13
 70
     1
102
RTVSPropertyOp14
 70
     1
102
RTVSPropertyOp15
 70
     1
102
RTVSPropertyOp16
 70
     1
102
RTVSPropertyOp17
 70
     1
102
RTVSPropertyOp18
 70
     1
102
RTVSPropertyOp19
 70
     1
102
RTVSPropertyOp20
 70
     1
102
RTVSPropertyOp21
 70
     1
102
RTVSPropertyOp22
 70
     1
102
RTVSPropertyOp23
 70
     1
102
RTVSPropertyOp24
 70
     1
102
RTVSPropertyOp25
 70
     1
102
RTVSPropertyOp26
 70
     1
102
RTVSPropertyOp27
 70
     1
  0
XRECORD
  5
BE7D0
102
{ACAD_REACTORS
330
BE7CF
102
}
330
BE7CF
100
AcDbXrecord
280
     1
102
RTVSPropertyOp0
 70
     1
102
RTVSPropertyOp1
 70
     1
102
RTVSPropertyOp2
 70
     1
102
RTVSPropertyOp3
 70
     1
102
RTVSPropertyOp4
 70
     1
102
RTVSPropertyOp5
 70
     1
102
RTVSPropertyOp6
 70
     1
102
RTVSPropertyOp7
 70
     1
102
RTVSPropertyOp8
 70
     1
102
RTVSPropertyOp9
 70
     1
102
RTVSPropertyOp10
 70
     1
102
RTVSPropertyOp11
 70
     1
102
RTVSPropertyOp12
 70
     1
102
RTVSPropertyOp13
 70
     1
102
RTVSPropertyOp14
 70
     1
102
RTVSPropertyOp15
 70
     1
102
RTVSPropertyOp16
 70
     1
102
RTVSPropertyOp17
 70
     1
102
RTVSPropertyOp18
 70
     1
102
RTVSPropertyOp19
 70
     1
102
RTVSPropertyOp20
 70
     1
102
RTVSPropertyOp21
 70
     1
102
RTVSPropertyOp22
 70
     1
102
RTVSPropertyOp23
 70
     1
102
RTVSPropertyOp24
 70
     1
102
RTVSPropertyOp25
 70
     1
102
RTVSPropertyOp26
 70
     1
102
RTVSPropertyOp27
 70
     1
  0
XRECORD
  5
BE7D2
102
{ACAD_REACTORS
330
BE7D1
102
}
330
BE7D1
100
AcDbXrecord
280
     1
102
RTVSPropertyOp0
 70
     1
102
RTVSPropertyOp1
 70
     1
102
RTVSPropertyOp2
 70
     1
102
RTVSPropertyOp3
 70
     1
102
RTVSPropertyOp4
 70
     1
102
RTVSPropertyOp5
 70
     1
102
RTVSPropertyOp6
 70
     1
102
RTVSPropertyOp7
 70
     1
102
RTVSPropertyOp8
 70
     1
102
RTVSPropertyOp9
 70
     1
102
RTVSPropertyOp10
 70
     1
102
RTVSPropertyOp11
 70
     1
102
RTVSPropertyOp12
 70
     1
102
RTVSPropertyOp13
 70
     1
102
RTVSPropertyOp14
 70
     1
102
RTVSPropertyOp15
 70
     1
102
RTVSPropertyOp16
 70
     1
102
RTVSPropertyOp17
 70
     1
102
RTVSPropertyOp18
 70
     1
102
RTVSPropertyOp19
 70
     1
102
RTVSPropertyOp20
 70
     1
102
RTVSPropertyOp21
 70
     1
102
RTVSPropertyOp22
 70
     1
102
RTVSPropertyOp23
 70
     1
102
RTVSPropertyOp24
 70
     1
102
RTVSPropertyOp25
 70
     1
102
RTVSPropertyOp26
 70
     1
102
RTVSPropertyOp27
 70
     1
  0
XRECORD
  5
BE7EC
102
{ACAD_REACTORS
330
BE7EB
102
}
330
BE7EB
100
AcDbXrecord
280
     1
102
RTVSPropertyOp0
 70
     0
102
RTVSPropertyOp1
 70
     0
102
RTVSPropertyOp2
 70
     0
102
RTVSPropertyOp3
 70
     0
102
RTVSPropertyOp4
 70
     0
102
RTVSPropertyOp5
 70
     0
102
RTVSPropertyOp6
 70
     0
102
RTVSPropertyOp7
 70
     0
102
RTVSPropertyOp8
 70
     0
102
RTVSPropertyOp9
 70
     0
102
RTVSPropertyOp10
 70
     0
102
RTVSPropertyOp11
 70
     0
102
RTVSPropertyOp12
 70
     0
102
RTVSPropertyOp13
 70
     0
102
RTVSPropertyOp14
 70
     2
102
RTVSPropertyOp15
 70
     0
102
RTVSPropertyOp16
 70
     0
102
RTVSPropertyOp17
 70
     0
102
RTVSPropertyOp18
 70
     0
102
RTVSPropertyOp19
 70
     0
102
RTVSPropertyOp20
 70
     0
102
RTVSPropertyOp21
 70
     0
102
RTVSPropertyOp22
 70
     0
102
RTVSPropertyOp23
 70
     0
102
RTVSPropertyOp24
 70
     0
102
RTVSPropertyOp25
 70
     0
102
RTVSPropertyOp26
 70
     0
102
RTVSPropertyOp27
 70
     0
  0
XRECORD
  5
BE7E6
102
{ACAD_REACTORS
330
BE7E5
102
}
330
BE7E5
100
AcDbXrecord
280
     1
102
RTVSPropertyOp0
 70
     1
102
RTVSPropertyOp1
 70
     1
102
RTVSPropertyOp2
 70
     1
102
RTVSPropertyOp3
 70
     1
102
RTVSPropertyOp4
 70
     1
102
RTVSPropertyOp5
 70
     1
102
RTVSPropertyOp6
 70
     1
102
RTVSPropertyOp7
 70
     1
102
RTVSPropertyOp8
 70
     1
102
RTVSPropertyOp9
 70
     1
102
RTVSPropertyOp10
 70
     1
102
RTVSPropertyOp11
 70
     1
102
RTVSPropertyOp12
 70
     1
102
RTVSPropertyOp13
 70
     1
102
RTVSPropertyOp14
 70
     1
102
RTVSPropertyOp15
 70
     1
102
RTVSPropertyOp16
 70
     1
102
RTVSPropertyOp17
 70
     1
102
RTVSPropertyOp18
 70
     1
102
RTVSPropertyOp19
 70
     1
102
RTVSPropertyOp20
 70
     1
102
RTVSPropertyOp21
 70
     1
102
RTVSPropertyOp22
 70
     1
102
RTVSPropertyOp23
 70
     1
102
RTVSPropertyOp24
 70
     1
102
RTVSPropertyOp25
 70
     1
102
RTVSPropertyOp26
 70
     1
102
RTVSPropertyOp27
 70
     1
  0
XRECORD
  5
BE7EE
102
{ACAD_REACTORS
330
BE7ED
102
}
330
BE7ED
100
AcDbXrecord
280
     1
102
RTVSPropertyOp0
 70
     0
102
RTVSPropertyOp1
 70
     0
102
RTVSPropertyOp2
 70
     0
102
RTVSPropertyOp3
 70
     0
102
RTVSPropertyOp4
 70
     0
102
RTVSPropertyOp5
 70
     0
102
RTVSPropertyOp6
 70
     0
102
RTVSPropertyOp7
 70
     0
102
RTVSPropertyOp8
 70
     0
102
RTVSPropertyOp9
 70
     0
102
RTVSPropertyOp10
 70
     0
102
RTVSPropertyOp11
 70
     0
102
RTVSPropertyOp12
 70
     0
102
RTVSPropertyOp13
 70
     0
102
RTVSPropertyOp14
 70
     2
102
RTVSPropertyOp15
 70
     0
102
RTVSPropertyOp16
 70
     0
102
RTVSPropertyOp17
 70
     0
102
RTVSPropertyOp18
 70
     0
102
RTVSPropertyOp19
 70
     0
102
RTVSPropertyOp20
 70
     0
102
RTVSPropertyOp21
 70
     0
102
RTVSPropertyOp22
 70
     0
102
RTVSPropertyOp23
 70
     0
102
RTVSPropertyOp24
 70
     0
102
RTVSPropertyOp25
 70
     0
102
RTVSPropertyOp26
 70
     0
102
RTVSPropertyOp27
 70
     0
  0
XRECORD
  5
BE7DE
102
{ACAD_REACTORS
330
BE7DD
102
}
330
BE7DD
100
AcDbXrecord
280
     1
102
RTVSPropertyOp0
 70
     1
102
RTVSPropertyOp1
 70
     1
102
RTVSPropertyOp2
 70
     1
102
RTVSPropertyOp3
 70
     1
102
RTVSPropertyOp4
 70
     1
102
RTVSPropertyOp5
 70
     1
102
RTVSPropertyOp6
 70
     1
102
RTVSPropertyOp7
 70
     1
102
RTVSPropertyOp8
 70
     1
102
RTVSPropertyOp9
 70
     1
102
RTVSPropertyOp10
 70
     1
102
RTVSPropertyOp11
 70
     1
102
RTVSPropertyOp12
 70
     1
102
RTVSPropertyOp13
 70
     1
102
RTVSPropertyOp14
 70
     1
102
RTVSPropertyOp15
 70
     1
102
RTVSPropertyOp16
 70
     1
102
RTVSPropertyOp17
 70
     1
102
RTVSPropertyOp18
 70
     1
102
RTVSPropertyOp19
 70
     1
102
RTVSPropertyOp20
 70
     1
102
RTVSPropertyOp21
 70
     1
102
RTVSPropertyOp22
 70
     1
102
RTVSPropertyOp23
 70
     1
102
RTVSPropertyOp24
 70
     1
102
RTVSPropertyOp25
 70
     1
102
RTVSPropertyOp26
 70
     1
102
RTVSPropertyOp27
 70
     1
  0
XRECORD
  5
BE7E4
102
{ACAD_REACTORS
330
BE7E3
102
}
330
BE7E3
100
AcDbXrecord
280
     1
102
RTVSPropertyOp0
 70
     1
102
RTVSPropertyOp1
 70
     1
102
RTVSPropertyOp2
 70
     1
102
RTVSPropertyOp3
 70
     1
102
RTVSPropertyOp4
 70
     1
102
RTVSPropertyOp5
 70
     1
102
RTVSPropertyOp6
 70
     1
102
RTVSPropertyOp7
 70
     1
102
RTVSPropertyOp8
 70
     1
102
RTVSPropertyOp9
 70
     1
102
RTVSPropertyOp10
 70
     1
102
RTVSPropertyOp11
 70
     1
102
RTVSPropertyOp12
 70
     1
102
RTVSPropertyOp13
 70
     1
102
RTVSPropertyOp14
 70
     1
102
RTVSPropertyOp15
 70
     1
102
RTVSPropertyOp16
 70
     1
102
RTVSPropertyOp17
 70
     1
102
RTVSPropertyOp18
 70
     1
102
RTVSPropertyOp19
 70
     1
102
RTVSPropertyOp20
 70
     1
102
RTVSPropertyOp21
 70
     1
102
RTVSPropertyOp22
 70
     1
102
RTVSPropertyOp23
 70
     1
102
RTVSPropertyOp24
 70
     1
102
RTVSPropertyOp25
 70
     1
102
RTVSPropertyOp26
 70
     1
102
RTVSPropertyOp27
 70
     1
  0
DICTIONARY
  5
BE718
102
{ACAD_REACTORS
330
BE717
102
}
330
BE717
100
AcDbDictionary
280
     1
281
     1
  3
PH_GRPMEMBERS
360
BE719
  0
PH_GROUP
  5
BE71A
102
{ACAD_REACTORS
330
BE717
102
}
330
BE717
  0
PH_GROUP
  5
BE719
102
{ACAD_REACTORS
330
BE718
102
}
330
BE718
  0
ENDSEC
  0
EOF
