  0
SECTION
  2
HEADER
  9
$ACADVER
  1
AC1015
  9
$ACADMAINTVER
 70
    20
  9
$DWGCODEPAGE
  3
ANSI_1252
  9
$INSBASE
 10
0.0
 20
0.0
 30
0.0
  9
$EXTMIN
 10
1.0
 20
1.000000000000113
 30
0.0
  9
$EXTMAX
 10
419.0
 20
296.0000000000001
 30
0.0
  9
$LIMMIN
 10
0.0
 20
0.0
  9
$LIMMAX
 10
420.0
 20
297.0
  9
$ORTHOMODE
 70
     1
  9
$REGENMODE
 70
     1
  9
$FILLMODE
 70
     1
  9
$QTEXTMODE
 70
     0
  9
$MIRRTEXT
 70
     1
  9
$LTSCALE
 40
1.0
  9
$ATTMODE
 70
     1
  9
$TEXTSIZE
 40
2.5
  9
$TRACEWID
 40
1.0
  9
$TEXTSTYLE
  7
Standard
  9
$CLAYER
  8
0
  9
$CELTYPE
  6
Continuous
  9
$CECOLOR
 62
     7
  9
$CELTSCALE
 40
1.0
  9
$DISPSILH
 70
     0
  9
$DIMSCALE
 40
1.0
  9
$DIMASZ
 40
3.72
  9
$DIMEXO
 40
0.0
  9
$DIMDLI
 40
5.0
  9
$DIMRND
 40
0.0
  9
$DIMDLE
 40
0.0
  9
$DIMEXE
 40
1.5
  9
$DIMTP
 40
0.0
  9
$DIMTM
 40
0.0
  9
$DIMTXT
 40
3.5
  9
$DIMCEN
 40
0.0
  9
$DIMTSZ
 40
0.0
  9
$DIMTOL
 70
     0
  9
$DIMLIM
 70
     0
  9
$DIMTIH
 70
     0
  9
$DIMTOH
 70
     0
  9
$DIMSE1
 70
     0
  9
$DIMSE2
 70
     0
  9
$DIMTAD
 70
     1
  9
$DIMZIN
 70
     8
  9
$DIMBLK
  1
_OPEN15
  9
$DIMASO
 70
     1
  9
$DIMSHO
 70
     1
  9
$DIMPOST
  1

  9
$DIMAPOST
  1
"
  9
$DIMALT
 70
     0
  9
$DIMALTD
 70
     2
  9
$DIMALTF
 40
0.0393700787401575
  9
$DIMLFAC
 40
1.0
  9
$DIMTOFL
 70
     1
  9
$DIMTVP
 40
0.0
  9
$DIMTIX
 70
     0
  9
$DIMSOXD
 70
     0
  9
$DIMSAH
 70
     0
  9
$DIMBLK1
  1

  9
$DIMBLK2
  1

  9
$DIMSTYLE
  2
phoenix
  9
$DIMCLRD
 70
     1
  9
$DIMCLRE
 70
     1
  9
$DIMCLRT
 70
     5
  9
$DIMTFAC
 40
0.6666666666666666
  9
$DIMGAP
 40
0.5
  9
$DIMJUST
 70
     0
  9
$DIMSD1
 70
     0
  9
$DIMSD2
 70
     0
  9
$DIMTOLJ
 70
     1
  9
$DIMTZIN
 70
     8
  9
$DIMALTZ
 70
     0
  9
$DIMALTTZ
 70
     0
  9
$DIMUPT
 70
     0
  9
$DIMDEC
 70
     2
  9
$DIMTDEC
 70
     2
  9
$DIMALTU
 70
     2
  9
$DIMALTTD
 70
     2
  9
$DIMTXSTY
  7
Standard
  9
$DIMAUNIT
 70
     0
  9
$DIMADEC
 70
     2
  9
$DIMALTRND
 40
0.0
  9
$DIMAZIN
 70
     2
  9
$DIMDSEP
 70
    46
  9
$DIMATFIT
 70
     0
  9
$DIMFRAC
 70
     0
  9
$DIMLDRBLK
  1
_OPEN15
  9
$DIMLUNIT
 70
     2
  9
$DIMLWD
 70
    25
  9
$DIMLWE
 70
    25
  9
$DIMTMOVE
 70
     0
  9
$LUNITS
 70
     2
  9
$LUPREC
 70
     4
  9
$SKETCHINC
 40
1.0
  9
$FILLETRAD
 40
10.0
  9
$AUNITS
 70
     0
  9
$AUPREC
 70
     0
  9
$MENU
  1
.
  9
$ELEVATION
 40
0.0
  9
$PELEVATION
 40
0.0
  9
$THICKNESS
 40
0.0
  9
$LIMCHECK
 70
     0
  9
$CHAMFERA
 40
10.0
  9
$CHAMFERB
 40
10.0
  9
$CHAMFERC
 40
20.0
  9
$CHAMFERD
 40
0.0
  9
$SKPOLY
 70
     0
  9
$TDCREATE
 40
2453340.332815393
  9
$TDUCREATE
 40
2453340.291148727
  9
$TDUPDATE
 40
2455876.487513843
  9
$TDUUPDATE
 40
2455876.445847176
  9
$TDINDWG
 40
0.2940096065
  9
$TDUSRTIMER
 40
0.2940084722
  9
$USRTIMER
 70
     1
  9
$ANGBASE
 50
0.0
  9
$ANGDIR
 70
     0
  9
$PDMODE
 70
    35
  9
$PDSIZE
 40
-2.0
  9
$PLINEWID
 40
0.0
  9
$SPLFRAME
 70
     0
  9
$SPLINETYPE
 70
     6
  9
$SPLINESEGS
 70
     8
  9
$HANDSEED
  5
1092E
  9
$SURFTAB1
 70
     6
  9
$SURFTAB2
 70
     6
  9
$SURFTYPE
 70
     6
  9
$SURFU
 70
     6
  9
$SURFV
 70
     6
  9
$UCSBASE
  2

  9
$UCSNAME
  2

  9
$UCSORG
 10
0.0
 20
0.0
 30
0.0
  9
$UCSXDIR
 10
1.0
 20
0.0
 30
0.0
  9
$UCSYDIR
 10
0.0
 20
1.0
 30
0.0
  9
$UCSORTHOREF
  2

  9
$UCSORTHOVIEW
 70
     0
  9
$UCSORGTOP
 10
0.0
 20
0.0
 30
0.0
  9
$UCSORGBOTTOM
 10
0.0
 20
0.0
 30
0.0
  9
$UCSORGLEFT
 10
0.0
 20
0.0
 30
0.0
  9
$UCSORGRIGHT
 10
0.0
 20
0.0
 30
0.0
  9
$UCSORGFRONT
 10
0.0
 20
0.0
 30
0.0
  9
$UCSORGBACK
 10
0.0
 20
0.0
 30
0.0
  9
$PUCSBASE
  2

  9
$PUCSNAME
  2

  9
$PUCSORG
 10
0.0
 20
0.0
 30
0.0
  9
$PUCSXDIR
 10
1.0
 20
0.0
 30
0.0
  9
$PUCSYDIR
 10
0.0
 20
1.0
 30
0.0
  9
$PUCSORTHOREF
  2

  9
$PUCSORTHOVIEW
 70
     0
  9
$PUCSORGTOP
 10
0.0
 20
0.0
 30
0.0
  9
$PUCSORGBOTTOM
 10
0.0
 20
0.0
 30
0.0
  9
$PUCSORGLEFT
 10
0.0
 20
0.0
 30
0.0
  9
$PUCSORGRIGHT
 10
0.0
 20
0.0
 30
0.0
  9
$PUCSORGFRONT
 10
0.0
 20
0.0
 30
0.0
  9
$PUCSORGBACK
 10
0.0
 20
0.0
 30
0.0
  9
$USERI1
 70
     0
  9
$USERI2
 70
     0
  9
$USERI3
 70
     0
  9
$USERI4
 70
     0
  9
$USERI5
 70
     0
  9
$USERR1
 40
0.0
  9
$USERR2
 40
0.0
  9
$USERR3
 40
0.0
  9
$USERR4
 40
0.0
  9
$USERR5
 40
0.0
  9
$WORLDVIEW
 70
     1
  9
$SHADEDGE
 70
     3
  9
$SHADEDIF
 70
    70
  9
$TILEMODE
 70
     1
  9
$MAXACTVP
 70
    64
  9
$PINSBASE
 10
0.0
 20
0.0
 30
0.0
  9
$PLIMCHECK
 70
     0
  9
$PEXTMIN
 10
1.000000000000000E+20
 20
1.000000000000000E+20
 30
1.000000000000000E+20
  9
$PEXTMAX
 10
-1.000000000000000E+20
 20
-1.000000000000000E+20
 30
-1.000000000000000E+20
  9
$PLIMMIN
 10
0.0
 20
0.0
  9
$PLIMMAX
 10
420.0
 20
297.0
  9
$UNITMODE
 70
     0
  9
$VISRETAIN
 70
     1
  9
$PLINEGEN
 70
     0
  9
$PSLTSCALE
 70
     1
  9
$TREEDEPTH
 70
  3020
  9
$CMLSTYLE
  2
Standard
  9
$CMLJUST
 70
     0
  9
$CMLSCALE
 40
20.0
  9
$PROXYGRAPHICS
 70
     1
  9
$MEASUREMENT
 70
     1
  9
$CELWEIGHT
370
    50
  9
$ENDCAPS
280
     0
  9
$JOINSTYLE
280
     0
  9
$LWDISPLAY
290
     0
  9
$INSUNITS
 70
     4
  9
$HYPERLINKBASE
  1

  9
$STYLESHEET
  1

  9
$XEDIT
290
     1
  9
$CEPSNTYPE
380
     0
  9
$PSTYLEMODE
290
     1
  9
$FINGERPRINTGUID
  2
{FDEAD578-A652-11D2-9A35-0060089B3A3F}
  9
$VERSIONGUID
  2
{F65B1AEC-B1FE-4EE9-9A4F-3609ECE3C8F0}
  9
$EXTNAMES
290
     1
  9
$PSVPSCALE
 40
0.0
  9
$OLESTARTUP
290
     0
  0
ENDSEC
  0
SECTION
  2
CLASSES
  0
CLASS
  1
ACDBDICTIONARYWDFLT
  2
AcDbDictionaryWithDefault
  3
ObjectDBX Classes
 90
        0
280
     0
281
     0
  0
CLASS
  1
ACDBPLACEHOLDER
  2
AcDbPlaceHolder
  3
ObjectDBX Classes
 90
        0
280
     0
281
     0
  0
CLASS
  1
LAYOUT
  2
AcDbLayout
  3
ObjectDBX Classes
 90
        0
280
     0
281
     0
  0
CLASS
  1
PH_VARS
  2
PhoenixVars
  3
PHOENIX7010
 90
        0
280
     0
281
     0
  0
CLASS
  1
PH_GROUP
  2
PhGroup
  3
PHOENIX7010
 90
        0
280
     0
281
     0
  0
CLASS
  1
DICTIONARYVAR
  2
AcDbDictionaryVar
  3
ObjectDBX Classes
 90
        0
280
     0
281
     0
  0
CLASS
  1
PH_ENTDIMREACTOR
  2
EntDimReactor
  3
PHOENIX7010
 90
        0
280
     0
281
     0
  0
CLASS
  1
PH_DIMENTREACTOR
  2
DimEntReactor
  3
PHOENIX7010
 90
        0
280
     0
281
     0
  0
CLASS
  1
TABLESTYLE
  2
AcDbTableStyle
  3
ObjectDBX Classes
 90
     4095
280
     0
281
     0
  0
CLASS
  1
PLOTSETTINGS
  2
AcDbPlotSettings
  3
ObjectDBX Classes
 90
        0
280
     0
281
     0
  0
CLASS
  1
MATERIAL
  2
AcDbMaterial
  3
ObjectDBX Classes
 90
     1153
280
     0
281
     0
  0
CLASS
  1
VISUALSTYLE
  2
AcDbVisualStyle
  3
ObjectDBX Classes
 90
     4095
280
     0
281
     0
  0
CLASS
  1
SCALE
  2
AcDbScale
  3
ObjectDBX Classes
 90
     1153
280
     0
281
     0
  0
CLASS
  1
MLEADERSTYLE
  2
AcDbMLeaderStyle
  3
ACDB_MLEADERSTYLE_CLASS
 90
     4095
280
     0
281
     0
  0
CLASS
  1
CELLSTYLEMAP
  2
AcDbCellStyleMap
  3
ObjectDBX Classes
 90
     1152
280
     0
281
     0
  0
ENDSEC
  0
SECTION
  2
TABLES
  0
TABLE
  2
VPORT
  5
8
330
0
100
AcDbSymbolTable
 70
     1
  0
VPORT
  5
106DB
330
8
100
AcDbSymbolTableRecord
100
AcDbViewportTableRecord
  2
*Active
 70
     0
 10
0.0
 20
0.0
 11
1.0
 21
1.0
 12
210.0
 22
148.5000000000001
 13
0.0
 23
0.0
 14
10.0
 24
10.0
 15
10.0
 25
10.0
 16
0.0
 26
0.0
 36
1.0
 17
0.0
 27
0.0
 37
0.0
 40
297.0462427745665
 41
2.177083333333333
 42
50.0
 43
0.0
 44
0.0
 50
0.0
 51
0.0
 71
     0
 72
   100
 73
     1
 74
     3
 75
     0
 76
     0
 77
     0
 78
     0
281
     0
 65
     1
110
0.0
120
0.0
130
0.0
111
1.0
121
0.0
131
0.0
112
0.0
122
1.0
132
0.0
 79
     0
146
0.0
  0
ENDTAB
  0
TABLE
  2
LTYPE
  5
5
330
0
100
AcDbSymbolTable
 70
     3
  0
LTYPE
  5
14
330
5
100
AcDbSymbolTableRecord
100
AcDbLinetypeTableRecord
  2
ByBlock
 70
     0
  3

 72
    65
 73
     0
 40
0.0
  0
LTYPE
  5
15
330
5
100
AcDbSymbolTableRecord
100
AcDbLinetypeTableRecord
  2
ByLayer
 70
     0
  3

 72
    65
 73
     0
 40
0.0
  0
LTYPE
  5
16
330
5
100
AcDbSymbolTableRecord
100
AcDbLinetypeTableRecord
  2
Continuous
 70
     0
  3
Solid line
 72
    65
 73
     0
 40
0.0
  0
LTYPE
  5
381D
330
5
100
AcDbSymbolTableRecord
100
AcDbLinetypeTableRecord
  2
ACAD_ISO04W100
 70
     0
  3
____ . ____ . ____ . ____ . ____ . ____ . ____ 
 72
    65
 73
     4
 40
30.5
 49
24.0
 74
     0
 49
-3.0
 74
     0
 49
0.5
 74
     0
 49
-3.0
 74
     0
  0
ENDTAB
  0
TABLE
  2
LAYER
  5
2
102
{ACAD_XDICTIONARY
360
106CB
102
}
330
0
100
AcDbSymbolTable
 70
     4
  0
LAYER
  5
10
102
{ACAD_XDICTIONARY
360
10839
102
}
330
2
100
AcDbSymbolTableRecord
100
AcDbLayerTableRecord
  2
0
 70
     0
 62
     7
  6
Continuous
370
    -3
390
F
  0
LAYER
  5
69
330
2
100
AcDbSymbolTableRecord
100
AcDbLayerTableRecord
  2
Defpoints
 70
     0
 62
    -7
  6
Continuous
290
     0
370
    -3
390
F
  0
LAYER
  5
106C9
102
{ACAD_XDICTIONARY
360
1083B
102
}
330
2
100
AcDbSymbolTableRecord
100
AcDbLayerTableRecord
  2
Bearbeitung
 70
     0
 62
     7
  6
Continuous
370
    -3
390
F
1001
AcAecLayerStandard
1000

1000

  0
LAYER
  5
10705
102
{ACAD_XDICTIONARY
360
1083D
102
}
330
2
100
AcDbSymbolTableRecord
100
AcDbLayerTableRecord
  2
PH_HILFSELEMENTE
 70
     0
 62
    -7
  6
Continuous
370
    -3
390
F
  0
ENDTAB
  0
TABLE
  2
STYLE
  5
3
330
0
100
AcDbSymbolTable
 70
     1
  0
STYLE
  5
11
330
3
100
AcDbSymbolTableRecord
100
AcDbTextStyleTableRecord
  2
Standard
 70
     0
 40
0.0
 41
1.199999999999999
 50
0.0
 71
     0
 42
2.5
  3
isocp.shx
  4

  0
ENDTAB
  0
TABLE
  2
VIEW
  5
6
330
0
100
AcDbSymbolTable
 70
     0
  0
ENDTAB
  0
TABLE
  2
UCS
  5
7
330
0
100
AcDbSymbolTable
 70
     0
  0
ENDTAB
  0
TABLE
  2
APPID
  5
9
330
0
100
AcDbSymbolTable
 70
     6
  0
APPID
  5
12
330
9
100
AcDbSymbolTableRecord
100
AcDbRegAppTableRecord
  2
ACAD
 70
     0
  0
APPID
  5
40
330
9
100
AcDbSymbolTableRecord
100
AcDbRegAppTableRecord
  2
PHOENIX7010
 70
     0
  0
APPID
  5
106C3
330
9
100
AcDbSymbolTableRecord
100
AcDbRegAppTableRecord
  2
ACAD_PSEXT
 70
     0
  0
APPID
  5
106CA
330
9
100
AcDbSymbolTableRecord
100
AcDbRegAppTableRecord
  2
AcAecLayerStandard
 70
     0
  0
APPID
  5
10837
330
9
100
AcDbSymbolTableRecord
100
AcDbRegAppTableRecord
  2
ACAD_EXEMPT_FROM_CAD_STANDARDS
 70
     0
  0
APPID
  5
10873
330
9
100
AcDbSymbolTableRecord
100
AcDbRegAppTableRecord
  2
ACAD_MLEADERVER
 70
     0
  0
ENDTAB
  0
TABLE
  2
DIMSTYLE
  5
A
330
0
100
AcDbSymbolTable
 70
     3
100
AcDbDimStyleTable
 71
     1
340
47
  0
DIMSTYLE
105
47
102
{ACAD_REACTORS
330
70AB
330
8FEB
330
B403
102
}
330
A
100
AcDbSymbolTableRecord
100
AcDbDimStyleTableRecord
  2
phoenix
 70
     0
  4
"
 41
3.72
 42
0.0
 43
5.0
 44
1.5
 73
     0
 74
     0
 77
     1
 78
     8
 79
     2
140
2.5
141
0.0
143
0.0393700787401575
146
0.6666666666666666
147
0.5
172
     1
176
     1
177
     1
178
     5
179
     4
271
     6
272
     6
284
     8
288
     1
289
     0
340
11
341
41
342
41
371
    25
372
    25
  0
DIMSTYLE
105
106F4
330
A
100
AcDbSymbolTableRecord
100
AcDbDimStyleTableRecord
  2
phoenix$4
 70
     0
  4
"
 41
3.5
 42
0.0
 43
7.0
 44
1.5
 73
     0
 74
     0
 77
     1
 78
     8
 79
     2
140
3.5
141
0.0
143
0.0393700787401575
146
0.6666666666666666
147
2.0
176
     1
177
     1
178
     5
179
     2
271
     2
272
     2
278
    44
284
     8
288
     1
289
     0
340
11
371
    25
372
    25
  0
DIMSTYLE
105
106F5
330
A
100
AcDbSymbolTableRecord
100
AcDbDimStyleTableRecord
  2
ISO-25
 70
     0
 41
2.5
 42
0.625
 43
3.75
 44
1.25
 73
     0
 74
     0
 77
     1
 78
     8
140
2.5
141
2.5
143
0.03937007874016
147
0.625
171
     3
172
     1
271
     2
272
     2
274
     3
278
    44
283
     0
284
     8
340
11
  0
ENDTAB
  0
TABLE
  2
BLOCK_RECORD
  5
1
330
0
100
AcDbSymbolTable
 70
     6
  0
BLOCK_RECORD
  5
1F
330
1
100
AcDbSymbolTableRecord
100
AcDbBlockTableRecord
  2
*Model_Space
340
22
  0
BLOCK_RECORD
  5
1B
330
1
100
AcDbSymbolTableRecord
100
AcDbBlockTableRecord
  2
*Paper_Space
340
1E
  0
BLOCK_RECORD
  5
23
330
1
100
AcDbSymbolTableRecord
100
AcDbBlockTableRecord
  2
*Paper_Space0
340
26
  0
BLOCK_RECORD
  5
41
330
1
100
AcDbSymbolTableRecord
100
AcDbBlockTableRecord
  2
_OPEN15
340
0
102
{BLKREFS
331
1051B
331
1051C
331
10524
331
10525
331
106BB
331
106BC
102
}
  0
BLOCK_RECORD
  5
3780
330
1
100
AcDbSymbolTableRecord
100
AcDbBlockTableRecord
  2
PH_GRPBLK
340
0
102
{BLKREFS
331
1072E
331
107C9
331
107D1
331
1082C
331
108F8
102
}
  0
BLOCK_RECORD
  5
70AC
330
1
100
AcDbSymbolTableRecord
100
AcDbBlockTableRecord
  2
*D3
340
0
  0
BLOCK_RECORD
  5
8FEC
330
1
100
AcDbSymbolTableRecord
100
AcDbBlockTableRecord
  2
*D4
340
0
  0
BLOCK_RECORD
  5
B404
330
1
100
AcDbSymbolTableRecord
100
AcDbBlockTableRecord
  2
*D5
340
0
  0
ENDTAB
  0
ENDSEC
  0
SECTION
  2
BLOCKS
  0
BLOCK
  5
20
330
1F
100
AcDbEntity
  8
0
100
AcDbBlockBegin
  2
*Model_Space
 70
     0
 10
0.0
 20
0.0
 30
0.0
  3
*Model_Space
  1

  0
ENDBLK
  5
21
330
1F
100
AcDbEntity
  8
0
100
AcDbBlockEnd
  0
BLOCK
  5
1C
330
1B
100
AcDbEntity
 67
     1
  8
0
100
AcDbBlockBegin
  2
*Paper_Space
 70
     0
 10
0.0
 20
0.0
 30
0.0
  3
*Paper_Space
  1

  0
ENDBLK
  5
1D
330
1B
100
AcDbEntity
 67
     1
  8
0
100
AcDbBlockEnd
  0
BLOCK
  5
24
330
23
100
AcDbEntity
 67
     1
  8
0
100
AcDbBlockBegin
  2
*Paper_Space0
 70
     0
 10
0.0
 20
0.0
 30
0.0
  3
*Paper_Space0
  1

  0
ENDBLK
  5
25
330
23
100
AcDbEntity
 67
     1
  8
0
100
AcDbBlockEnd
  0
BLOCK
  5
45
330
41
100
AcDbEntity
  8
0
100
AcDbBlockBegin
  2
_OPEN15
 70
     0
 10
1.0
 20
0.0
 30
0.0
  3
_OPEN15
  1

  0
LINE
  5
42
330
41
100
AcDbEntity
  8
0
  6
ByBlock
 62
     0
100
AcDbLine
 10
0.0
 20
0.0
 30
0.0
 11
1.0
 21
0.0
 31
0.0
  0
LINE
  5
43
330
41
100
AcDbEntity
  8
0
  6
ByBlock
 62
     0
100
AcDbLine
 10
1.0
 20
0.0
 30
0.0
 11
0.0
 21
0.1316524975873958
 31
0.0
  0
LINE
  5
44
330
41
100
AcDbEntity
  8
0
  6
ByBlock
 62
     0
100
AcDbLine
 10
1.0
 20
0.0
 30
0.0
 11
0.0
 21
-0.1316524975873958
 31
0.0
  0
ENDBLK
  5
46
330
41
100
AcDbEntity
  8
0
100
AcDbBlockEnd
  0
BLOCK
  5
3781
330
3780
100
AcDbEntity
  8
0
 62
     7
370
    50
100
AcDbBlockBegin
  2
PH_GRPBLK
 70
     0
 10
0.0
 20
0.0
 30
0.0
  3
PH_GRPBLK
  1

  0
POINT
  5
3782
330
3780
100
AcDbEntity
  8
Defpoints
  6
Continuous
 62
     0
370
    50
100
AcDbPoint
 10
0.0
 20
0.0
 30
0.0
  0
ENDBLK
  5
3783
330
3780
100
AcDbEntity
  8
0
 62
     7
370
    50
100
AcDbBlockEnd
  0
BLOCK
  5
70B8
330
70AC
100
AcDbEntity
  8
0
 62
     7
370
    50
100
AcDbBlockBegin
  2
*D3
 70
     1
 10
0.0
 20
0.0
 30
0.0
  3
*D3
  1

  0
LINE
  5
10521
330
70AC
100
AcDbEntity
  8
0
  6
Continuous
 62
     1
370
    25
100
AcDbLine
 10
318.8501789005785
 20
212.8087114718518
 30
0.0
 11
336.6098364323836
 21
212.8087114718518
 31
0.0
  0
LINE
  5
10522
330
70AC
100
AcDbEntity
  8
0
  6
Continuous
 62
     1
370
    25
100
AcDbLine
 10
318.8532494391489
 20
187.8087130432201
 30
0.0
 11
336.6098364323836
 21
187.80871304322
 31
0.0
  0
LINE
  5
10523
330
70AC
100
AcDbEntity
  8
0
  6
Continuous
 62
     1
370
    25
100
AcDbLine
 10
335.1098364323836
 20
209.0887114718518
 30
0.0
 11
335.1098364323836
 21
191.52871304322
 31
0.0
  0
INSERT
  5
10524
330
70AC
100
AcDbEntity
  8
0
  6
Continuous
 62
     1
370
    25
100
AcDbBlockReference
  2
_OPEN15
 10
335.1098364323836
 20
212.8087114718518
 30
0.0
 41
3.72
 42
3.72
 43
3.72
 50
90.0
  0
INSERT
  5
10525
330
70AC
100
AcDbEntity
  8
0
  6
Continuous
 62
     1
370
    25
100
AcDbBlockReference
  2
_OPEN15
 10
335.1098364323836
 20
187.80871304322
 30
0.0
 41
3.72
 42
3.72
 43
3.72
 50
270.0
  0
MTEXT
  5
10526
330
70AC
100
AcDbEntity
  8
0
  6
Continuous
 62
     5
370
    35
100
AcDbMText
 10
331.6093443063993
 20
200.308712257536
 30
0.0
 40
5.0
 41
0.0
 71
     5
 72
     1
  1
\A1;25
 11
0.0000000000000001
 21
1.0
 31
0.0
 73
     1
 44
1.0
1001
ACAD
1000
MTEXTBEGIN
1070
    73
1070
     1
1070
    44
1040
1.0
1070
    74
1070
     0
1000
MTEXTEND
  0
POINT
  5
10527
330
70AC
100
AcDbEntity
  8
Defpoints
  6
Continuous
 62
     0
370
    50
100
AcDbPoint
 10
318.8501789005785
 20
212.8087114718518
 30
0.0
  0
POINT
  5
10528
330
70AC
100
AcDbEntity
  8
Defpoints
  6
Continuous
 62
     0
370
    50
100
AcDbPoint
 10
318.8532494391489
 20
187.8087130432201
 30
0.0
  0
POINT
  5
10529
330
70AC
100
AcDbEntity
  8
Defpoints
  6
Continuous
 62
     0
370
    50
100
AcDbPoint
 10
335.1098364323836
 20
187.80871304322
 30
0.0
  0
ENDBLK
  5
70B9
330
70AC
100
AcDbEntity
  8
0
 62
     7
370
    50
100
AcDbBlockEnd
  0
BLOCK
  5
8FF8
330
8FEC
100
AcDbEntity
  8
0
 62
     7
370
    50
100
AcDbBlockBegin
  2
*D4
 70
     1
 10
0.0
 20
0.0
 30
0.0
  3
*D4
  1

  0
LINE
  5
10518
330
8FEC
100
AcDbEntity
  8
0
  6
Continuous
 62
     1
370
    25
100
AcDbLine
 10
260.7778298714435
 20
200.3087114718518
 30
0.0
 11
260.7778298714435
 21
223.8045831527885
 31
0.0
  0
LINE
  5
10519
330
8FEC
100
AcDbEntity
  8
0
  6
Continuous
 62
     1
370
    25
100
AcDbLine
 10
322.6730143128774
 20
200.3087114718518
 30
0.0
 11
322.6730143128774
 21
223.8045831527885
 31
0.0
  0
LINE
  5
1051A
330
8FEC
100
AcDbEntity
  8
0
  6
Continuous
 62
     1
370
    25
100
AcDbLine
 10
264.4978298714435
 20
222.3045831527885
 30
0.0
 11
318.9530143128774
 21
222.3045831527885
 31
0.0
  0
INSERT
  5
1051B
330
8FEC
100
AcDbEntity
  8
0
  6
Continuous
 62
     1
370
    25
100
AcDbBlockReference
  2
_OPEN15
 10
260.7778298714435
 20
222.3045831527885
 30
0.0
 41
3.72
 42
3.72
 43
3.72
 50
180.0
  0
INSERT
  5
1051C
330
8FEC
100
AcDbEntity
  8
0
  6
Continuous
 62
     1
370
    25
100
AcDbBlockReference
  2
_OPEN15
 10
322.6730143128774
 20
222.3045831527885
 30
0.0
 41
3.72
 42
3.72
 43
3.72
  0
MTEXT
  5
1051D
330
8FEC
100
AcDbEntity
  8
0
  6
Continuous
 62
     5
370
    35
100
AcDbMText
 10
291.7254220921604
 20
225.8050752787728
 30
0.0
 40
5.0
 41
0.0
 71
     5
 72
     1
  1
\A1;62
 73
     1
 44
1.0
1001
ACAD
1000
MTEXTBEGIN
1070
    73
1070
     1
1070
    44
1040
1.0
1070
    74
1070
     0
1000
MTEXTEND
  0
POINT
  5
1051E
330
8FEC
100
AcDbEntity
  8
Defpoints
  6
Continuous
 62
     0
370
    50
100
AcDbPoint
 10
260.7778298714435
 20
200.3087114718518
 30
0.0
  0
POINT
  5
1051F
330
8FEC
100
AcDbEntity
  8
Defpoints
  6
Continuous
 62
     0
370
    50
100
AcDbPoint
 10
322.6730143128774
 20
200.3087114718518
 30
0.0
  0
POINT
  5
10520
330
8FEC
100
AcDbEntity
  8
Defpoints
  6
Continuous
 62
     0
370
    50
100
AcDbPoint
 10
322.6730143128774
 20
222.3045831527885
 30
0.0
  0
ENDBLK
  5
8FF9
330
8FEC
100
AcDbEntity
  8
0
 62
     7
370
    50
100
AcDbBlockEnd
  0
BLOCK
  5
B410
330
B404
100
AcDbEntity
  8
0
 62
     7
370
    50
100
AcDbBlockBegin
  2
*D5
 70
     1
 10
0.0
 20
0.0
 30
0.0
  3
*D5
  1

  0
LINE
  5
106B6
330
B404
100
AcDbEntity
  8
0
  6
Continuous
 62
     1
370
    25
100
AcDbLine
 10
120.8816928316519
 20
148.1171887712428
 30
0.0
 11
165.1052383903775
 21
148.1171887712428
 31
0.0
  0
LINE
  5
106B7
330
B404
100
AcDbEntity
  8
0
  6
Continuous
 62
     1
370
    25
100
AcDbLine
 10
149.6768772730856
 20
138.7284800861267
 30
0.0
 11
165.1052383903775
 21
138.7284800861267
 31
0.0
  0
LINE
  5
106B8
330
B404
100
AcDbEntity
  8
0
  6
Continuous
 62
     1
370
    25
100
AcDbLine
 10
163.6052383903775
 20
151.8371887712428
 30
0.0
 11
163.6052383903775
 21
155.5571887712428
 31
0.0
  0
LINE
  5
106B9
330
B404
100
AcDbEntity
  8
0
  6
Continuous
 62
     1
370
    25
100
AcDbLine
 10
163.6052383903775
 20
135.0084800861267
 30
0.0
 11
163.6052383903775
 21
120.0399519487028
 31
0.0
  0
LINE
  5
106BA
330
B404
100
AcDbEntity
  8
0
  6
Continuous
 62
     1
370
    25
100
AcDbLine
 10
163.6052383903775
 20
148.1171887712428
 30
0.0
 11
163.6052383903775
 21
138.7284800861267
 31
0.0
  0
INSERT
  5
106BB
330
B404
100
AcDbEntity
  8
0
  6
Continuous
 62
     1
370
    25
100
AcDbBlockReference
  2
_OPEN15
 10
163.6052383903775
 20
148.1171887712428
 30
0.0
 41
3.72
 42
3.72
 43
3.72
 50
270.0
  0
INSERT
  5
106BC
330
B404
100
AcDbEntity
  8
0
  6
Continuous
 62
     1
370
    25
100
AcDbBlockReference
  2
_OPEN15
 10
163.6052383903775
 20
138.7284800861267
 30
0.0
 41
3.72
 42
3.72
 43
3.72
 50
90.0
  0
MTEXT
  5
106BD
330
B404
100
AcDbEntity
  8
0
  6
Continuous
 62
     5
370
    35
100
AcDbMText
 10
160.1052383903775
 20
125.6642160174148
 30
0.0
 40
5.0
 41
0.0
 71
     5
 72
     1
  1
\A1;9.4
 11
0.0000000000000001
 21
1.0
 31
0.0
 73
     1
 44
1.0
1001
ACAD
1000
MTEXTBEGIN
1070
    73
1070
     1
1070
    44
1040
1.0
1070
    74
1070
     0
1000
MTEXTEND
  0
POINT
  5
106BE
330
B404
100
AcDbEntity
  8
Defpoints
  6
Continuous
 62
     0
370
    50
100
AcDbPoint
 10
120.8816928316519
 20
148.1171887712428
 30
0.0
  0
POINT
  5
106BF
330
B404
100
AcDbEntity
  8
Defpoints
  6
Continuous
 62
     0
370
    50
100
AcDbPoint
 10
149.6768772730856
 20
138.7284800861267
 30
0.0
  0
POINT
  5
106C0
330
B404
100
AcDbEntity
  8
Defpoints
  6
Continuous
 62
     0
370
    50
100
AcDbPoint
 10
163.6052383903775
 20
138.7284800861267
 30
0.0
  0
ENDBLK
  5
B411
330
B404
100
AcDbEntity
  8
0
 62
     7
370
    50
100
AcDbBlockEnd
  0
ENDSEC
  0
SECTION
  2
ENTITIES
  0
LINE
  5
397E
102
{ACAD_REACTORS
330
431E
102
}
330
1F
100
AcDbEntity
  8
0
100
AcDbLine
 10
93.75693602323392
 20
187.8087114718516
 30
0.0
 11
99.63024437804072
 21
187.8087114718516
 31
0.0
1001
PHOENIX7010
1002
{
1070
    41
1040
1.0
1002
}
  0
LINE
  5
397F
102
{ACAD_REACTORS
330
431E
102
}
330
1F
100
AcDbEntity
  8
0
100
AcDbLine
 10
99.63478584355764
 20
188.0563036925686
 30
0.0
 11
93.75693602323392
 21
188.0563036925686
 31
0.0
1001
PHOENIX7010
1002
{
1070
    41
1040
1.0
1002
}
  0
LINE
  5
3980
102
{ACAD_REACTORS
330
431E
102
}
330
1F
100
AcDbEntity
  8
0
100
AcDbLine
 10
91.98169283165178
 20
207.3087114718516
 30
0.0
 11
91.87689512740595
 21
207.3087114718516
 31
0.0
1001
PHOENIX7010
1002
{
1070
    41
1040
1.0
1002
}
  0
LINE
  5
3981
102
{ACAD_REACTORS
330
431E
102
}
330
1F
100
AcDbEntity
  8
0
100
AcDbLine
 10
91.98169283165178
 20
193.3087114718516
 30
0.0
 11
91.98169283165178
 21
207.3087114718516
 31
0.0
1001
PHOENIX7010
1002
{
1070
    41
1040
1.0
1002
}
  0
LINE
  5
3982
102
{ACAD_REACTORS
330
431E
102
}
330
1F
100
AcDbEntity
  8
0
100
AcDbLine
 10
91.87689512740595
 20
193.3087114718516
 30
0.0
 11
91.98169283165178
 21
193.3087114718516
 31
0.0
1001
PHOENIX7010
1002
{
1070
    41
1040
1.0
1002
}
  0
ARC
  5
3983
102
{ACAD_REACTORS
330
431E
102
}
330
1F
100
AcDbEntity
  8
0
100
AcDbCircle
 10
91.87649338184792
 20
192.9095833848795
 30
0.0
 40
0.3991282891622099
100
AcDbArc
 50
89.94232849579917
 51
192.333875126585
1001
PHOENIX7010
1002
{
1070
    41
1040
1.0
1002
}
  0
ARC
  5
3984
102
{ACAD_REACTORS
330
431E
102
}
330
1F
100
AcDbEntity
  8
0
100
AcDbCircle
 10
93.75476645666593
 20
190.8058073443584
 30
0.0
 40
1.697095926743338
100
AcDbArc
 50
196.462603215275
 51
270.0144854030692
1001
PHOENIX7010
1002
{
1070
    41
1040
1.0
1002
}
  0
LINE
  5
3985
102
{ACAD_REACTORS
330
431E
102
}
330
1F
100
AcDbEntity
  8
0
100
AcDbLine
 10
143.0072128300142
 20
208.1997788752918
 30
0.0
 11
101.3816928316519
 21
208.1997788752918
 31
0.0
1001
PHOENIX7010
1002
{
1070
    41
1040
1.0
1002
}
  0
ARC
  5
3986
102
{ACAD_REACTORS
330
431E
102
}
330
1F
100
AcDbEntity
  8
0
100
AcDbCircle
 10
98.75284094632272
 20
209.6957459463842
 30
0.0
 40
1.495970781552838
100
AcDbArc
 50
187.7948259869561
 51
270.1276115754538
1001
PHOENIX7010
1002
{
1070
    41
1040
1.0
1002
}
  0
ARC
  5
3987
102
{ACAD_REACTORS
330
431E
102
}
330
1F
100
AcDbEntity
  8
0
100
AcDbCircle
 10
97.07192493520436
 20
209.4716365249814
 30
0.0
 40
0.1998970051858092
100
AcDbArc
 50
6.092754164057468
 51
88.8452333474863
1001
PHOENIX7010
1002
{
1070
    41
1040
1.0
1002
}
  0
LINE
  5
3988
102
{ACAD_REACTORS
330
431E
102
}
330
1F
100
AcDbEntity
  8
0
100
AcDbLine
 10
97.07595348268544
 20
209.6714929321528
 30
0.0
 11
94.21522753356837
 21
209.6714929321528
 31
0.0
1001
PHOENIX7010
1002
{
1070
    41
1040
1.0
1002
}
  0
ARC
  5
3989
102
{ACAD_REACTORS
330
431E
102
}
330
1F
100
AcDbEntity
  8
0
100
AcDbCircle
 10
94.21179452467251
 20
209.204179117453
 30
0.0
 40
0.4673264244180024
100
AcDbArc
 50
89.57909786469173
 51
164.7378464863172
1001
PHOENIX7010
1002
{
1070
    41
1040
1.0
1002
}
  0
LINE
  5
398A
102
{ACAD_REACTORS
330
431E
102
}
330
1F
100
AcDbEntity
  8
0
100
AcDbLine
 10
94.46299424885749
 20
201.0587114718516
 30
0.0
 11
93.48169283165178
 21
201.0587114718516
 31
0.0
1001
PHOENIX7010
1002
{
1070
    41
1040
1.0
1002
}
  0
LINE
  5
398B
102
{ACAD_REACTORS
330
431E
102
}
330
1F
100
AcDbEntity
  8
0
100
AcDbLine
 10
93.48169283165178
 20
199.5587114718516
 30
0.0
 11
94.46299424885749
 21
199.5587114718516
 31
0.0
1001
PHOENIX7010
1002
{
1070
    41
1040
1.0
1002
}
  0
ARC
  5
398C
102
{ACAD_REACTORS
330
431E
102
}
330
1F
100
AcDbEntity
  8
0
100
AcDbCircle
 10
94.21179452979751
 20
191.4132438330124
 30
0.0
 40
0.4673264311424
100
AcDbArc
 50
195.2621541481174
 51
270.4209015008754
1001
PHOENIX7010
1002
{
1070
    41
1040
1.0
1002
}
  0
LINE
  5
398D
102
{ACAD_REACTORS
330
431E
102
}
330
1F
100
AcDbEntity
  8
0
100
AcDbLine
 10
94.2152275340352
 20
190.9459300115503
 30
0.0
 11
97.07595348268544
 21
190.9459300115503
 31
0.0
1001
PHOENIX7010
1002
{
1070
    41
1040
1.0
1002
}
  0
ARC
  5
398E
102
{ACAD_REACTORS
330
431E
102
}
330
1F
100
AcDbEntity
  8
0
100
AcDbCircle
 10
97.07192726923219
 20
191.1457838743429
 30
0.0
 40
0.1998944142988584
100
AcDbArc
 50
271.1541124830261
 51
353.9079000054154
1001
PHOENIX7010
1002
{
1070
    41
1040
1.0
1002
}
  0
ARC
  5
398F
102
{ACAD_REACTORS
330
431E
102
}
330
1F
100
AcDbEntity
  8
0
100
AcDbCircle
 10
98.75283807156314
 20
190.9216802998345
 30
0.0
 40
1.495967485451163
100
AcDbArc
 50
89.87227803937512
 51
172.2052843982104
1001
PHOENIX7010
1002
{
1070
    41
1040
1.0
1002
}
  0
LINE
  5
3990
102
{ACAD_REACTORS
330
431E
102
}
330
1F
100
AcDbEntity
  8
0
100
AcDbLine
 10
98.75617283328935
 20
192.4176440684115
 30
0.0
 11
143.0072128300126
 21
192.4176440684115
 31
0.0
1001
PHOENIX7010
1002
{
1070
    41
1040
1.0
1002
}
  0
LINE
  5
3991
102
{ACAD_REACTORS
330
431E
102
}
330
1F
100
AcDbEntity
  8
0
100
AcDbLine
 10
93.48169283165178
 20
199.5587114718516
 30
0.0
 11
93.48169283165178
 21
193.8087114718516
 31
0.0
1001
PHOENIX7010
1002
{
1070
    41
1040
1.0
1002
}
  0
LINE
  5
3992
102
{ACAD_REACTORS
330
431E
102
}
330
1F
100
AcDbEntity
  8
0
100
AcDbLine
 10
93.48169283165178
 20
206.8087114718516
 30
0.0
 11
93.48169283165178
 21
201.0587114718516
 31
0.0
1001
PHOENIX7010
1002
{
1070
    41
1040
1.0
1002
}
  0
LINE
  5
3993
102
{ACAD_REACTORS
330
431E
102
}
330
1F
100
AcDbEntity
  8
0
100
AcDbLine
 10
93.48169283165178
 20
193.8087114718516
 30
0.0
 11
95.48169283165178
 21
193.8087114718516
 31
0.0
1001
PHOENIX7010
1002
{
1070
    41
1040
1.0
1002
}
  0
LINE
  5
3994
102
{ACAD_REACTORS
330
431E
102
}
330
1F
100
AcDbEntity
  8
0
100
AcDbLine
 10
93.48169283165178
 20
193.8087114718516
 30
0.0
 11
93.51479022819216
 21
193.8197349728179
 31
0.0
1001
PHOENIX7010
1002
{
1070
    41
1040
1.0
1002
}
  0
LINE
  5
3995
102
{ACAD_REACTORS
330
431E
102
}
330
1F
100
AcDbEntity
  8
0
100
AcDbLine
 10
95.48169283165178
 20
193.8087114718516
 30
0.0
 11
95.48169283165178
 21
192.3087114718516
 31
0.0
1001
PHOENIX7010
1002
{
1070
    41
1040
1.0
1002
}
  0
LINE
  5
3996
102
{ACAD_REACTORS
330
431E
102
}
330
1F
100
AcDbEntity
  8
0
100
AcDbLine
 10
95.48169283165178
 20
192.3087114718516
 30
0.0
 11
93.49226266118078
 21
192.3087114718516
 31
0.0
1001
PHOENIX7010
1002
{
1070
    41
1040
1.0
1002
}
  0
LINE
  5
3997
102
{ACAD_REACTORS
330
431E
102
}
330
1F
100
AcDbEntity
  8
0
100
AcDbLine
 10
95.48169283165178
 20
206.8087114718516
 30
0.0
 11
93.48169283165178
 21
206.8087114718516
 31
0.0
1001
PHOENIX7010
1002
{
1070
    41
1040
1.0
1002
}
  0
LINE
  5
3998
102
{ACAD_REACTORS
330
431E
102
}
330
1F
100
AcDbEntity
  8
0
100
AcDbLine
 10
93.49226266118078
 20
208.3087114718516
 30
0.0
 11
95.48169283165178
 21
208.3087114718516
 31
0.0
1001
PHOENIX7010
1002
{
1070
    41
1040
1.0
1002
}
  0
LINE
  5
3999
102
{ACAD_REACTORS
330
431E
102
}
330
1F
100
AcDbEntity
  8
0
100
AcDbLine
 10
95.48169283165178
 20
208.3087114718516
 30
0.0
 11
95.48169283165178
 21
206.8087114718516
 31
0.0
1001
PHOENIX7010
1002
{
1070
    41
1040
1.0
1002
}
  0
LINE
  5
399A
102
{ACAD_REACTORS
330
431E
102
}
330
1F
100
AcDbEntity
  8
0
100
AcDbLine
 10
99.88169283165188
 20
208.1997788752918
 30
0.0
 11
98.7561728332912
 21
208.1997788752918
 31
0.0
1001
PHOENIX7010
1002
{
1070
    41
1040
1.0
1002
}
  0
LINE
  5
399B
102
{ACAD_REACTORS
330
431E
102
}
330
1F
100
AcDbEntity
  8
0
100
AcDbLine
 10
99.88169283165188
 20
204.3087114718516
 30
0.0
 11
101.3816928316519
 21
204.3087114718516
 31
0.0
1001
PHOENIX7010
1002
{
1070
    41
1040
1.0
1002
}
  0
LINE
  5
399C
102
{ACAD_REACTORS
330
431E
102
}
330
1F
100
AcDbEntity
  8
0
100
AcDbLine
 10
101.3816928316519
 20
204.3087114718516
 30
0.0
 11
101.3816928316519
 21
208.1997788752918
 31
0.0
1001
PHOENIX7010
1002
{
1070
    41
1040
1.0
1002
}
  0
ARC
  5
399D
102
{ACAD_REACTORS
330
431E
102
}
330
1F
100
AcDbEntity
  8
0
100
AcDbCircle
 10
125.8816928316518
 20
200.3087114718516
 30
0.0
 40
35.2
100
AcDbArc
 50
163.5229113816589
 51
167.7237963776175
1001
PHOENIX7010
1002
{
1070
    41
1040
1.0
1002
}
  0
ARC
  5
399E
102
{ACAD_REACTORS
330
431E
102
}
330
1F
100
AcDbEntity
  8
0
100
AcDbCircle
 10
93.75693602323392
 20
209.8087114718516
 30
0.0
 40
2.752407779283019
100
AcDbArc
 50
90.0
 51
163.5258881106843
1001
PHOENIX7010
1002
{
1070
    41
1040
1.0
1002
}
  0
ARC
  5
399F
102
{ACAD_REACTORS
330
431E
102
}
330
1F
100
AcDbEntity
  8
0
100
AcDbCircle
 10
125.8816928316518
 20
200.3087114718516
 30
0.0
 40
36.25240777928303
100
AcDbArc
 50
163.5258881106843
 51
170.1825669212223
1001
PHOENIX7010
1002
{
1070
    41
1040
1.0
1002
}
  0
ARC
  5
39A0
102
{ACAD_REACTORS
330
431E
102
}
330
1F
100
AcDbEntity
  8
0
100
AcDbCircle
 10
125.8816928316518
 20
200.3087114718516
 30
0.0
 40
35.75240777928303
100
AcDbArc
 50
170.8898298470728
 51
189.1101701529269
1001
PHOENIX7010
1002
{
1070
    41
1040
1.0
1002
}
  0
ARC
  5
39A1
102
{ACAD_REACTORS
330
431E
102
}
330
1F
100
AcDbEntity
  8
0
100
AcDbCircle
 10
125.8816928316518
 20
200.3087114718516
 30
0.0
 40
36.25240777928303
100
AcDbArc
 50
189.8174330787777
 51
196.4741118893156
1001
PHOENIX7010
1002
{
1070
    41
1040
1.0
1002
}
  0
ARC
  5
39A2
102
{ACAD_REACTORS
330
431E
102
}
330
1F
100
AcDbEntity
  8
0
100
AcDbCircle
 10
93.75693602323392
 20
190.8087114718516
 30
0.0
 40
2.999999999999998
100
AcDbArc
 50
196.4741118893156
 51
270.0
1001
PHOENIX7010
1002
{
1070
    41
1040
1.0
1002
}
  0
ARC
  5
39A3
102
{ACAD_REACTORS
330
431E
102
}
330
1F
100
AcDbEntity
  8
0
100
AcDbCircle
 10
125.8816928316518
 20
200.3087114718516
 30
0.0
 40
36.5
100
AcDbArc
 50
189.8116020818588
 51
196.4741118893156
1001
PHOENIX7010
1002
{
1070
    41
1040
1.0
1002
}
  0
ARC
  5
39A4
102
{ACAD_REACTORS
330
431E
102
}
330
1F
100
AcDbEntity
  8
0
100
AcDbCircle
 10
125.8816928316518
 20
200.3087114718516
 30
0.0
 40
35.94759222071696
100
AcDbArc
 50
170.8852060024169
 51
189.114793997583
1001
PHOENIX7010
1002
{
1070
    41
1040
1.0
1002
}
  0
ARC
  5
39A5
102
{ACAD_REACTORS
330
431E
102
}
330
1F
100
AcDbEntity
  8
0
100
AcDbCircle
 10
125.8816928316518
 20
200.3087114718516
 30
0.0
 40
36.5
100
AcDbArc
 50
163.5258881106843
 51
170.1883979181411
1001
PHOENIX7010
1002
{
1070
    41
1040
1.0
1002
}
  0
ARC
  5
39A6
102
{ACAD_REACTORS
330
431E
102
}
330
1F
100
AcDbEntity
  8
0
100
AcDbCircle
 10
93.75693602323392
 20
209.8087114718516
 30
0.0
 40
2.999999999999998
100
AcDbArc
 50
90.0
 51
163.5258881106843
1001
PHOENIX7010
1002
{
1070
    41
1040
1.0
1002
}
  0
ARC
  5
39A7
102
{ACAD_REACTORS
330
431E
102
}
330
1F
100
AcDbEntity
  8
0
100
AcDbCircle
 10
93.75693602323392
 20
190.8087114718516
 30
0.0
 40
2.75240777928303
100
AcDbArc
 50
196.4741118893156
 51
270.0
1001
PHOENIX7010
1002
{
1070
    41
1040
1.0
1002
}
  0
ARC
  5
39A8
102
{ACAD_REACTORS
330
431E
102
}
330
1F
100
AcDbEntity
  8
0
100
AcDbCircle
 10
125.8816928316518
 20
200.3087114718516
 30
0.0
 40
35.2
100
AcDbArc
 50
192.2762036223824
 51
196.4770886183411
1001
PHOENIX7010
1002
{
1070
    41
1040
1.0
1002
}
  0
ARC
  5
39A9
102
{ACAD_REACTORS
330
431E
102
}
330
1F
100
AcDbEntity
  8
0
100
AcDbCircle
 10
125.8816928316518
 20
200.3087114718516
 30
0.0
 40
33.36278146030118
100
AcDbArc
 50
164.3169443510091
 51
166.1259622262609
1001
PHOENIX7010
1002
{
1070
    41
1040
1.0
1002
}
  0
ARC
  5
39AA
102
{ACAD_REACTORS
330
431E
102
}
330
1F
100
AcDbEntity
  8
0
100
AcDbCircle
 10
97.88169283165188
 20
200.3087114718516
 30
0.0
 40
3.5
100
AcDbArc
 50
192.3736251161914
 51
167.6263748838085
1001
PHOENIX7010
1002
{
1070
    41
1040
1.0
1002
}
  0
CIRCLE
  5
39AB
102
{ACAD_REACTORS
330
431E
102
}
330
1F
100
AcDbEntity
  8
0
100
AcDbCircle
 10
97.88169283165188
 20
200.3087114718516
 30
0.0
 40
1.621452207823019
1001
PHOENIX7010
1002
{
1070
    41
1040
1.0
1002
}
  0
ARC
  5
39AC
102
{ACAD_REACTORS
330
431E
102
}
330
1F
100
AcDbEntity
  8
0
100
AcDbCircle
 10
125.8816928316518
 20
200.3087114718516
 30
0.0
 40
33.36278146030118
100
AcDbArc
 50
193.874037773739
 51
195.6830556489908
1001
PHOENIX7010
1002
{
1070
    41
1040
1.0
1002
}
  0
LINE
  5
39AD
102
{ACAD_REACTORS
330
431E
102
}
330
1F
100
AcDbEntity
  8
0
100
AcDbLine
 10
202.0254220922728
 20
204.3087114718519
 30
0.0
 11
201.0435294614882
 21
204.3087114718519
 31
0.0
1001
PHOENIX7010
1002
{
1070
    41
1040
1.0
1002
}
  0
LINE
  5
39AE
102
{ACAD_REACTORS
330
431E
102
}
330
1F
100
AcDbEntity
  8
0
100
AcDbLine
 10
201.0435294614882
 20
204.3087114718519
 30
0.0
 11
200.9085501069885
 21
204.3087114718519
 31
0.0
1001
PHOENIX7010
1002
{
1070
    41
1040
1.0
1002
}
  0
LINE
  5
39AF
102
{ACAD_REACTORS
330
431E
102
}
330
1F
100
AcDbEntity
  8
0
100
AcDbLine
 10
202.0254220921813
 20
196.3087114718519
 30
0.0
 11
201.0435294614882
 21
196.3087114718519
 31
0.0
1001
PHOENIX7010
1002
{
1070
    41
1040
1.0
1002
}
  0
LINE
  5
39B0
102
{ACAD_REACTORS
330
431E
102
}
330
1F
100
AcDbEntity
  8
0
100
AcDbLine
 10
201.0435294614882
 20
196.3087114718519
 30
0.0
 11
200.9085501069885
 21
196.3087114718519
 31
0.0
1001
PHOENIX7010
1002
{
1070
    41
1040
1.0
1002
}
  0
ARC
  5
39B1
102
{ACAD_REACTORS
330
431E
102
}
330
1F
100
AcDbEntity
  8
0
100
AcDbCircle
 10
210.7254220921605
 20
189.0576760385668
 30
0.0
 40
0.9999999999999998
100
AcDbArc
 50
273.0000000000058
 51
0.0
1001
PHOENIX7010
1002
{
1070
    41
1040
1.0
1002
}
  0
LINE
  5
39B2
102
{ACAD_REACTORS
330
431E
102
}
330
1F
100
AcDbEntity
  8
0
100
AcDbLine
 10
210.7254220921604
 20
212.5611192511349
 30
0.0
 11
210.7777580484033
 21
212.5583764398916
 31
0.0
1001
PHOENIX7010
1002
{
1070
    41
1040
1.0
1002
}
  0
ARC
  5
39B3
102
{ACAD_REACTORS
330
431E
102
}
330
1F
100
AcDbEntity
  8
0
100
AcDbCircle
 10
210.7254220921604
 20
211.559746905137
 30
0.0
 40
0.9999999999999998
100
AcDbArc
 50
0.0
 51
86.99999999999461
1001
PHOENIX7010
1002
{
1070
    41
1040
1.0
1002
}
  0
LINE
  5
39B4
102
{ACAD_REACTORS
330
431E
102
}
330
1F
100
AcDbEntity
  8
0
100
AcDbLine
 10
210.1254220921604
 20
212.7772668042821
 30
0.0
 11
210.7254220921603
 21
212.8087114718519
 31
0.0
1001
PHOENIX7010
1002
{
1070
    41
1040
1.0
1002
}
  0
ARC
  5
39B5
102
{ACAD_REACTORS
330
431E
102
}
330
1F
100
AcDbEntity
  8
0
100
AcDbCircle
 10
210.3871018733751
 20
207.7841191305092
 30
0.0
 40
5.0
100
AcDbArc
 50
93.00000000000585
 51
125.5124765930716
1001
PHOENIX7010
1002
{
1070
    41
1040
1.0
1002
}
  0
ARC
  5
39B6
102
{ACAD_REACTORS
330
431E
102
}
330
1F
100
AcDbEntity
  8
0
100
AcDbCircle
 10
202.5452188789947
 20
181.8444516846759
 30
0.0
 40
8.499999999999998
100
AcDbArc
 50
54.48752340692865
 51
72.79679378076783
1001
PHOENIX7010
1002
{
1070
    41
1040
1.0
1002
}
  0
ARC
  5
39B7
102
{ACAD_REACTORS
330
431E
102
}
330
1F
100
AcDbEntity
  8
0
100
AcDbCircle
 10
210.3871018733752
 20
192.8333038131945
 30
0.0
 40
4.999999999999999
100
AcDbArc
 50
234.4875234069286
 51
266.9999999999947
1001
PHOENIX7010
1002
{
1070
    41
1040
1.0
1002
}
  0
LINE
  5
39B8
102
{ACAD_REACTORS
330
431E
102
}
330
1F
100
AcDbEntity
  8
0
100
AcDbLine
 10
210.7254220921605
 20
187.8087114718519
 30
0.0
 11
210.1254220921604
 21
187.8401561394215
 31
0.0
1001
PHOENIX7010
1002
{
1070
    41
1040
1.0
1002
}
  0
LINE
  5
39B9
102
{ACAD_REACTORS
330
431E
102
}
330
1F
100
AcDbEntity
  8
0
100
AcDbLine
 10
210.7777580484034
 20
188.0590465038121
 30
0.0
 11
210.7254220921605
 21
188.0563036925689
 31
0.0
1001
PHOENIX7010
1002
{
1070
    41
1040
1.0
1002
}
  0
ARC
  5
39BA
102
{ACAD_REACTORS
330
431E
102
}
330
1F
100
AcDbEntity
  8
0
100
AcDbCircle
 10
202.5452188789946
 20
218.7729712590276
 30
0.0
 40
8.500000000000001
100
AcDbArc
 50
287.2032062192326
 51
305.5124765930717
1001
PHOENIX7010
1002
{
1070
    41
1040
1.0
1002
}
  0
LINE
  5
39BB
102
{ACAD_REACTORS
330
431E
102
}
330
1F
100
AcDbEntity
  8
0
100
AcDbLine
 10
202.0254220921605
 20
208.4027934434663
 30
0.0
 11
202.0254220921605
 21
192.2146295002374
 31
0.0
1001
PHOENIX7010
1002
{
1070
    41
1040
1.0
1002
}
  0
LINE
  5
39BC
102
{ACAD_REACTORS
330
431E
102
}
330
1F
100
AcDbEntity
  8
0
100
AcDbLine
 10
209.7254220921604
 20
193.8087114718519
 30
0.0
 11
206.0254220921605
 21
193.8732952120862
 31
0.0
1001
PHOENIX7010
1002
{
1070
    41
1040
1.0
1002
}
  0
LINE
  5
39BD
102
{ACAD_REACTORS
330
431E
102
}
330
1F
100
AcDbEntity
  8
0
100
AcDbLine
 10
209.7254220921604
 20
204.3087114718519
 30
0.0
 11
206.0254220921605
 21
204.2118235620457
 31
0.0
1001
PHOENIX7010
1002
{
1070
    41
1040
1.0
1002
}
  0
LINE
  5
39BF
102
{ACAD_REACTORS
330
431E
102
}
330
1F
100
AcDbEntity
  8
0
100
AcDbLine
 10
211.7254220921604
 20
211.559746905137
 30
0.0
 11
211.7254220921604
 21
189.0576760385668
 31
0.0
1001
PHOENIX7010
1002
{
1070
    41
1040
1.0
1002
}
  0
LINE
  5
39C0
102
{ACAD_REACTORS
330
431E
102
}
330
1F
100
AcDbEntity
  8
0
100
AcDbLine
 10
210.7254220921605
 20
189.3611192511348
 30
0.0
 11
210.7254220921605
 21
188.50775214618
 31
0.0
1001
PHOENIX7010
1002
{
1070
    41
1040
1.0
1002
}
  0
LINE
  5
39C1
102
{ACAD_REACTORS
330
431E
102
}
330
1F
100
AcDbEntity
  8
0
100
AcDbLine
 10
210.7254220921605
 20
187.8087114718519
 30
0.0
 11
210.7254220921605
 21
188.50775214618
 31
0.0
1001
PHOENIX7010
1002
{
1070
    41
1040
1.0
1002
}
  0
LINE
  5
39C2
102
{ACAD_REACTORS
330
431E
102
}
330
1F
100
AcDbEntity
  8
0
100
AcDbLine
 10
210.7254220921604
 20
212.1096707975237
 30
0.0
 11
210.7254220921604
 21
212.8087114718519
 31
0.0
1001
PHOENIX7010
1002
{
1070
    41
1040
1.0
1002
}
  0
LINE
  5
39C3
102
{ACAD_REACTORS
330
431E
102
}
330
1F
100
AcDbEntity
  8
0
100
AcDbLine
 10
210.7254220921604
 20
212.1096707975237
 30
0.0
 11
210.7254220921604
 21
211.2563036925688
 31
0.0
1001
PHOENIX7010
1002
{
1070
    41
1040
1.0
1002
}
  0
LINE
  5
39C4
102
{ACAD_REACTORS
330
431E
102
}
330
1F
100
AcDbEntity
  8
0
100
AcDbLine
 10
209.7254220921604
 20
204.3087114718519
 30
0.0
 11
209.7254220921604
 21
203.8087114718519
 31
0.0
1001
PHOENIX7010
1002
{
1070
    41
1040
1.0
1002
}
  0
LINE
  5
39C5
102
{ACAD_REACTORS
330
431E
102
}
330
1F
100
AcDbEntity
  8
0
100
AcDbLine
 10
209.7254220921604
 20
196.8087114718519
 30
0.0
 11
209.7254220921604
 21
193.8087114718519
 31
0.0
1001
PHOENIX7010
1002
{
1070
    41
1040
1.0
1002
}
  0
LINE
  5
39C6
102
{ACAD_REACTORS
330
431E
102
}
330
1F
100
AcDbEntity
  8
0
100
AcDbLine
 10
209.7254220921604
 20
193.8087114718519
 30
0.0
 11
209.7254220921604
 21
192.4176440683723
 31
0.0
1001
PHOENIX7010
1002
{
1070
    41
1040
1.0
1002
}
  0
LINE
  5
39C7
102
{ACAD_REACTORS
330
431E
102
}
330
1F
100
AcDbEntity
  8
0
100
AcDbLine
 10
210.7777580484033
 20
211.0583764398916
 30
0.0
 11
210.7254220921604
 21
211.0611192511349
 31
0.0
1001
PHOENIX7010
1002
{
1070
    41
1040
1.0
1002
}
  0
LINE
  5
39C8
102
{ACAD_REACTORS
330
431E
102
}
330
1F
100
AcDbEntity
  8
0
100
AcDbLine
 10
210.7254220921604
 20
211.0611192511349
 30
0.0
 11
210.7254220921604
 21
211.2563036925688
 31
0.0
1001
PHOENIX7010
1002
{
1070
    41
1040
1.0
1002
}
  0
LINE
  5
39C9
102
{ACAD_REACTORS
330
431E
102
}
330
1F
100
AcDbEntity
  8
0
100
AcDbLine
 10
210.7254220921604
 20
211.2563036925688
 30
0.0
 11
207.493447179072
 21
211.0869230646754
 31
0.0
1001
PHOENIX7010
1002
{
1070
    41
1040
1.0
1002
}
  0
LINE
  5
39CA
102
{ACAD_REACTORS
330
431E
102
}
330
1F
100
AcDbEntity
  8
0
100
AcDbLine
 10
202.9900745070597
 20
210.2846202136138
 30
0.0
 11
201.2843774508015
 21
210.1952284187657
 31
0.0
1001
PHOENIX7010
1002
{
1070
    41
1040
1.0
1002
}
  0
ARC
  5
39CB
102
{ACAD_REACTORS
330
431E
102
}
330
1F
100
AcDbEntity
  8
0
100
AcDbCircle
 10
201.3367134150922
 20
209.1965988763741
 30
0.0
 40
1.000000008047775
100
AcDbArc
 50
93.0000004375756
 51
179.9999995624306
1001
PHOENIX7010
1002
{
1070
    41
1040
1.0
1002
}
  0
LINE
  5
39CC
102
{ACAD_REACTORS
330
431E
102
}
330
1F
100
AcDbEntity
  8
0
100
AcDbLine
 10
200.3367134070444
 20
209.1965988840111
 30
0.0
 11
200.3367134070444
 21
208.5087114718518
 31
0.0
1001
PHOENIX7010
1002
{
1070
    41
1040
1.0
1002
}
  0
LINE
  5
39CD
102
{ACAD_REACTORS
330
431E
102
}
330
1F
100
AcDbEntity
  8
0
100
AcDbLine
 10
203.5254220921605
 20
208.3087114718518
 30
0.0
 11
200.3367134070446
 21
208.5087114718518
 31
0.0
1001
PHOENIX7010
1002
{
1070
    41
1040
1.0
1002
}
  0
LINE
  5
39CE
102
{ACAD_REACTORS
330
431E
102
}
330
1F
100
AcDbEntity
  8
0
100
AcDbLine
 10
203.5254220921605
 20
208.3087114718518
 30
0.0
 11
203.5254220921605
 21
192.3087114718519
 31
0.0
1001
PHOENIX7010
1002
{
1070
    41
1040
1.0
1002
}
  0
LINE
  5
39CF
102
{ACAD_REACTORS
330
431E
102
}
330
1F
100
AcDbEntity
  8
0
100
AcDbLine
 10
203.5254220921605
 20
192.3087114718519
 30
0.0
 11
200.3367134070446
 21
192.1087114718518
 31
0.0
1001
PHOENIX7010
1002
{
1070
    41
1040
1.0
1002
}
  0
LINE
  5
39D0
102
{ACAD_REACTORS
330
431E
102
}
330
1F
100
AcDbEntity
  8
0
100
AcDbLine
 10
200.3367134070445
 20
192.1087114718518
 30
0.0
 11
200.3367134070445
 21
191.4208240596926
 31
0.0
1001
PHOENIX7010
1002
{
1070
    41
1040
1.0
1002
}
  0
ARC
  5
39D1
102
{ACAD_REACTORS
330
431E
102
}
330
1F
100
AcDbEntity
  8
0
100
AcDbCircle
 10
201.3367134150923
 20
191.4208240673296
 30
0.0
 40
1.000000008047775
100
AcDbArc
 50
180.0000004375694
 51
266.9999995624249
1001
PHOENIX7010
1002
{
1070
    41
1040
1.0
1002
}
  0
LINE
  5
39D2
102
{ACAD_REACTORS
330
431E
102
}
330
1F
100
AcDbEntity
  8
0
100
AcDbLine
 10
201.2843774508016
 20
190.422194524938
 30
0.0
 11
202.9900745070597
 21
190.3328027300899
 31
0.0
1001
PHOENIX7010
1002
{
1070
    41
1040
1.0
1002
}
  0
LINE
  5
39D3
102
{ACAD_REACTORS
330
431E
102
}
330
1F
100
AcDbEntity
  8
0
100
AcDbLine
 10
207.4934471790722
 20
189.5304998790284
 30
0.0
 11
210.7254220921603
 21
189.3611192511348
 31
0.0
1001
PHOENIX7010
1002
{
1070
    41
1040
1.0
1002
}
  0
LINE
  5
39D4
102
{ACAD_REACTORS
330
431E
102
}
330
1F
100
AcDbEntity
  8
0
100
AcDbLine
 10
210.7254220921605
 20
189.3611192511348
 30
0.0
 11
210.7254220921605
 21
189.5563036925689
 31
0.0
1001
PHOENIX7010
1002
{
1070
    41
1040
1.0
1002
}
  0
LINE
  5
39D5
102
{ACAD_REACTORS
330
431E
102
}
330
1F
100
AcDbEntity
  8
0
100
AcDbLine
 10
210.7254220921605
 20
189.5563036925689
 30
0.0
 11
210.7777580484034
 21
189.5590465038121
 31
0.0
1001
PHOENIX7010
1002
{
1070
    41
1040
1.0
1002
}
  0
LINE
  5
39D6
102
{ACAD_REACTORS
330
431E
102
}
330
1F
100
AcDbEntity
  8
0
100
AcDbLine
 10
211.7254220921604
 20
190.5576760385668
 30
0.0
 11
211.7254220921604
 21
190.6087114718518
 31
0.0
1001
PHOENIX7010
1002
{
1070
    41
1040
1.0
1002
}
  0
LINE
  5
39D7
102
{ACAD_REACTORS
330
431E
102
}
330
1F
100
AcDbEntity
  8
0
100
AcDbLine
 10
211.7254220921604
 20
190.6087114718518
 30
0.0
 11
209.7254220921604
 21
190.7135270304179
 31
0.0
1001
PHOENIX7010
1002
{
1070
    41
1040
1.0
1002
}
  0
LINE
  5
39D8
102
{ACAD_REACTORS
330
431E
102
}
330
1F
100
AcDbEntity
  8
0
100
AcDbLine
 10
209.7254220921604
 20
190.7135270304179
 30
0.0
 11
209.7254220921604
 21
192.4176440684116
 31
0.0
1001
PHOENIX7010
1002
{
1070
    41
1040
1.0
1002
}
  0
LINE
  5
39D9
102
{ACAD_REACTORS
330
431E
102
}
330
1F
100
AcDbEntity
  8
0
100
AcDbLine
 10
209.7254220921604
 20
192.4176440684116
 30
0.0
 11
207.6504550478011
 21
192.526388483292
 31
0.0
1001
PHOENIX7010
1002
{
1070
    41
1040
1.0
1002
}
  0
LINE
  5
39DA
102
{ACAD_REACTORS
330
431E
102
}
330
1F
100
AcDbEntity
  8
0
100
AcDbLine
 10
206.0254220921605
 20
193.1902027924347
 30
0.0
 11
206.0254220921605
 21
207.427220151269
 31
0.0
1001
PHOENIX7010
1002
{
1070
    41
1040
1.0
1002
}
  0
LINE
  5
39DB
102
{ACAD_REACTORS
330
431E
102
}
330
1F
100
AcDbEntity
  8
0
100
AcDbLine
 10
209.7254220921604
 20
208.1997788752919
 30
0.0
 11
209.7254220921604
 21
209.9038959132859
 31
0.0
1001
PHOENIX7010
1002
{
1070
    41
1040
1.0
1002
}
  0
LINE
  5
39DC
102
{ACAD_REACTORS
330
431E
102
}
330
1F
100
AcDbEntity
  8
0
100
AcDbLine
 10
209.7254220921604
 20
209.9038959132859
 30
0.0
 11
211.7254220921604
 21
210.0087114718519
 31
0.0
1001
PHOENIX7010
1002
{
1070
    41
1040
1.0
1002
}
  0
LINE
  5
39DD
102
{ACAD_REACTORS
330
431E
102
}
330
1F
100
AcDbEntity
  8
0
100
AcDbLine
 10
211.7254220921604
 20
210.0087114718519
 30
0.0
 11
211.7254220921604
 21
210.059746905137
 31
0.0
1001
PHOENIX7010
1002
{
1070
    41
1040
1.0
1002
}
  0
LINE
  5
39DE
102
{ACAD_REACTORS
330
431E
102
}
330
1F
100
AcDbEntity
  8
0
100
AcDbLine
 10
209.7254220921604
 20
196.8087114718519
 30
0.0
 11
207.7254220921604
 21
196.7038959132858
 31
0.0
1001
PHOENIX7010
1002
{
1070
    41
1040
1.0
1002
}
  0
LINE
  5
39DF
102
{ACAD_REACTORS
330
431E
102
}
330
1F
100
AcDbEntity
  8
0
100
AcDbLine
 10
209.7254220921604
 20
203.8087114718519
 30
0.0
 11
207.7254220921604
 21
203.913527030418
 31
0.0
1001
PHOENIX7010
1002
{
1070
    41
1040
1.0
1002
}
  0
SPLINE
  5
39E0
102
{ACAD_REACTORS
330
431E
102
}
330
1F
100
AcDbEntity
  8
0
100
AcDbSpline
210
0.0
220
0.0
230
1.0
 70
     8
 71
     1
 72
     9
 73
     7
 74
     0
 42
0.0000000001
 43
0.0000000001
 40
0.0
 40
0.0
 40
0.1623447584755624
 40
0.3217536933180172
 40
0.4811895414202141
 40
0.5583945816054464
 40
0.6127623962014118
 40
0.6709102616382096
 40
0.6709102616382096
 10
200.3970828520815
 20
204.8073975892326
 30
0.0
 10
200.4234015976068
 20
204.6472623112991
 30
0.0
 10
200.4977513850564
 20
204.5063818818826
 30
0.0
 10
200.6123469156426
 20
204.396126866776
 30
0.0
 10
200.6781073620617
 20
204.3574867899244
 30
0.0
 10
200.725886509225
 20
204.3370091881152
 30
0.0
 10
200.7726434224899
 20
204.3220999122925
 30
0.0
1001
PHOENIX7010
1002
{
1070
    41
1040
1.0
1002
}
  0
SPLINE
  5
39E1
102
{ACAD_REACTORS
330
431E
102
}
330
1F
100
AcDbEntity
  8
0
100
AcDbSpline
210
0.0
220
0.0
230
1.0
 70
     8
 71
     1
 72
    10
 73
     8
 74
     0
 42
0.0000000001
 43
0.0000000001
 40
0.0
 40
0.0
 40
0.0537935753386054
 40
0.1053697911985016
 40
0.1831102001301
 40
0.3097736305295125
 40
0.46533213154913
 40
0.6247132467471425
 40
0.671380004744056
 40
0.671380004744056
 10
200.7726434224632
 20
196.2953230314037
 30
0.0
 10
200.7296871218631
 20
196.2818038549255
 30
0.0
 10
200.6844385825153
 20
196.2629854750485
 30
0.0
 10
200.6178110006199
 20
196.2250374324026
 30
0.0
 10
200.5228818842498
 20
196.1417992990348
 30
0.0
 10
200.4391600172638
 20
196.010861283981
 30
0.0
 10
200.3992578549911
 20
195.856626011619
 30
0.0
 10
200.3970828520816
 20
195.810025354471
 30
0.0
1001
PHOENIX7010
1002
{
1070
    41
1040
1.0
1002
}
  0
ARC
  5
39E2
102
{ACAD_REACTORS
330
431E
102
}
330
1F
100
AcDbEntity
  8
0
100
AcDbCircle
 10
181.7061905631111
 20
200.3086513781997
 30
0.0
 40
19.36215676746544
100
AcDbArc
 50
347.8585314151601
 51
12.14189138210521
1001
PHOENIX7010
1002
{
1070
    41
1040
1.0
1002
}
  0
LINE
  5
39E3
102
{ACAD_REACTORS
330
431E
102
}
330
1F
100
AcDbEntity
  8
0
100
AcDbLine
 10
206.7777580484034
 20
195.4267513975178
 30
0.0
 11
206.0254220921605
 21
195.3873231407765
 31
0.0
1001
PHOENIX7010
1002
{
1070
    41
1040
1.0
1002
}
  0
LINE
  5
39E4
102
{ACAD_REACTORS
330
431E
102
}
330
1F
100
AcDbEntity
  8
0
100
AcDbLine
 10
207.7254220921604
 20
196.4253809322724
 30
0.0
 11
207.7254220921604
 21
204.1920420114313
 31
0.0
1001
PHOENIX7010
1002
{
1070
    41
1040
1.0
1002
}
  0
LINE
  5
39E5
102
{ACAD_REACTORS
330
431E
102
}
330
1F
100
AcDbEntity
  8
0
100
AcDbLine
 10
209.7254220921604
 20
203.8087114718519
 30
0.0
 11
209.7254220921604
 21
196.8087114718519
 31
0.0
1001
PHOENIX7010
1002
{
1070
    41
1040
1.0
1002
}
  0
ARC
  5
39E6
102
{ACAD_REACTORS
330
431E
102
}
330
1F
100
AcDbEntity
  8
0
100
AcDbCircle
 10
208.0168067415015
 20
201.1006277171296
 30
0.0
 40
9.999999999999998
100
AcDbArc
 50
93.00000000000585
 51
107.2032062192326
1001
PHOENIX7010
1002
{
1070
    41
1040
1.0
1002
}
  0
ARC
  5
39E7
102
{ACAD_REACTORS
330
431E
102
}
330
1F
100
AcDbEntity
  8
0
100
AcDbCircle
 10
202.5452188789946
 20
218.7729712590276
 30
0.0
 40
8.500000000000001
100
AcDbArc
 50
273.0000000000058
 51
287.2032062192326
1001
PHOENIX7010
1002
{
1070
    41
1040
1.0
1002
}
  0
ARC
  5
39E8
102
{ACAD_REACTORS
330
431E
102
}
330
1F
100
AcDbEntity
  8
0
100
AcDbCircle
 10
202.5452188789947
 20
181.8444516846759
 30
0.0
 40
8.499999999999998
100
AcDbArc
 50
72.79679378076783
 51
86.99999999999461
1001
PHOENIX7010
1002
{
1070
    41
1040
1.0
1002
}
  0
ARC
  5
39E9
102
{ACAD_REACTORS
330
431E
102
}
330
1F
100
AcDbEntity
  8
0
100
AcDbCircle
 10
208.0168067415017
 20
199.516795226574
 30
0.0
 40
9.999999999999998
100
AcDbArc
 50
252.7967937807678
 51
266.9999999999947
1001
PHOENIX7010
1002
{
1070
    41
1040
1.0
1002
}
  0
ARC
  5
39EA
102
{ACAD_REACTORS
330
431E
102
}
330
1F
100
AcDbEntity
  8
0
100
AcDbCircle
 10
210.7254220921604
 20
190.5576760385668
 30
0.0
 40
0.9999999999999998
100
AcDbArc
 50
273.0000000000058
 51
0.0
1001
PHOENIX7010
1002
{
1070
    41
1040
1.0
1002
}
  0
ARC
  5
39EB
102
{ACAD_REACTORS
330
431E
102
}
330
1F
100
AcDbEntity
  8
0
100
AcDbCircle
 10
208.0168067415017
 20
199.516795226574
 30
0.0
 40
6.999999999999997
100
AcDbArc
 50
256.7356723092019
 51
266.9999999999947
1001
PHOENIX7010
1002
{
1070
    41
1040
1.0
1002
}
  0
ARC
  5
39EC
102
{ACAD_REACTORS
330
431E
102
}
330
1F
100
AcDbEntity
  8
0
100
AcDbCircle
 10
206.5254220921605
 20
193.1902027924347
 30
0.0
 40
0.5
100
AcDbArc
 50
180.0
 51
256.7356723092019
1001
PHOENIX7010
1002
{
1070
    41
1040
1.0
1002
}
  0
ARC
  5
39ED
102
{ACAD_REACTORS
330
431E
102
}
330
1F
100
AcDbEntity
  8
0
100
AcDbCircle
 10
206.5254220921604
 20
207.427220151269
 30
0.0
 40
0.5
100
AcDbArc
 50
103.2643276907985
 51
180.0
1001
PHOENIX7010
1002
{
1070
    41
1040
1.0
1002
}
  0
ARC
  5
39EE
102
{ACAD_REACTORS
330
431E
102
}
330
1F
100
AcDbEntity
  8
0
100
AcDbCircle
 10
208.0168067415015
 20
201.1006277171296
 30
0.0
 40
6.999999999999997
100
AcDbArc
 50
93.00000000000215
 51
103.2643276907914
1001
PHOENIX7010
1002
{
1070
    41
1040
1.0
1002
}
  0
ARC
  5
39EF
102
{ACAD_REACTORS
330
431E
102
}
330
1F
100
AcDbEntity
  8
0
100
AcDbCircle
 10
210.7254220921604
 20
210.059746905137
 30
0.0
 40
0.9999999999999998
100
AcDbArc
 50
0.0
 51
86.99999999999461
1001
PHOENIX7010
1002
{
1070
    41
1040
1.0
1002
}
  0
LINE
  5
39F0
102
{ACAD_REACTORS
330
431E
102
}
330
1F
100
AcDbEntity
  8
0
100
AcDbLine
 10
200.3970828520815
 20
204.8073975892328
 30
0.0
 11
200.3970828520815
 21
208.5049250209089
 31
0.0
1001
PHOENIX7010
1002
{
1070
    41
1040
1.0
1002
}
  0
LINE
  5
39F1
102
{ACAD_REACTORS
330
431E
102
}
330
1F
100
AcDbEntity
  8
0
100
AcDbLine
 10
200.3970828520816
 20
192.1124979227947
 30
0.0
 11
200.3970828520816
 21
195.810025354471
 31
0.0
1001
PHOENIX7010
1002
{
1070
    41
1040
1.0
1002
}
  0
ARC
  5
39F2
102
{ACAD_REACTORS
330
431E
102
}
330
1F
100
AcDbEntity
  8
0
100
AcDbCircle
 10
206.7254220921604
 20
204.1920420114313
 30
0.0
 40
0.9999999999999998
100
AcDbArc
 50
0.0
 51
3.683419460949468
1001
PHOENIX7010
1002
{
1070
    41
1040
1.0
1002
}
  0
ARC
  5
39F3
102
{ACAD_REACTORS
330
431E
102
}
330
1F
100
AcDbEntity
  8
0
100
AcDbCircle
 10
206.7254220921604
 20
196.4253809322724
 30
0.0
 40
0.9999999999999998
100
AcDbArc
 50
273.0000000000058
 51
0.0
1001
PHOENIX7010
1002
{
1070
    41
1040
1.0
1002
}
  0
HATCH
  5
39F4
102
{ACAD_REACTORS
330
431E
102
}
330
1F
100
AcDbEntity
  8
0
 62
     1
100
AcDbHatch
 10
0.0
 20
0.0
 30
0.0
210
0.0
220
0.0
230
1.0
  2
ANSI31
 70
     0
 71
     0
 91
        1
 92
        0
 93
      174
 72
     3
 10
210.7254220921604
 20
210.059746905137
 11
-0.7071067811865618
 21
0.7071067811865566
 40
0.9999999999999646
 50
47.99999999999911
 51
135.0
 73
     0
 72
     1
 10
211.7254220921604
 20
210.059746905137
 11
211.7254220921604
 21
210.0087114718518
 72
     1
 10
211.7254220921604
 20
210.0087114718519
 11
209.7254220921604
 21
209.9038959132859
 72
     1
 10
209.7254220921604
 20
209.9038959132859
 11
209.7254220921604
 21
208.1997788752921
 72
     1
 10
209.7254220921604
 20
208.1997788752919
 11
207.6504550478009
 21
208.0910344604116
 72
     3
 10
208.0168067415015
 20
201.1006277171296
 11
4.949747468305933
 21
4.949747468305971
 40
0.9999999999999827
 50
47.99999999999954
 51
58.26432769079135
 73
     1
 72
     3
 10
206.5254220921604
 20
207.427220151269
 11
-0.3535533905932843
 21
0.3535533905932819
 40
0.9999999999999396
 50
-31.73567230920878
 51
45.0
 73
     1
 72
     1
 10
206.0254220921605
 20
207.427220151269
 11
206.0254220921605
 21
193.1902027924347
 72
     3
 10
206.5254220921605
 20
193.1902027924347
 11
0.3535533905932819
 21
0.3535533905932844
 40
0.9999999999999396
 50
135.0
 51
211.7356723092088
 73
     1
 72
     3
 10
208.0168067415017
 20
199.516795226574
 11
4.94974746830583
 21
4.949747468305865
 40
0.9999999999999992
 50
211.7356723092082
 51
222.0000000000005
 73
     1
 72
     1
 10
207.6504550478011
 20
192.526388483292
 11
209.7254220921605
 21
192.4176440684117
 72
     1
 10
209.7254220921604
 20
192.4176440684116
 11
209.7254220921604
 21
190.7135270304179
 72
     1
 10
209.7254220921604
 20
190.7135270304179
 11
211.7254220921604
 21
190.6087114718518
 72
     1
 10
211.7254220921604
 20
190.6087114718518
 11
211.7254220921604
 21
190.5576760385667
 72
     3
 10
210.7254220921604
 20
190.5576760385668
 11
0.7071067811865566
 21
0.7071067811865618
 40
0.9999999999999646
 50
45.0
 51
132.0000000000009
 73
     0
 72
     1
 10
210.7777580484034
 20
189.5590465038121
 11
210.7254220921605
 21
189.5563036925688
 72
     1
 10
210.7254220921605
 20
189.5563036925689
 11
210.7254220921605
 21
189.361119251135
 72
     1
 10
210.7254220921605
 20
189.3611192511348
 11
207.4934471790722
 21
189.5304998790282
 72
     3
 10
208.0168067415017
 20
199.516795226574
 11
7.071067811865173
 21
7.071067811865222
 40
0.9999999999999593
 50
137.9999999999999
 51
152.2032062192377
 73
     0
 72
     3
 10
202.5452188789947
 20
181.8444516846759
 11
-6.010407640085897
 21
6.010407640085857
 40
0.9999999999999783
 50
-62.2032062192379
 51
-47.99999999999982
 73
     1
 72
     1
 10
202.9900745070597
 20
190.3328027300899
 11
201.2843774508016
 21
190.422194524938
 72
     1
 10
201.2843774508016
 20
190.422194524938
 11
201.2422298546888
 21
190.425297661734
 72
     1
 10
201.2422298546888
 20
190.425297661734
 11
201.2003180828573
 21
190.4301697062058
 72
     1
 10
201.2003180828573
 20
190.4301697062058
 11
201.1586968089924
 21
190.4367968684362
 72
     1
 10
201.1586968089924
 20
190.4367968684362
 11
201.1174207067798
 21
190.445165358508
 72
     1
 10
201.1174207067798
 20
190.4451653585079
 11
201.0765444499047
 21
190.4552613865039
 72
     1
 10
201.0765444499047
 20
190.4552613865041
 11
201.0361227120526
 21
190.4670711625073
 72
     1
 10
201.0361227120526
 20
190.4670711625072
 11
200.9962101669091
 21
190.4805808966002
 72
     1
 10
200.9962101669091
 20
190.4805808966002
 11
200.9568614881596
 21
190.4957767988659
 72
     1
 10
200.9568614881596
 20
190.495776798866
 11
200.9181313494895
 21
190.5126450793871
 72
     1
 10
200.9181313494895
 20
190.512645079387
 11
200.8801201990005
 21
190.5311484905882
 72
     1
 10
200.8801201990006
 20
190.5311484905883
 11
200.8429838207065
 21
190.5512086889845
 72
     1
 10
200.8429838207064
 20
190.5512086889846
 11
200.8067719136823
 21
190.5727901524141
 72
     1
 10
200.8067719136823
 20
190.5727901524141
 11
200.77152982285
 21
190.5958593665255
 72
     1
 10
200.77152982285
 20
190.5958593665254
 11
200.7373028931312
 21
190.6203828169669
 72
     1
 10
200.7373028931312
 20
190.6203828169669
 11
200.7041364694479
 21
190.6463269893866
 72
     1
 10
200.7041364694479
 20
190.6463269893868
 11
200.6720758967218
 21
190.6736583694336
 72
     1
 10
200.6720758967218
 20
190.6736583694335
 11
200.6411665198747
 21
190.7023434427555
 72
     1
 10
200.6411665198747
 20
190.7023434427556
 11
200.6114536838283
 21
190.7323486950014
 72
     1
 10
200.6114536838282
 20
190.7323486950015
 11
200.5829986333814
 21
190.7636223916151
 72
     1
 10
200.5829986333814
 20
190.7636223916151
 11
200.5559247173451
 21
190.7960289719758
 72
     1
 10
200.5559247173451
 20
190.7960289719758
 11
200.5302745179081
 21
190.8295069110738
 72
     1
 10
200.5302745179081
 20
190.8295069110738
 11
200.506077753443
 21
190.8640082443645
 72
     1
 10
200.506077753443
 20
190.8640082443644
 11
200.4833641423226
 21
190.899485007303
 72
     1
 10
200.4833641423226
 20
190.8994850073031
 11
200.4621634029195
 21
190.9358892353449
 72
     1
 10
200.4621634029196
 20
190.9358892353448
 11
200.4425052536066
 21
190.973172963945
 72
     1
 10
200.4425052536066
 20
190.9731729639451
 11
200.4244194127562
 21
191.0112882285592
 72
     1
 10
200.4244194127561
 20
191.0112882285591
 11
200.4079355987412
 21
191.0501870646421
 72
     1
 10
200.4079355987412
 20
191.0501870646421
 11
200.3930997155449
 21
191.0897754516927
 72
     1
 10
200.393099715545
 20
191.0897754516927
 11
200.3799688924795
 21
191.1298949158088
 72
     1
 10
200.3799688924795
 20
191.1298949158086
 11
200.3685551891522
 21
191.1704857668711
 72
     1
 10
200.3685551891521
 20
191.170485766871
 11
200.3588689791942
 21
191.2114925416756
 72
     1
 10
200.3588689791942
 20
191.2114925416758
 11
200.3509206362372
 21
191.2528597770187
 72
     1
 10
200.3509206362372
 20
191.2528597770185
 11
200.3447205339124
 21
191.2945320096957
 72
     1
 10
200.3447205339124
 20
191.2945320096958
 11
200.3402790458511
 21
191.3364537765031
 72
     1
 10
200.3402790458511
 20
191.336453776503
 11
200.3376065456848
 21
191.3785696142366
 72
     1
 10
200.3376065456847
 20
191.3785696142367
 11
200.3367134070444
 21
191.4208240596926
 72
     1
 10
200.3367134070445
 20
191.4208240596926
 11
200.3367134070445
 21
192.3087114718519
 72
     1
 10
200.3367134070445
 20
192.3087114718519
 11
200.4252886482977
 21
192.3142670274074
 72
     1
 10
200.4252886482977
 20
192.3142670274073
 11
200.513863889551
 21
192.3198225829629
 72
     1
 10
200.513863889551
 20
192.319822582963
 11
200.6024391308042
 21
192.3253781385186
 72
     1
 10
200.6024391308042
 20
192.3253781385185
 11
200.6910143720574
 21
192.330933694074
 72
     1
 10
200.6910143720574
 20
192.330933694074
 11
200.7795896133106
 21
192.3364892496296
 72
     1
 10
200.7795896133106
 20
192.3364892496296
 11
200.8681648545638
 21
192.3420448051853
 72
     1
 10
200.8681648545638
 20
192.3420448051852
 11
200.956740095817
 21
192.3476003607407
 72
     1
 10
200.9567400958171
 20
192.3476003607406
 11
201.0453153370703
 21
192.3531559162962
 72
     1
 10
201.0453153370703
 20
192.3531559162963
 11
201.1338905783235
 21
192.3587114718519
 72
     1
 10
201.1338905783235
 20
192.3587114718518
 11
201.2224658195767
 21
192.3642670274074
 72
     1
 10
201.2224658195768
 20
192.3642670274073
 11
201.31104106083
 21
192.3698225829629
 72
     1
 10
201.31104106083
 20
192.369822582963
 11
201.3996163020832
 21
192.3753781385186
 72
     1
 10
201.3996163020832
 20
192.3753781385185
 11
201.4881915433364
 21
192.380933694074
 72
     1
 10
201.4881915433364
 20
192.380933694074
 11
201.5767667845896
 21
192.3864892496295
 72
     1
 10
201.5767667845896
 20
192.3864892496297
 11
201.6653420258428
 21
192.3920448051852
 72
     1
 10
201.6653420258428
 20
192.3920448051851
 11
201.753917267096
 21
192.3976003607407
 72
     1
 10
201.753917267096
 20
192.3976003607408
 11
201.8424925083492
 21
192.4031559162964
 72
     1
 10
201.8424925083492
 20
192.4031559162963
 11
201.9310677496024
 21
192.4087114718519
 72
     1
 10
201.9310677496024
 20
192.4087114718518
 11
202.0196429908556
 21
192.4142670274073
 72
     1
 10
202.0196429908557
 20
192.4142670274075
 11
202.1082182321089
 21
192.419822582963
 72
     1
 10
202.1082182321089
 20
192.419822582963
 11
202.1967934733622
 21
192.4253781385185
 72
     1
 10
202.1967934733622
 20
192.4253781385184
 11
202.2853687146153
 21
192.430933694074
 72
     1
 10
202.2853687146154
 20
192.4309336940741
 11
202.3739439558686
 21
192.4364892496296
 72
     1
 10
202.3739439558686
 20
192.4364892496296
 11
202.4625191971219
 21
192.4420448051852
 72
     1
 10
202.4625191971219
 20
192.4420448051851
 11
202.551094438375
 21
192.4476003607406
 72
     1
 10
202.551094438375
 20
192.4476003607408
 11
202.6396696796282
 21
192.4531559162963
 72
     1
 10
202.6396696796282
 20
192.4531559162963
 11
202.7282449208815
 21
192.4587114718518
 72
     1
 10
202.7282449208815
 20
192.4587114718517
 11
202.8168201621347
 21
192.4642670274073
 72
     1
 10
202.8168201621346
 20
192.4642670274074
 11
202.9053954033878
 21
192.469822582963
 72
     1
 10
202.9053954033878
 20
192.4698225829629
 11
202.9939706446411
 21
192.4753781385185
 72
     1
 10
202.9939706446411
 20
192.4753781385184
 11
203.0825458858943
 21
192.4809336940739
 72
     1
 10
203.0825458858943
 20
192.4809336940741
 11
203.1711211271475
 21
192.4864892496296
 72
     1
 10
203.1711211271475
 20
192.4864892496296
 11
203.2596963684008
 21
192.4920448051851
 72
     1
 10
203.2596963684008
 20
192.4920448051853
 11
203.348271609654
 21
192.4976003607408
 72
     1
 10
203.348271609654
 20
192.4976003607407
 11
203.4368468509072
 21
192.5031559162963
 72
     1
 10
203.4368468509073
 20
192.5031559162962
 11
203.5254220921605
 21
192.5087114718517
 72
     1
 10
203.5254220921605
 20
192.5087114718519
 11
203.5254220921605
 21
208.108711471852
 72
     1
 10
203.5254220921605
 20
208.1087114718518
 11
203.4368468509072
 21
208.1142670274074
 72
     1
 10
203.4368468509072
 20
208.1142670274073
 11
203.348271609654
 21
208.1198225829629
 72
     1
 10
203.348271609654
 20
208.119822582963
 11
203.2596963684007
 21
208.1253781385186
 72
     1
 10
203.2596963684007
 20
208.1253781385185
 11
203.1711211271475
 21
208.1309336940741
 72
     1
 10
203.1711211271475
 20
208.130933694074
 11
203.0825458858943
 21
208.1364892496295
 72
     1
 10
203.0825458858942
 20
208.1364892496297
 11
202.993970644641
 21
208.1420448051853
 72
     1
 10
202.993970644641
 20
208.1420448051852
 11
202.9053954033878
 21
208.1476003607407
 72
     1
 10
202.9053954033878
 20
208.1476003607408
 11
202.8168201621346
 21
208.1531559162964
 72
     1
 10
202.8168201621347
 20
208.1531559162963
 11
202.7282449208814
 21
208.1587114718519
 72
     1
 10
202.7282449208814
 20
208.1587114718518
 11
202.6396696796282
 21
208.1642670274074
 72
     1
 10
202.6396696796282
 20
208.1642670274075
 11
202.551094438375
 21
208.1698225829631
 72
     1
 10
202.551094438375
 20
208.169822582963
 11
202.4625191971218
 21
208.1753781385185
 72
     1
 10
202.4625191971218
 20
208.1753781385184
 11
202.3739439558686
 21
208.180933694074
 72
     1
 10
202.3739439558686
 20
208.1809336940742
 11
202.2853687146153
 21
208.1864892496297
 72
     1
 10
202.2853687146153
 20
208.1864892496296
 11
202.1967934733622
 21
208.1920448051852
 72
     1
 10
202.1967934733621
 20
208.1920448051851
 11
202.1082182321089
 21
208.1976003607407
 72
     1
 10
202.1082182321089
 20
208.1976003607408
 11
202.0196429908556
 21
208.2031559162964
 72
     1
 10
202.0196429908556
 20
208.2031559162963
 11
201.9310677496024
 21
208.2087114718518
 72
     1
 10
201.9310677496024
 20
208.2087114718518
 11
201.8424925083492
 21
208.2142670274073
 72
     1
 10
201.8424925083492
 20
208.2142670274075
 11
201.7539172670959
 21
208.219822582963
 72
     1
 10
201.7539172670959
 20
208.2198225829629
 11
201.6653420258427
 21
208.2253781385185
 72
     1
 10
201.6653420258428
 20
208.2253781385184
 11
201.5767667845895
 21
208.230933694074
 72
     1
 10
201.5767667845895
 20
208.2309336940741
 11
201.4881915433363
 21
208.2364892496296
 72
     1
 10
201.4881915433363
 20
208.2364892496296
 11
201.3996163020831
 21
208.2420448051852
 72
     1
 10
201.3996163020832
 20
208.2420448051853
 11
201.3110410608299
 21
208.2476003607408
 72
     1
 10
201.3110410608299
 20
208.2476003607407
 11
201.2224658195767
 21
208.2531559162963
 72
     1
 10
201.2224658195767
 20
208.2531559162962
 11
201.1338905783235
 21
208.2587114718517
 72
     1
 10
201.1338905783235
 20
208.2587114718519
 11
201.0453153370702
 21
208.2642670274075
 72
     1
 10
201.0453153370702
 20
208.2642670274074
 11
200.956740095817
 21
208.269822582963
 72
     1
 10
200.956740095817
 20
208.2698225829629
 11
200.8681648545638
 21
208.2753781385184
 72
     1
 10
200.8681648545638
 20
208.2753781385186
 11
200.7795896133105
 21
208.2809336940742
 72
     1
 10
200.7795896133105
 20
208.2809336940741
 11
200.6910143720573
 21
208.2864892496296
 72
     1
 10
200.6910143720573
 20
208.2864892496295
 11
200.6024391308041
 21
208.2920448051851
 72
     1
 10
200.6024391308041
 20
208.2920448051853
 11
200.5138638895509
 21
208.2976003607408
 72
     1
 10
200.5138638895509
 20
208.2976003607407
 11
200.4252886482977
 21
208.3031559162963
 72
     1
 10
200.4252886482977
 20
208.3031559162962
 11
200.3367134070445
 21
208.3087114718518
 72
     1
 10
200.3367134070444
 20
208.3087114718519
 11
200.3367134070444
 21
209.1965988840112
 72
     1
 10
200.3367134070444
 20
209.1965988840111
 11
200.3376064563534
 21
209.2388511239398
 72
     1
 10
200.3376064563534
 20
209.2388511239398
 11
200.3402783312009
 21
209.2809604402511
 72
     1
 10
200.3402783312008
 20
209.280960440251
 11
200.344718121968
 21
209.322871512479
 72
     1
 10
200.3447181219681
 20
209.322871512479
 11
200.3509149190358
 21
209.3645290201583
 72
     1
 10
200.3509149190358
 20
209.3645290201584
 11
200.3588578127852
 21
209.4058776428235
 72
     1
 10
200.3588578127852
 20
209.4058776428235
 11
200.3685358935971
 21
209.4468620600088
 72
     1
 10
200.3685358935973
 20
209.4468620600087
 11
200.3799382518531
 21
209.4874269512486
 72
     1
 10
200.379938251853
 20
209.4874269512486
 11
200.3930539779336
 21
209.5275169960775
 72
     1
 10
200.3930539779335
 20
209.5275169960776
 11
200.4078721622198
 21
209.56707687403
 72
     1
 10
200.4078721622198
 20
209.56707687403
 11
200.4243608652302
 21
209.6060043252772
 72
     1
 10
200.4243608652303
 20
209.6060043252771
 11
200.4424500039525
 21
209.6441396791209
 72
     1
 10
200.4424500039525
 20
209.644139679121
 11
200.4621067059551
 21
209.6814314455108
 72
     1
 10
200.462106705955
 20
209.6814314455107
 11
200.4832998759864
 21
209.7178325876627
 72
     1
 10
200.4832998759864
 20
209.7178325876628
 11
200.5059984187953
 21
209.7532960687931
 72
     1
 10
200.5059984187952
 20
209.7532960687929
 11
200.5301712391298
 21
209.7877748521178
 72
     1
 10
200.5301712391299
 20
209.787774852118
 11
200.5557872417389
 21
209.8212219008537
 72
     1
 10
200.555787241739
 20
209.8212219008535
 11
200.5828153313709
 21
209.8535901782161
 72
     1
 10
200.5828153313708
 20
209.8535901782161
 11
200.611224412774
 21
209.8848326474219
 72
     1
 10
200.611224412774
 20
209.8848326474219
 11
200.6409660275983
 21
209.9148854400287
 72
     1
 10
200.6409660275984
 20
209.9148854400287
 11
200.6719112565819
 21
209.9436182815757
 72
     1
 10
200.6719112565818
 20
209.9436182815757
 11
200.7040008876125
 21
209.9709854282616
 72
     1
 10
200.7040008876125
 20
209.9709854282616
 11
200.7371885772187
 21
209.9969546921714
 72
     1
 10
200.7371885772187
 20
209.9969546921713
 11
200.7714279819289
 21
210.0214938853899
 72
     1
 10
200.7714279819289
 20
210.0214938853899
 11
200.8066727582717
 21
210.0445708200023
 72
     1
 10
200.8066727582717
 20
210.0445708200023
 11
200.8428765627753
 21
210.0661533080935
 72
     1
 10
200.8428765627754
 20
210.0661533080936
 11
200.8799930519686
 21
210.0862091617486
 72
     1
 10
200.8799930519686
 20
210.0862091617487
 11
200.9179758823797
 21
210.1047061930525
 72
     1
 10
200.9179758823797
 20
210.1047061930524
 11
200.9567335647879
 21
210.1215936402788
 72
     1
 10
200.9567335647878
 20
210.1215936402789
 11
200.9961108323913
 21
210.1368061585262
 72
     1
 10
200.9961108323913
 20
210.1368061585263
 11
201.036048708025
 21
210.150328580775
 72
     1
 10
201.036048708025
 20
210.1503285807748
 11
201.0764923474094
 21
210.1621476448904
 72
     1
 10
201.0764923474094
 20
210.1621476448904
 11
201.1173869062647
 21
210.1722500887384
 72
     1
 10
201.1173869062648
 20
210.1722500887383
 11
201.1586775403114
 21
210.1806226501843
 72
     1
 10
201.1586775403114
 20
210.1806226501844
 11
201.2003094052695
 21
210.1872520670939
 72
     1
 10
201.2003094052695
 20
210.1872520670938
 11
201.2422276568594
 21
210.1921250773324
 72
     1
 10
201.2422276568594
 20
210.1921250773326
 11
201.2843774508015
 21
210.1952284187658
 72
     1
 10
201.2843774508015
 20
210.1952284187657
 11
202.9900745070597
 21
210.2846202136138
 72
     3
 10
202.5452188789946
 20
218.7729712590276
 11
6.010407640085616
 21
6.010407640085656
 40
0.9999999999999927
 50
227.9999999999998
 51
242.2032062192375
 73
     1
 72
     3
 10
208.0168067415015
 20
201.1006277171296
 11
-7.071067811865589
 21
7.071067811865535
 40
0.9999999999999987
 50
27.7967937807623
 51
41.99999999999993
 73
     0
 72
     1
 10
207.493447179072
 20
211.0869230646754
 11
210.7254220921604
 21
211.2563036925688
 72
     1
 10
210.7254220921604
 20
211.2563036925688
 11
210.7254220921604
 21
211.0611192511348
 72
     1
 10
210.7254220921604
 20
211.0611192511349
 11
210.7777580484033
 21
211.0583764398915
 97
        0
 75
     0
 76
     1
 52
360.0
 41
0.5
 77
     0
 78
     1
 53
225.0000000000002
 43
75.30216703692909
 44
36.4113249019938
 45
1.122532015133647
 46
-1.122532015133639
 79
     0
 98
        1
 10
534.0565526824791
 20
-33.66991176794426
1001
PHOENIX7010
1002
{
1070
    41
1040
1.0
1002
}
  0
LINE
  5
39F5
102
{ACAD_REACTORS
330
431E
102
}
330
1F
100
AcDbEntity
  8
0
100
AcDbLine
 10
151.853684258423
 20
137.7284800861267
 30
0.0
 11
151.8292850523689
 21
137.7284800861267
 31
0.0
1001
PHOENIX7010
1002
{
1070
    41
1040
1.0
1002
}
  0
LINE
  5
39F7
102
{ACAD_REACTORS
330
431E
102
}
330
1F
100
AcDbEntity
  8
0
100
AcDbLine
 10
101.3816928316519
 20
138.7284800861267
 30
0.0
 11
140.3816928316519
 21
138.7284800861267
 31
0.0
1001
PHOENIX7010
1002
{
1070
    41
1040
1.0
1002
}
  0
LINE
  5
39F8
102
{ACAD_REACTORS
330
431E
102
}
330
1F
100
AcDbEntity
  8
0
100
AcDbLine
 10
139.4564674496841
 20
146.4284800861267
 30
0.0
 11
139.4603045005764
 21
146.4284800861267
 31
0.0
1001
PHOENIX7010
1002
{
1070
    41
1040
1.0
1002
}
  0
LINE
  5
39F9
102
{ACAD_REACTORS
330
431E
102
}
330
1F
100
AcDbEntity
  8
0
100
AcDbLine
 10
102.3030811627272
 20
146.4284800861267
 30
0.0
 11
102.3069182136196
 21
146.4284800861267
 31
0.0
1001
PHOENIX7010
1002
{
1070
    41
1040
1.0
1002
}
  0
LINE
  5
39FA
102
{ACAD_REACTORS
330
431E
102
}
330
1F
100
AcDbEntity
  8
0
100
AcDbLine
 10
96.18169283165185
 20
143.2284800861267
 30
0.0
 11
96.26024062382885
 21
138.7284800861267
 31
0.0
1001
PHOENIX7010
1002
{
1070
    41
1040
1.0
1002
}
  0
LINE
  5
39FB
102
{ACAD_REACTORS
330
431E
102
}
330
1F
100
AcDbEntity
  8
0
100
AcDbLine
 10
96.26024062382885
 20
138.7284800861267
 30
0.0
 11
92.08650839021798
 21
138.7284800861267
 31
0.0
1001
PHOENIX7010
1002
{
1070
    41
1040
1.0
1002
}
  0
LINE
  5
39FC
102
{ACAD_REACTORS
330
431E
102
}
330
1F
100
AcDbEntity
  8
0
100
AcDbLine
 10
92.08650839021798
 20
138.7284800861267
 30
0.0
 11
91.9816928316519
 21
136.7284800861267
 31
0.0
1001
PHOENIX7010
1002
{
1070
    41
1040
1.0
1002
}
  0
LINE
  5
39FE
102
{ACAD_REACTORS
330
431E
102
}
330
1F
100
AcDbEntity
  8
0
100
AcDbLine
 10
90.13202786361215
 20
137.6761441298838
 30
0.0
 11
90.12928505236892
 21
137.7284800861267
 31
0.0
1001
PHOENIX7010
1002
{
1070
    41
1040
1.0
1002
}
  0
LINE
  5
39FF
102
{ACAD_REACTORS
330
431E
102
}
330
1F
100
AcDbEntity
  8
0
100
AcDbLine
 10
90.12928505236892
 20
137.7284800861267
 30
0.0
 11
89.9341006109349
 21
137.7284800861267
 31
0.0
1001
PHOENIX7010
1002
{
1070
    41
1040
1.0
1002
}
  0
LINE
  5
3A00
102
{ACAD_REACTORS
330
431E
102
}
330
1F
100
AcDbEntity
  8
0
100
AcDbLine
 10
89.9341006109349
 20
137.7284800861267
 30
0.0
 11
90.01367079740406
 21
139.2467696904117
 31
0.0
1001
PHOENIX7010
1002
{
1070
    41
1040
1.0
1002
}
  0
ARC
  5
3A01
102
{ACAD_REACTORS
330
431E
102
}
330
1F
100
AcDbEntity
  8
0
100
AcDbCircle
 10
95.00681847117695
 20
138.985089909197
 30
0.0
 40
5.000000000000143
100
AcDbArc
 50
149.1455607304391
 51
176.9999999999944
1001
PHOENIX7010
1002
{
1070
    41
1040
1.0
1002
}
  0
LINE
  5
3A02
102
{ACAD_REACTORS
330
431E
102
}
330
1F
100
AcDbEntity
  8
0
100
AcDbLine
 10
91.90578408988995
 20
145.4638276712274
 30
0.0
 11
91.95167129276041
 21
146.3394076614177
 31
0.0
1001
PHOENIX7010
1002
{
1070
    41
1040
1.0
1002
}
  0
ARC
  5
3A03
102
{ACAD_REACTORS
330
431E
102
}
330
1F
100
AcDbEntity
  8
0
100
AcDbCircle
 10
92.95030169139044
 20
146.2870709516282
 30
0.0
 40
1.000000902129345
100
AcDbArc
 50
100.8045722609544
 51
176.9999594746253
1001
PHOENIX7010
1002
{
1070
    41
1040
1.0
1002
}
  0
ARC
  5
3A04
102
{ACAD_REACTORS
330
431E
102
}
330
1F
100
AcDbEntity
  8
0
100
AcDbCircle
 10
93.381692667809
 20
146.8774506235198
 30
0.0
 40
0.5000001638429277
100
AcDbArc
 50
0.0000226145014188
 51
100.5996939587317
1001
PHOENIX7010
1002
{
1070
    41
1040
1.0
1002
}
  0
LINE
  5
3A05
102
{ACAD_REACTORS
330
431E
102
}
330
1F
100
AcDbEntity
  8
0
100
AcDbLine
 10
93.88169283165188
 20
146.8774508208686
 30
0.0
 11
93.88169283165188
 21
146.4284800861268
 31
0.0
1001
PHOENIX7010
1002
{
1070
    41
1040
1.0
1002
}
  0
LINE
  5
3A06
102
{ACAD_REACTORS
330
431E
102
}
330
1F
100
AcDbEntity
  8
0
100
AcDbLine
 10
93.88169283165188
 20
146.4284800861267
 30
0.0
 11
94.68169283165185
 21
146.4284800861267
 31
0.0
1001
PHOENIX7010
1002
{
1070
    41
1040
1.0
1002
}
  0
LINE
  5
3A07
102
{ACAD_REACTORS
330
431E
102
}
330
1F
100
AcDbEntity
  8
0
100
AcDbLine
 10
94.68169283165185
 20
146.4284800861267
 30
0.0
 11
94.709620935537
 21
144.8284800861268
 31
0.0
1001
PHOENIX7010
1002
{
1070
    41
1040
1.0
1002
}
  0
LINE
  5
3A08
102
{ACAD_REACTORS
330
431E
102
}
330
1F
100
AcDbEntity
  8
0
100
AcDbLine
 10
94.709620935537
 20
144.8284800861268
 30
0.0
 11
95.05376472776672
 21
144.8284800861268
 31
0.0
1001
PHOENIX7010
1002
{
1070
    41
1040
1.0
1002
}
  0
LINE
  5
3A09
102
{ACAD_REACTORS
330
431E
102
}
330
1F
100
AcDbEntity
  8
0
100
AcDbLine
 10
95.05376472776672
 20
144.8284800861268
 30
0.0
 11
95.08169283165193
 21
143.2284800861267
 31
0.0
1001
PHOENIX7010
1002
{
1070
    41
1040
1.0
1002
}
  0
LINE
  5
3A0A
102
{ACAD_REACTORS
330
431E
102
}
330
1F
100
AcDbEntity
  8
0
100
AcDbLine
 10
95.08169283165193
 20
143.2284800861267
 30
0.0
 11
96.18169283165185
 21
143.2284800861267
 31
0.0
1001
PHOENIX7010
1002
{
1070
    41
1040
1.0
1002
}
  0
LINE
  5
3A0B
102
{ACAD_REACTORS
330
431E
102
}
330
1F
100
AcDbEntity
  8
0
100
AcDbLine
 10
141.0537647277667
 20
144.8284800861268
 30
0.0
 11
141.0816928316519
 21
143.2284800861267
 31
0.0
1001
PHOENIX7010
1002
{
1070
    41
1040
1.0
1002
}
  0
LINE
  5
3A0C
102
{ACAD_REACTORS
330
431E
102
}
330
1F
100
AcDbEntity
  8
0
100
AcDbLine
 10
141.0816928316519
 20
143.2284800861267
 30
0.0
 11
142.1816928316518
 21
143.2284800861267
 31
0.0
1001
PHOENIX7010
1002
{
1070
    41
1040
1.0
1002
}
  0
LINE
  5
3A0D
102
{ACAD_REACTORS
330
431E
102
}
330
1F
100
AcDbEntity
  8
0
100
AcDbLine
 10
142.1816928316518
 20
143.2284800861267
 30
0.0
 11
142.2602406238288
 21
138.7284800861267
 31
0.0
1001
PHOENIX7010
1002
{
1070
    41
1040
1.0
1002
}
  0
LINE
  5
3A0E
102
{ACAD_REACTORS
330
431E
102
}
330
1F
100
AcDbEntity
  8
0
100
AcDbLine
 10
142.2602406238288
 20
138.7284800861267
 30
0.0
 11
140.3816928316519
 21
138.7284800861267
 31
0.0
1001
PHOENIX7010
1002
{
1070
    41
1040
1.0
1002
}
  0
LINE
  5
3A0F
102
{ACAD_REACTORS
330
431E
102
}
330
1F
100
AcDbEntity
  8
0
100
AcDbLine
 10
140.3816928316519
 20
138.7284800861267
 30
0.0
 11
140.2768772730858
 21
140.7284800861267
 31
0.0
1001
PHOENIX7010
1002
{
1070
    41
1040
1.0
1002
}
  0
LINE
  5
3A10
102
{ACAD_REACTORS
330
431E
102
}
330
1F
100
AcDbEntity
  8
0
100
AcDbLine
 10
140.2768772730858
 20
140.7284800861267
 30
0.0
 11
139.9983622920724
 21
140.7284800861267
 31
0.0
1001
PHOENIX7010
1002
{
1070
    41
1040
1.0
1002
}
  0
LINE
  5
3A11
102
{ACAD_REACTORS
330
431E
102
}
330
1F
100
AcDbEntity
  8
0
100
AcDbLine
 10
138.9997327573179
 20
141.6761441298838
 30
0.0
 11
138.9603045005765
 21
142.4284800861268
 31
0.0
1001
PHOENIX7010
1002
{
1070
    41
1040
1.0
1002
}
  0
LINE
  5
3A12
102
{ACAD_REACTORS
330
431E
102
}
330
1F
100
AcDbEntity
  8
0
100
AcDbLine
 10
138.9603045005765
 20
142.4284800861268
 30
0.0
 11
102.8030811627272
 21
142.4284800861268
 31
0.0
1001
PHOENIX7010
1002
{
1070
    41
1040
1.0
1002
}
  0
LINE
  5
3A13
102
{ACAD_REACTORS
330
431E
102
}
330
1F
100
AcDbEntity
  8
0
100
AcDbLine
 10
102.8030811627272
 20
142.4284800861268
 30
0.0
 11
102.7636529059858
 21
141.6761441298838
 31
0.0
1001
PHOENIX7010
1002
{
1070
    41
1040
1.0
1002
}
  0
LINE
  5
3A14
102
{ACAD_REACTORS
330
431E
102
}
330
1F
100
AcDbEntity
  8
0
100
AcDbLine
 10
101.7650233712313
 20
140.7284800861267
 30
0.0
 11
101.4865083902179
 21
140.7284800861267
 31
0.0
1001
PHOENIX7010
1002
{
1070
    41
1040
1.0
1002
}
  0
LINE
  5
3A15
102
{ACAD_REACTORS
330
431E
102
}
330
1F
100
AcDbEntity
  8
0
100
AcDbLine
 10
101.4865083902179
 20
140.7284800861267
 30
0.0
 11
101.3816928316519
 21
138.7284800861267
 31
0.0
1001
PHOENIX7010
1002
{
1070
    41
1040
1.0
1002
}
  0
LINE
  5
3A16
102
{ACAD_REACTORS
330
431E
102
}
330
1F
100
AcDbEntity
  8
0
100
AcDbLine
 10
101.3816928316519
 20
138.7284800861267
 30
0.0
 11
99.50314503947494
 21
138.7284800861267
 31
0.0
1001
PHOENIX7010
1002
{
1070
    41
1040
1.0
1002
}
  0
LINE
  5
3A17
102
{ACAD_REACTORS
330
431E
102
}
330
1F
100
AcDbEntity
  8
0
100
AcDbLine
 10
99.50314503947494
 20
138.7284800861267
 30
0.0
 11
99.58169283165192
 21
143.2284800861267
 31
0.0
1001
PHOENIX7010
1002
{
1070
    41
1040
1.0
1002
}
  0
LINE
  5
3A18
102
{ACAD_REACTORS
330
431E
102
}
330
1F
100
AcDbEntity
  8
0
100
AcDbLine
 10
99.58169283165192
 20
143.2284800861267
 30
0.0
 11
100.6816928316518
 21
143.2284800861267
 31
0.0
1001
PHOENIX7010
1002
{
1070
    41
1040
1.0
1002
}
  0
LINE
  5
3A19
102
{ACAD_REACTORS
330
431E
102
}
330
1F
100
AcDbEntity
  8
0
100
AcDbLine
 10
100.6816928316518
 20
143.2284800861267
 30
0.0
 11
100.709620935537
 21
144.8284800861268
 31
0.0
1001
PHOENIX7010
1002
{
1070
    41
1040
1.0
1002
}
  0
LINE
  5
3A1A
102
{ACAD_REACTORS
330
431E
102
}
330
1F
100
AcDbEntity
  8
0
100
AcDbLine
 10
100.709620935537
 20
144.8284800861268
 30
0.0
 11
101.0537647277667
 21
144.8284800861268
 31
0.0
1001
PHOENIX7010
1002
{
1070
    41
1040
1.0
1002
}
  0
LINE
  5
3A1B
102
{ACAD_REACTORS
330
431E
102
}
330
1F
100
AcDbEntity
  8
0
100
AcDbLine
 10
101.0537647277667
 20
144.8284800861268
 30
0.0
 11
101.0816928316519
 21
146.4284800861267
 31
0.0
1001
PHOENIX7010
1002
{
1070
    41
1040
1.0
1002
}
  0
LINE
  5
3A1C
102
{ACAD_REACTORS
330
431E
102
}
330
1F
100
AcDbEntity
  8
0
100
AcDbLine
 10
101.0816928316519
 20
146.4284800861267
 30
0.0
 11
102.3030811627272
 21
146.4284800861267
 31
0.0
1001
PHOENIX7010
1002
{
1070
    41
1040
1.0
1002
}
  0
LINE
  5
3A1D
102
{ACAD_REACTORS
330
431E
102
}
330
1F
100
AcDbEntity
  8
0
100
AcDbLine
 10
102.3030811627272
 20
146.4284800861267
 30
0.0
 11
102.3816928316519
 21
144.9284800861267
 31
0.0
1001
PHOENIX7010
1002
{
1070
    41
1040
1.0
1002
}
  0
LINE
  5
3A1E
102
{ACAD_REACTORS
330
431E
102
}
330
1F
100
AcDbEntity
  8
0
100
AcDbLine
 10
102.3816928316519
 20
144.9284800861267
 30
0.0
 11
139.3816928316519
 21
144.9284800861267
 31
0.0
1001
PHOENIX7010
1002
{
1070
    41
1040
1.0
1002
}
  0
LINE
  5
3A1F
102
{ACAD_REACTORS
330
431E
102
}
330
1F
100
AcDbEntity
  8
0
100
AcDbLine
 10
139.3816928316519
 20
144.9284800861268
 30
0.0
 11
139.4603045005765
 21
146.4284800861268
 31
0.0
1001
PHOENIX7010
1002
{
1070
    41
1040
1.0
1002
}
  0
LINE
  5
3A20
102
{ACAD_REACTORS
330
431E
102
}
330
1F
100
AcDbEntity
  8
0
100
AcDbLine
 10
139.4603045005764
 20
146.4284800861267
 30
0.0
 11
140.6816928316518
 21
146.4284800861267
 31
0.0
1001
PHOENIX7010
1002
{
1070
    41
1040
1.0
1002
}
  0
LINE
  5
3A21
102
{ACAD_REACTORS
330
431E
102
}
330
1F
100
AcDbEntity
  8
0
100
AcDbLine
 10
140.6816928316518
 20
146.4284800861267
 30
0.0
 11
140.709620935537
 21
144.8284800861268
 31
0.0
1001
PHOENIX7010
1002
{
1070
    41
1040
1.0
1002
}
  0
LINE
  5
3A22
102
{ACAD_REACTORS
330
431E
102
}
330
1F
100
AcDbEntity
  8
0
100
AcDbLine
 10
140.709620935537
 20
144.8284800861268
 30
0.0
 11
141.0537647277667
 21
144.8284800861268
 31
0.0
1001
PHOENIX7010
1002
{
1070
    41
1040
1.0
1002
}
  0
LINE
  5
3A23
102
{ACAD_REACTORS
330
431E
102
}
330
1F
100
AcDbEntity
  8
0
100
AcDbLine
 10
149.8117143705433
 20
146.3394076614177
 30
0.0
 11
149.8576015734138
 21
145.4638276712274
 31
0.0
1001
PHOENIX7010
1002
{
1070
    41
1040
1.0
1002
}
  0
ARC
  5
3A24
102
{ACAD_REACTORS
330
431E
102
}
330
1F
100
AcDbEntity
  8
0
100
AcDbCircle
 10
146.756567192127
 20
138.9850899091971
 30
0.0
 40
4.999999999999957
100
AcDbArc
 50
3.000000000005599
 51
30.85443926956084
1001
PHOENIX7010
1002
{
1070
    41
1040
1.0
1002
}
  0
LINE
  5
3A25
102
{ACAD_REACTORS
330
431E
102
}
330
1F
100
AcDbEntity
  8
0
100
AcDbLine
 10
151.8292850523689
 20
137.7284800861267
 30
0.0
 11
151.6341006109349
 21
137.7284800861267
 31
0.0
1001
PHOENIX7010
1002
{
1070
    41
1040
1.0
1002
}
  0
LINE
  5
3A26
102
{ACAD_REACTORS
330
431E
102
}
330
1F
100
AcDbEntity
  8
0
100
AcDbLine
 10
151.6341006109349
 20
137.7284800861267
 30
0.0
 11
151.6313577996916
 21
137.6761441298838
 31
0.0
1001
PHOENIX7010
1002
{
1070
    41
1040
1.0
1002
}
  0
LINE
  5
3A27
102
{ACAD_REACTORS
330
431E
102
}
330
1F
100
AcDbEntity
  8
0
100
AcDbLine
 10
150.632728264937
 20
136.7284800861267
 30
0.0
 11
149.781692831652
 21
136.7284800861267
 31
0.0
1001
PHOENIX7010
1002
{
1070
    41
1040
1.0
1002
}
  0
LINE
  5
3A28
102
{ACAD_REACTORS
330
431E
102
}
330
1F
100
AcDbEntity
  8
0
100
AcDbLine
 10
149.781692831652
 20
136.7284800861267
 30
0.0
 11
149.6768772730856
 21
138.7284800861267
 31
0.0
1001
PHOENIX7010
1002
{
1070
    41
1040
1.0
1002
}
  0
LINE
  5
3A29
102
{ACAD_REACTORS
330
431E
330
C56D
102
}
330
1F
100
AcDbEntity
  8
0
100
AcDbLine
 10
149.6768772730856
 20
138.7284800861267
 30
0.0
 11
145.5031450394749
 21
138.7284800861267
 31
0.0
1001
PHOENIX7010
1002
{
1070
    41
1040
1.0
1002
}
  0
LINE
  5
3A2A
102
{ACAD_REACTORS
330
431E
102
}
330
1F
100
AcDbEntity
  8
0
100
AcDbLine
 10
145.5031450394749
 20
138.7284800861267
 30
0.0
 11
145.5816928316519
 21
143.2284800861267
 31
0.0
1001
PHOENIX7010
1002
{
1070
    41
1040
1.0
1002
}
  0
LINE
  5
3A2B
102
{ACAD_REACTORS
330
431E
102
}
330
1F
100
AcDbEntity
  8
0
100
AcDbLine
 10
145.5816928316519
 20
143.2284800861267
 30
0.0
 11
146.6816928316518
 21
143.2284800861267
 31
0.0
1001
PHOENIX7010
1002
{
1070
    41
1040
1.0
1002
}
  0
LINE
  5
3A2C
102
{ACAD_REACTORS
330
431E
102
}
330
1F
100
AcDbEntity
  8
0
100
AcDbLine
 10
146.6816928316518
 20
143.2284800861267
 30
0.0
 11
146.709620935537
 21
144.8284800861268
 31
0.0
1001
PHOENIX7010
1002
{
1070
    41
1040
1.0
1002
}
  0
LINE
  5
3A2D
102
{ACAD_REACTORS
330
431E
102
}
330
1F
100
AcDbEntity
  8
0
100
AcDbLine
 10
146.709620935537
 20
144.8284800861268
 30
0.0
 11
147.0537647277667
 21
144.8284800861268
 31
0.0
1001
PHOENIX7010
1002
{
1070
    41
1040
1.0
1002
}
  0
LINE
  5
3A2E
102
{ACAD_REACTORS
330
431E
102
}
330
1F
100
AcDbEntity
  8
0
100
AcDbLine
 10
147.0537647277667
 20
144.8284800861268
 30
0.0
 11
147.0816928316519
 21
146.4284800861267
 31
0.0
1001
PHOENIX7010
1002
{
1070
    41
1040
1.0
1002
}
  0
LINE
  5
3A2F
102
{ACAD_REACTORS
330
431E
102
}
330
1F
100
AcDbEntity
  8
0
100
AcDbLine
 10
147.0816928316519
 20
146.4284800861267
 30
0.0
 11
147.8816928316519
 21
146.4284800861267
 31
0.0
1001
PHOENIX7010
1002
{
1070
    41
1040
1.0
1002
}
  0
LINE
  5
3A30
102
{ACAD_REACTORS
330
431E
102
}
330
1F
100
AcDbEntity
  8
0
100
AcDbLine
 10
147.8816928316519
 20
146.4284800861268
 30
0.0
 11
147.8816928316519
 21
146.8774508208686
 31
0.0
1001
PHOENIX7010
1002
{
1070
    41
1040
1.0
1002
}
  0
ARC
  5
3A31
102
{ACAD_REACTORS
330
431E
102
}
330
1F
100
AcDbEntity
  8
0
100
AcDbCircle
 10
148.3816929954946
 20
146.8774506235198
 30
0.0
 40
0.5000001638429229
100
AcDbArc
 50
79.40030603477367
 51
179.9999773790108
1001
PHOENIX7010
1002
{
1070
    41
1040
1.0
1002
}
  0
ARC
  5
3A32
102
{ACAD_REACTORS
330
431E
102
}
330
1F
100
AcDbEntity
  8
0
100
AcDbCircle
 10
148.8130839719133
 20
146.2870709516282
 30
0.0
 40
1.000000902129382
100
AcDbArc
 50
3.000040525374618
 51
79.19542773904558
1001
PHOENIX7010
1002
{
1070
    41
1040
1.0
1002
}
  0
LINE
  5
3A33
102
{ACAD_REACTORS
330
431E
102
}
330
1F
100
AcDbEntity
  8
0
100
AcDbLine
 10
144.1484015724143
 20
148.0445782179019
 30
0.0
 11
143.9904274502659
 21
148.0568193262057
 31
0.0
1001
PHOENIX7010
1002
{
1070
    41
1040
1.0
1002
}
  0
LINE
  5
3A34
102
{ACAD_REACTORS
330
431E
102
}
330
1F
100
AcDbEntity
  8
0
100
AcDbLine
 10
97.77295821303802
 20
148.0568193262057
 30
0.0
 11
97.61498409102673
 21
148.0445782179234
 31
0.0
1001
PHOENIX7010
1002
{
1070
    41
1040
1.0
1002
}
  0
LINE
  5
3A35
102
{ACAD_REACTORS
330
431E
102
}
330
1F
100
AcDbEntity
  8
0
100
AcDbLine
 10
101.2722138539075
 20
146.4284800861268
 30
0.0
 11
99.75480726445118
 21
147.7971708450604
 31
0.0
1001
PHOENIX7010
1002
{
1070
    41
1040
1.0
1002
}
  0
LINE
  5
3A36
102
{ACAD_REACTORS
330
431E
102
}
330
1F
100
AcDbEntity
  8
0
100
AcDbLine
 10
142.0085783988526
 20
147.7971708450603
 30
0.0
 11
140.4911718093963
 21
146.4284800861267
 31
0.0
1001
PHOENIX7010
1002
{
1070
    41
1040
1.0
1002
}
  0
ARC
  5
3A37
102
{ACAD_REACTORS
330
431E
102
}
330
1F
100
AcDbEntity
  8
0
100
AcDbCircle
 10
146.7565671921268
 20
138.9850899091971
 30
0.0
 40
5.000000000000009
100
AcDbArc
 50
3.000000000005599
 51
30.85443926956084
1001
PHOENIX7010
1002
{
1070
    41
1040
1.0
1002
}
  0
ARC
  5
3A38
102
{ACAD_REACTORS
330
431E
102
}
330
1F
100
AcDbEntity
  8
0
100
AcDbCircle
 10
95.00681847117686
 20
138.9850899091971
 30
0.0
 40
4.99999999999996
100
AcDbArc
 50
149.1455607304391
 51
176.9999999999944
1001
PHOENIX7010
1002
{
1070
    41
1040
1.0
1002
}
  0
LINE
  5
3A39
102
{ACAD_REACTORS
330
431E
102
}
330
1F
100
AcDbEntity
  8
0
100
AcDbLine
 10
151.853684258423
 20
137.7284800861267
 30
0.0
 11
151.8160697548019
 21
138.332423245843
 31
0.0
1001
PHOENIX7010
1002
{
1070
    41
1040
1.0
1002
}
  0
LINE
  5
3A3A
102
{ACAD_REACTORS
330
431E
102
}
330
1F
100
AcDbEntity
  8
0
100
AcDbLine
 10
151.8160697548019
 20
138.332423245843
 30
0.0
 11
151.7777930903617
 21
138.7110052515025
 31
0.0
1001
PHOENIX7010
1002
{
1070
    41
1040
1.0
1002
}
  0
LINE
  5
3A3D
102
{ACAD_REACTORS
330
431E
102
}
330
1F
100
AcDbEntity
  8
0
100
AcDbLine
 10
150.4453279685831
 20
136.7284800861267
 30
0.0
 11
150.4410242859676
 21
136.7284800861267
 31
0.0
1001
PHOENIX7010
1002
{
1070
    41
1040
1.0
1002
}
  0
LINE
  5
3A3E
102
{ACAD_REACTORS
330
431E
102
}
330
1F
100
AcDbEntity
  8
0
100
AcDbLine
 10
148.4590344058465
 20
147.3715931399201
 30
0.0
 11
144.1484147308278
 21
148.044662489924
 31
0.0
1001
PHOENIX7010
1002
{
1070
    41
1040
1.0
1002
}
  0
LINE
  5
3A3F
102
{ACAD_REACTORS
330
431E
102
}
330
1F
100
AcDbEntity
  8
0
100
AcDbLine
 10
97.61497102072382
 20
148.0446619228896
 30
0.0
 11
93.30435418897534
 21
147.3715743614278
 31
0.0
1001
PHOENIX7010
1002
{
1070
    41
1040
1.0
1002
}
  0
LINE
  5
3A40
102
{ACAD_REACTORS
330
431E
102
}
330
1F
100
AcDbEntity
  8
0
100
AcDbLine
 10
141.0537647277667
 20
144.8284800861268
 30
0.0
 11
146.709620935537
 21
144.8284800861268
 31
0.0
1001
PHOENIX7010
1002
{
1070
    41
1040
1.0
1002
}
  0
LINE
  5
3A41
102
{ACAD_REACTORS
330
431E
102
}
330
1F
100
AcDbEntity
  8
0
100
AcDbLine
 10
145.5816928316519
 20
143.2284800861267
 30
0.0
 11
142.1816928316518
 21
143.2284800861267
 31
0.0
1001
PHOENIX7010
1002
{
1070
    41
1040
1.0
1002
}
  0
LINE
  5
3A42
102
{ACAD_REACTORS
330
431E
102
}
330
1F
100
AcDbEntity
  8
0
100
AcDbLine
 10
99.58169283165192
 20
143.2284800861267
 30
0.0
 11
96.18169283165185
 21
143.2284800861267
 31
0.0
1001
PHOENIX7010
1002
{
1070
    41
1040
1.0
1002
}
  0
LINE
  5
3A43
102
{ACAD_REACTORS
330
431E
102
}
330
1F
100
AcDbEntity
  8
0
100
AcDbLine
 10
149.781692831652
 20
136.7284800861267
 30
0.0
 11
91.13065739836676
 21
136.7284800861267
 31
0.0
1001
PHOENIX7010
1002
{
1070
    41
1040
1.0
1002
}
  0
ARC
  5
3A44
102
{ACAD_REACTORS
330
431E
102
}
330
1F
100
AcDbEntity
  8
0
100
AcDbCircle
 10
139.4564674496841
 20
149.4284800861267
 30
0.0
 40
2.999999999999998
100
AcDbArc
 50
259.6105743095962
 51
270.0
1001
PHOENIX7010
1002
{
1070
    41
1040
1.0
1002
}
  0
ARC
  5
3A45
102
{ACAD_REACTORS
330
431E
102
}
330
1F
100
AcDbEntity
  8
0
100
AcDbCircle
 10
120.8816928316519
 20
48.11718877124281
 30
0.0
 40
100.0
100
AcDbArc
 50
79.61057430959616
 51
100.3894256904038
1001
PHOENIX7010
1002
{
1070
    41
1040
1.0
1002
}
  0
ARC
  5
3A46
102
{ACAD_REACTORS
330
431E
102
}
330
1F
100
AcDbEntity
  8
0
100
AcDbCircle
 10
102.3069182136196
 20
149.4284800861267
 30
0.0
 40
2.999999999999998
100
AcDbArc
 50
270.0
 51
280.3894256904038
1001
PHOENIX7010
1002
{
1070
    41
1040
1.0
1002
}
  0
LINE
  5
3A47
102
{ACAD_REACTORS
330
431E
102
}
330
1F
100
AcDbEntity
  8
0
100
AcDbLine
 10
96.26024062382885
 20
138.7284800861267
 30
0.0
 11
99.50314503947494
 21
138.7284800861267
 31
0.0
1001
PHOENIX7010
1002
{
1070
    41
1040
1.0
1002
}
  0
LINE
  5
3A48
102
{ACAD_REACTORS
330
431E
102
}
330
1F
100
AcDbEntity
  8
0
100
AcDbLine
 10
142.2602406238288
 20
138.7284800861267
 30
0.0
 11
145.5031450394749
 21
138.7284800861267
 31
0.0
1001
PHOENIX7010
1002
{
1070
    41
1040
1.0
1002
}
  0
LINE
  5
3A49
102
{ACAD_REACTORS
330
431E
102
}
330
1F
100
AcDbEntity
  8
0
100
AcDbLine
 10
140.6816928316518
 20
146.4284800861267
 30
0.0
 11
147.0816928316519
 21
146.4284800861267
 31
0.0
1001
PHOENIX7010
1002
{
1070
    41
1040
1.0
1002
}
  0
LINE
  5
3A4A
102
{ACAD_REACTORS
330
431E
102
}
330
1F
100
AcDbEntity
  8
0
100
AcDbLine
 10
94.68169283165185
 20
146.4284800861267
 30
0.0
 11
101.0816928316519
 21
146.4284800861267
 31
0.0
1001
PHOENIX7010
1002
{
1070
    41
1040
1.0
1002
}
  0
LINE
  5
3A4B
102
{ACAD_REACTORS
330
431E
102
}
330
1F
100
AcDbEntity
  8
0
100
AcDbLine
 10
95.05376472776672
 20
144.8284800861268
 30
0.0
 11
100.709620935537
 21
144.8284800861268
 31
0.0
1001
PHOENIX7010
1002
{
1070
    41
1040
1.0
1002
}
  0
ARC
  5
3A4C
102
{ACAD_REACTORS
330
431E
102
}
330
1F
100
AcDbEntity
  8
0
100
AcDbCircle
 10
91.13065739836676
 20
137.7284800861267
 30
0.0
 40
0.9999999999999998
100
AcDbArc
 50
183.0000000000056
 51
270.0
1001
PHOENIX7010
1002
{
1070
    41
1040
1.0
1002
}
  0
ARC
  5
3A4D
102
{ACAD_REACTORS
330
431E
102
}
330
1F
100
AcDbEntity
  8
0
100
AcDbCircle
 10
83.41743304447605
 20
145.9086832992925
 30
0.0
 40
8.500000000000001
100
AcDbArc
 50
329.1455607304392
 51
356.9999999999944
1001
PHOENIX7010
1002
{
1070
    41
1040
1.0
1002
}
  0
ARC
  5
3A4E
102
{ACAD_REACTORS
330
431E
102
}
330
1F
100
AcDbEntity
  8
0
100
AcDbCircle
 10
120.8816928316519
 20
-0.0715199138733453
 30
0.0
 40
150.0
100
AcDbArc
 50
100.5997165732177
 51
100.8045317355726
1001
PHOENIX7010
1002
{
1070
    41
1040
1.0
1002
}
  0
ARC
  5
3A4F
102
{ACAD_REACTORS
330
431E
102
}
330
1F
100
AcDbEntity
  8
0
100
AcDbCircle
 10
139.9983622920724
 20
141.7284800861267
 30
0.0
 40
0.9999999999999998
100
AcDbArc
 50
183.0000000000056
 51
270.0
1001
PHOENIX7010
1002
{
1070
    41
1040
1.0
1002
}
  0
ARC
  5
3A50
102
{ACAD_REACTORS
330
431E
102
}
330
1F
100
AcDbEntity
  8
0
100
AcDbCircle
 10
101.7650233712313
 20
141.7284800861267
 30
0.0
 40
0.9999999999999998
100
AcDbArc
 50
270.0
 51
356.9999999999944
1001
PHOENIX7010
1002
{
1070
    41
1040
1.0
1002
}
  0
ARC
  5
3A51
102
{ACAD_REACTORS
330
431E
102
}
330
1F
100
AcDbEntity
  8
0
100
AcDbCircle
 10
158.3459526188276
 20
145.9086832992925
 30
0.0
 40
8.499999999999998
100
AcDbArc
 50
183.0000000000056
 51
210.8544392695608
1001
PHOENIX7010
1002
{
1070
    41
1040
1.0
1002
}
  0
ARC
  5
3A52
102
{ACAD_REACTORS
330
431E
102
}
330
1F
100
AcDbEntity
  8
0
100
AcDbCircle
 10
150.632728264937
 20
137.7284800861267
 30
0.0
 40
0.9999999999999998
100
AcDbArc
 50
270.0
 51
356.9999999999944
1001
PHOENIX7010
1002
{
1070
    41
1040
1.0
1002
}
  0
ARC
  5
3A53
102
{ACAD_REACTORS
330
431E
102
}
330
1F
100
AcDbEntity
  8
0
100
AcDbCircle
 10
120.8816928316519
 20
-0.0715199138733453
 30
0.0
 40
150.0
100
AcDbArc
 50
79.19546826442743
 51
79.40028342678224
1001
PHOENIX7010
1002
{
1070
    41
1040
1.0
1002
}
  0
LINE
  5
3A54
102
{ACAD_REACTORS
330
431E
102
}
330
1F
100
AcDbEntity
  8
0
100
AcDbLine
 10
99.08258733873523
 20
148.0568193262057
 30
0.0
 11
97.77295821303788
 21
148.0568193262057
 31
0.0
1001
PHOENIX7010
1002
{
1070
    41
1040
1.0
1002
}
  0
ARC
  5
3A55
102
{ACAD_REACTORS
330
431E
102
}
330
1F
100
AcDbEntity
  8
0
100
AcDbCircle
 10
99.08258733873523
 20
147.0568193262057
 30
0.0
 40
0.9999999999999998
100
AcDbArc
 50
47.76136819542101
 51
90.00000000000005
1001
PHOENIX7010
1002
{
1070
    41
1040
1.0
1002
}
  0
LINE
  5
3A56
102
{ACAD_REACTORS
330
431E
102
}
330
1F
100
AcDbEntity
  8
0
100
AcDbLine
 10
143.9904274502659
 20
148.0568193262057
 30
0.0
 11
142.6807983245685
 21
148.0568193262057
 31
0.0
1001
PHOENIX7010
1002
{
1070
    41
1040
1.0
1002
}
  0
ARC
  5
3A57
102
{ACAD_REACTORS
330
431E
102
}
330
1F
100
AcDbEntity
  8
0
100
AcDbCircle
 10
142.6807983245685
 20
147.0568193262057
 30
0.0
 40
0.9999999999999998
100
AcDbArc
 50
90.00000000000005
 51
132.2386318045789
1001
PHOENIX7010
1002
{
1070
    41
1040
1.0
1002
}
  0
HATCH
  5
3A58
102
{ACAD_REACTORS
330
431E
102
}
330
1F
100
AcDbEntity
  8
0
 62
     1
100
AcDbHatch
 10
0.0
 20
0.0
 30
0.0
210
0.0
220
0.0
230
1.0
  2
ANSI31
 70
     0
 71
     0
 91
        1
 92
        0
 93
      125
 72
     1
 10
149.8117143705433
 20
146.3394076614177
 11
149.809094739521
 21
146.3763142794995
 72
     1
 10
149.809094739521
 20
146.3763142794995
 11
149.8051183163849
 21
146.4130454118763
 72
     1
 10
149.805118316385
 20
146.4130454118761
 11
149.7997943511253
 21
146.4495643845748
 72
     1
 10
149.7997943511252
 20
146.4495643845748
 11
149.793132093732
 21
146.4858345236221
 72
     1
 10
149.7931320937321
 20
146.4858345236222
 11
149.7851407941955
 21
146.5218191550453
 72
     1
 10
149.7851407941957
 20
146.5218191550452
 11
149.7758297025059
 21
146.5574816048712
 72
     1
 10
149.7758297025057
 20
146.5574816048712
 11
149.7652080686527
 21
146.592785199127
 72
     1
 10
149.765208068653
 20
146.5927851991271
 11
149.753285142627
 21
146.6276932638398
 72
     1
 10
149.7532851426269
 20
146.6276932638398
 11
149.7400701744181
 21
146.6621691250364
 72
     1
 10
149.7400701744181
 20
146.6621691250364
 11
149.7255724140165
 21
146.6961761087439
 72
     1
 10
149.7255724140164
 20
146.696176108744
 11
149.7098071628035
 21
146.7296652709549
 72
     1
 10
149.7098071628036
 20
146.7296652709549
 11
149.692832719948
 21
146.7625120998027
 72
     1
 10
149.692832719948
 20
146.7625120998028
 11
149.6746798393585
 21
146.7946677444088
 72
     1
 10
149.6746798393587
 20
146.7946677444088
 11
149.6553710017668
 21
146.8261017883409
 72
     1
 10
149.6553710017667
 20
146.826101788341
 11
149.6349286879033
 21
146.8567838151673
 72
     1
 10
149.6349286879033
 20
146.8567838151673
 11
149.6133753784997
 21
146.8866834084557
 72
     1
 10
149.6133753784997
 20
146.8866834084556
 11
149.5907335542871
 21
146.915770151774
 72
     1
 10
149.590733554287
 20
146.9157701517741
 11
149.5670256959964
 21
146.9440136286906
 72
     1
 10
149.5670256959965
 20
146.9440136286906
 11
149.5422742843593
 21
146.9713834227732
 72
     1
 10
149.5422742843593
 20
146.9713834227732
 11
149.5165018001066
 21
146.9978491175898
 72
     1
 10
149.5165018001066
 20
146.9978491175898
 11
149.4897307239696
 21
147.0233802967084
 72
     1
 10
149.4897307239694
 20
147.0233802967084
 11
149.4620190871976
 21
147.0479161893353
 72
     1
 10
149.4620190871978
 20
147.0479161893354
 11
149.4334459510862
 21
147.0713879931146
 72
     1
 10
149.433445951086
 20
147.0713879931146
 11
149.4040430005365
 21
147.0937738530565
 72
     1
 10
149.4040430005366
 20
147.0937738530565
 11
149.3738415225468
 21
147.1150522797945
 72
     1
 10
149.3738415225468
 20
147.1150522797944
 11
149.3428728041145
 21
147.1352017839623
 72
     1
 10
149.3428728041144
 20
147.1352017839623
 11
149.3111681322372
 21
147.1542008761937
 72
     1
 10
149.3111681322375
 20
147.1542008761937
 11
149.2787587939131
 21
147.1720280671224
 72
     1
 10
149.2787587939128
 20
147.1720280671225
 11
149.2456847781756
 21
147.1886576903053
 72
     1
 10
149.2456847781757
 20
147.1886576903053
 11
149.2120428639841
 21
147.2040408787616
 72
     1
 10
149.2120428639841
 20
147.2040408787616
 11
149.1778816216221
 21
147.2181588285702
 72
     1
 10
149.1778816216222
 20
147.2181588285702
 11
149.1432370040975
 21
147.2309993721384
 72
     1
 10
149.1432370040975
 20
147.2309993721384
 11
149.1081449644179
 21
147.2425503418731
 72
     1
 10
149.108144964418
 20
147.2425503418732
 11
149.0726414555913
 21
147.2527995701817
 72
     1
 10
149.0726414555913
 20
147.2527995701816
 11
149.0367624306254
 21
147.2617348894709
 72
     1
 10
149.0367624306254
 20
147.261734889471
 11
149.000543842528
 21
147.2693441321481
 72
     3
 10
120.8816928316519
 20
-0.0715199138733453
 11
106.0660171787957
 21
-106.0660171787957
 40
0.9999999999959015
 50
124.1954682644237
 51
124.4002834267732
 73
     1
 72
     1
 10
148.4736660757989
 20
147.3689189504161
 11
148.4495575668056
 21
147.3728237710234
 72
     1
 10
148.4495575668056
 20
147.3728237710235
 11
148.4253301770969
 21
147.3755428721922
 72
     1
 10
148.4253301770968
 20
147.3755428721922
 11
148.401027453772
 21
147.377076676744
 72
     1
 10
148.4010274537721
 20
147.3770766767439
 11
148.3766929439308
 21
147.3774256075003
 72
     1
 10
148.3766929439307
 20
147.3774256075003
 11
148.352370194672
 21
147.3765900872827
 72
     1
 10
148.3523701946719
 20
147.3765900872828
 11
148.3281027530953
 21
147.3745705389128
 72
     1
 10
148.3281027530952
 20
147.3745705389128
 11
148.3039341663
 21
147.371367385212
 72
     1
 10
148.3039341663002
 20
147.371367385212
 11
148.2799079895635
 21
147.3669810507021
 72
     1
 10
148.2799079895635
 20
147.3669810507022
 11
148.2561258439527
 21
147.3614269701426
 72
     1
 10
148.2561258439525
 20
147.3614269701426
 11
148.2326843563888
 21
147.3547310139712
 72
     1
 10
148.2326843563887
 20
147.3547310139712
 11
148.2096236530776
 21
147.3469101060253
 72
     1
 10
148.2096236530779
 20
147.3469101060252
 11
148.1869838602249
 21
147.337981170142
 72
     1
 10
148.1869838602246
 20
147.3379811701421
 11
148.1648051040355
 21
147.327961130159
 72
     1
 10
148.1648051040356
 20
147.327961130159
 11
148.1431275107157
 21
147.3168669099132
 72
     1
 10
148.1431275107156
 20
147.3168669099133
 11
148.1219912064706
 21
147.3047154332422
 72
     1
 10
148.1219912064707
 20
147.3047154332422
 11
148.1014363451752
 21
147.2915236427095
 72
     1
 10
148.1014363451752
 20
147.2915236427095
 11
148.0815521388766
 21
147.2773452387349
 72
     1
 10
148.0815521388765
 20
147.2773452387349
 11
148.0624169657723
 21
147.2622401512978
 72
     1
 10
148.0624169657722
 20
147.2622401512978
 11
148.0440615226794
 21
147.2462392710774
 72
     1
 10
148.0440615226796
 20
147.2462392710774
 11
148.0265165064156
 21
147.2293734887528
 72
     1
 10
148.0265165064156
 20
147.2293734887528
 11
148.0098126137974
 21
147.2116736950031
 72
     1
 10
148.0098126137973
 20
147.2116736950031
 11
147.9939805416421
 21
147.1931707805075
 72
     1
 10
147.9939805416422
 20
147.1931707805074
 11
147.9790509867673
 21
147.173895635945
 72
     1
 10
147.9790509867673
 20
147.1738956359451
 11
147.9650546824121
 21
147.1538792068883
 72
     1
 10
147.9650546824121
 20
147.1538792068883
 11
147.9520504863355
 21
147.1331996191578
 72
     1
 10
147.9520504863353
 20
147.1331996191577
 11
147.9400852620885
 21
147.1119347782405
 72
     1
 10
147.9400852620886
 20
147.1119347782405
 11
147.929177641406
 21
147.0901241931313
 72
     1
 10
147.9291776414061
 20
147.0901241931313
 11
147.9193462560223
 21
147.0678073728249
 72
     1
 10
147.9193462560224
 20
147.0678073728249
 11
147.9106097376718
 21
147.045023826316
 72
     1
 10
147.9106097376718
 20
147.045023826316
 11
147.9029867221727
 21
147.0218130761406
 72
     1
 10
147.9029867221727
 20
147.0218130761405
 11
147.8965068938416
 21
146.9982589280601
 72
     1
 10
147.8965068938416
 20
146.9982589280601
 11
147.8911908799122
 21
146.9744446735917
 72
     1
 10
147.8911908799123
 20
146.9744446735918
 11
147.8870450735565
 21
146.9504135241869
 72
     1
 10
147.8870450735562
 20
146.9504135241868
 11
147.8840758679462
 21
146.9262086912969
 72
     1
 10
147.8840758679464
 20
146.926208691297
 11
147.8822896562542
 21
146.9018733863737
 72
     1
 10
147.8822896562542
 20
146.9018733863737
 11
147.8816928316519
 21
146.8774508208686
 72
     1
 10
147.8816928316519
 20
146.8774508208686
 11
147.8816928316519
 21
146.4284800861268
 72
     1
 10
147.8816928316519
 20
146.4284800861267
 11
147.0816928316519
 21
146.4284800861267
 72
     1
 10
147.0816928316519
 20
146.4284800861267
 11
147.0537647277668
 21
144.8284800861267
 72
     1
 10
147.0537647277667
 20
144.8284800861268
 11
146.709620935537
 21
144.8284800861268
 72
     1
 10
146.709620935537
 20
144.8284800861268
 11
146.6816928316519
 21
143.2284800861268
 72
     1
 10
146.6816928316518
 20
143.2284800861267
 11
145.5816928316518
 21
143.2284800861267
 72
     1
 10
145.5816928316519
 20
143.2284800861267
 11
145.5031450394749
 21
138.7284800861267
 72
     1
 10
145.5031450394749
 20
138.7284800861267
 11
149.6768772730858
 21
138.7284800861267
 72
     1
 10
149.6768772730856
 20
138.7284800861267
 11
149.7816928316517
 21
136.7284800861267
 72
     1
 10
149.781692831652
 20
136.7284800861267
 11
150.6327282649371
 21
136.7284800861267
 72
     3
 10
150.632728264937
 20
137.7284800861267
 11
0.7071067811865561
 21
-0.7071067811865559
 40
0.9999999999999864
 50
-45.0
 51
42.00000000000012
 73
     1
 72
     1
 10
151.6313577996916
 20
137.6761441298838
 11
151.6341006109349
 21
137.7284800861267
 72
     1
 10
151.6341006109349
 20
137.7284800861267
 11
151.8292850523688
 21
137.7284800861267
 72
     1
 10
151.8292850523689
 20
137.7284800861267
 11
151.7497148658998
 21
139.2467696904117
 72
     1
 10
151.7497148658997
 20
139.2467696904117
 11
151.7457213322418
 21
139.3142417806988
 72
     1
 10
151.7457213322418
 20
139.3142417806989
 11
151.7408180451501
 21
139.3816291334421
 72
     1
 10
151.74081804515
 20
139.3816291334422
 11
151.735006603969
 21
139.4489226444988
 72
     1
 10
151.7350066039691
 20
139.4489226444988
 11
151.7282886080435
 21
139.5161132097262
 72
     1
 10
151.7282886080434
 20
139.5161132097262
 11
151.7206656567176
 21
139.583191724982
 72
     1
 10
151.7206656567176
 20
139.583191724982
 11
151.7121393493364
 21
139.6501490861233
 72
     1
 10
151.7121393493362
 20
139.6501490861233
 11
151.7027112852439
 21
139.7169761890076
 72
     1
 10
151.702711285244
 20
139.7169761890076
 11
151.6923830637853
 21
139.7836639294922
 72
     1
 10
151.6923830637852
 20
139.7836639294922
 11
151.6811562843046
 21
139.8502032034346
 72
     1
 10
151.6811562843049
 20
139.8502032034346
 11
151.6690325461471
 21
139.916584906692
 72
     1
 10
151.669032546147
 20
139.916584906692
 11
151.6560134486565
 21
139.9827999351219
 72
     1
 10
151.6560134486565
 20
139.982799935122
 11
151.6421005911778
 21
140.0488391845818
 72
     1
 10
151.6421005911779
 20
140.0488391845818
 11
151.6272955730556
 21
140.1146935509288
 72
     1
 10
151.6272955730555
 20
140.1146935509288
 11
151.6115999936343
 21
140.1803539300204
 72
     1
 10
151.6115999936344
 20
140.1803539300203
 11
151.5950154522587
 21
140.245811217714
 72
     1
 10
151.5950154522588
 20
140.245811217714
 11
151.5775435482733
 21
140.311056309867
 72
     1
 10
151.5775435482733
 20
140.3110563098671
 11
151.5591858810225
 21
140.3760801023369
 72
     1
 10
151.5591858810223
 20
140.3760801023368
 11
151.5399440498508
 21
140.4408734909807
 72
     1
 10
151.5399440498508
 20
140.4408734909807
 11
151.51982811531
 21
140.5054008530556
 72
     1
 10
151.51982811531
 20
140.5054008530555
 11
151.4988495674521
 21
140.5696270008757
 72
     1
 10
151.4988495674521
 20
140.5696270008758
 11
151.4770121498736
 21
140.633543482885
 72
     1
 10
151.4770121498736
 20
140.633543482885
 11
151.4543196061701
 21
140.6971418475268
 72
     1
 10
151.4543196061702
 20
140.6971418475268
 11
151.4307756799379
 21
140.7604136432449
 72
     1
 10
151.4307756799378
 20
140.760413643245
 11
151.4063841147726
 21
140.823350418483
 72
     1
 10
151.4063841147726
 20
140.8233504184829
 11
151.3811486542707
 21
140.8859437216845
 72
     1
 10
151.3811486542708
 20
140.8859437216846
 11
151.3550730420281
 21
140.9481851012934
 72
     1
 10
151.3550730420279
 20
140.9481851012933
 11
151.3281610216403
 21
141.010066105753
 72
     1
 10
151.3281610216404
 20
141.010066105753
 11
151.3004163367041
 21
141.0715782835072
 72
     1
 10
151.3004163367041
 20
141.0715782835072
 11
151.271842730815
 21
141.1327131829996
 72
     1
 10
151.271842730815
 20
141.1327131829996
 11
151.2424439475692
 21
141.1934623526737
 72
     1
 10
151.242443947569
 20
141.1934623526737
 11
151.2122237305623
 21
141.2538173409732
 72
     1
 10
151.2122237305625
 20
141.2538173409733
 11
151.1811858233912
 21
141.3137696963419
 72
     1
 10
151.1811858233911
 20
141.3137696963419
 11
151.1493339696511
 21
141.3733109672234
 72
     1
 10
151.1493339696512
 20
141.3733109672234
 11
151.1166719129385
 21
141.4324327020612
 72
     1
 10
151.1166719129385
 20
141.4324327020612
 11
151.0832033968491
 21
141.491126449299
 72
     1
 10
151.083203396849
 20
141.491126449299
 11
151.048932164979
 21
141.5493837573805
 72
     3
 10
158.3459526188276
 20
145.9086832992925
 11
6.010407640085665
 21
-6.010407640085662
 40
0.9999999999999975
 50
104.1455607304387
 51
132.0
 73
     0
 72
     1
 10
149.8576015734138
 20
145.4638276712274
 11
149.8117143705433
 21
146.3394076614176
 97
        0
 75
     0
 76
     1
 52
360.0
 41
0.5
 77
     0
 78
     1
 53
315.0
 43
190.4855874106406
 44
27.6921736054189
 45
-1.122532015133643
 46
-1.122532015133643
 79
     0
 98
        1
 10
252.0289013141925
 20
228.0583712426814
1001
PHOENIX7010
1002
{
1070
    41
1040
1.0
1002
}
  0
HATCH
  5
3A59
102
{ACAD_REACTORS
330
431E
102
}
330
1F
100
AcDbEntity
  8
0
 62
     1
100
AcDbHatch
 10
0.0
 20
0.0
 30
0.0
210
0.0
220
0.0
230
1.0
  2
ANSI31
 70
     0
 71
     0
 91
        1
 92
        0
 93
       26
 72
     1
 10
141.0537647277667
 20
144.8284800861268
 11
140.709620935537
 21
144.8284800861268
 72
     1
 10
140.709620935537
 20
144.8284800861268
 11
140.6816928316519
 21
146.4284800861267
 72
     1
 10
140.6816928316518
 20
146.4284800861267
 11
139.4603045005764
 21
146.4284800861267
 72
     1
 10
139.4603045005765
 20
146.4284800861267
 11
139.3816928316519
 21
144.9284800861267
 72
     1
 10
139.3816928316519
 20
144.9284800861267
 11
102.3816928316519
 21
144.9284800861267
 72
     1
 10
102.3816928316519
 20
144.9284800861268
 11
102.3030811627273
 21
146.4284800861268
 72
     1
 10
102.3030811627272
 20
146.4284800861267
 11
101.0816928316518
 21
146.4284800861267
 72
     1
 10
101.0816928316519
 20
146.4284800861267
 11
101.0537647277667
 21
144.8284800861267
 72
     1
 10
101.0537647277667
 20
144.8284800861268
 11
100.709620935537
 21
144.8284800861268
 72
     1
 10
100.709620935537
 20
144.8284800861268
 11
100.6816928316518
 21
143.2284800861268
 72
     1
 10
100.6816928316518
 20
143.2284800861267
 11
99.58169283165183
 21
143.2284800861267
 72
     1
 10
99.58169283165192
 20
143.2284800861267
 11
99.50314503947495
 21
138.7284800861267
 72
     1
 10
99.50314503947494
 20
138.7284800861267
 11
101.3816928316519
 21
138.7284800861267
 72
     1
 10
101.3816928316519
 20
138.7284800861267
 11
101.4865083902179
 21
140.7284800861267
 72
     1
 10
101.4865083902179
 20
140.7284800861267
 11
101.7650233712313
 21
140.7284800861267
 72
     3
 10
101.7650233712313
 20
141.7284800861267
 11
0.7071067811865489
 21
-0.7071067811865487
 40
0.9999999999999927
 50
-45.0
 51
42.00000000000008
 73
     1
 72
     1
 10
102.7636529059858
 20
141.6761441298838
 11
102.8030811627273
 21
142.4284800861267
 72
     1
 10
102.8030811627272
 20
142.4284800861268
 11
138.9603045005764
 21
142.4284800861268
 72
     1
 10
138.9603045005765
 20
142.4284800861268
 11
138.999732757318
 21
141.6761441298838
 72
     3
 10
139.9983622920724
 20
141.7284800861267
 11
-0.7071067811865487
 21
-0.7071067811865488
 40
0.9999999999999927
 50
317.9999999999999
 51
405.0
 73
     1
 72
     1
 10
139.9983622920724
 20
140.7284800861267
 11
140.2768772730857
 21
140.7284800861267
 72
     1
 10
140.2768772730858
 20
140.7284800861267
 11
140.3816928316519
 21
138.7284800861267
 72
     1
 10
140.3816928316519
 20
138.7284800861267
 11
142.2602406238288
 21
138.7284800861267
 72
     1
 10
142.2602406238288
 20
138.7284800861267
 11
142.1816928316518
 21
143.2284800861267
 72
     1
 10
142.1816928316518
 20
143.2284800861267
 11
141.0816928316518
 21
143.2284800861267
 72
     1
 10
141.0816928316519
 20
143.2284800861267
 11
141.0537647277668
 21
144.8284800861267
 97
        0
 75
     0
 76
     1
 52
360.0
 41
0.5
 77
     0
 78
     1
 53
315.0
 43
190.4855874106406
 44
27.6921736054189
 45
-1.122532015133643
 46
-1.122532015133643
 79
     0
 98
        1
 10
252.0289013141925
 20
228.0583712426814
1001
PHOENIX7010
1002
{
1070
    41
1040
1.0
1002
}
  0
HATCH
  5
3A5A
102
{ACAD_REACTORS
330
431E
102
}
330
1F
100
AcDbEntity
  8
0
 62
     1
100
AcDbHatch
 10
0.0
 20
0.0
 30
0.0
210
0.0
220
0.0
230
1.0
  2
ANSI31
 70
     0
 71
     0
 91
        1
 92
        0
 93
      125
 72
     1
 10
96.18169283165185
 20
143.2284800861267
 11
95.08169283165184
 21
143.2284800861267
 72
     1
 10
95.08169283165193
 20
143.2284800861267
 11
95.05376472776676
 21
144.8284800861267
 72
     1
 10
95.05376472776672
 20
144.8284800861268
 11
94.70962093553705
 21
144.8284800861268
 72
     1
 10
94.709620935537
 20
144.8284800861268
 11
94.68169283165186
 21
146.4284800861267
 72
     1
 10
94.68169283165185
 20
146.4284800861267
 11
93.88169283165185
 21
146.4284800861267
 72
     1
 10
93.88169283165188
 20
146.4284800861268
 11
93.88169283165188
 21
146.8774508208686
 72
     1
 10
93.88169283165188
 20
146.8774508208686
 11
93.88109634584468
 21
146.901866226549
 72
     1
 10
93.88109634584472
 20
146.901866226549
 11
93.87931250571815
 21
146.9261803754683
 72
     1
 10
93.87931250571815
 20
146.9261803754683
 11
93.87634973721493
 21
146.95035054138
 72
     1
 10
93.87634973721493
 20
146.9503505413799
 11
93.87221646627756
 21
146.9743339980376
 72
     1
 10
93.87221646627745
 20
146.9743339980376
 11
93.86692111884856
 21
146.9980880191951
 72
     1
 10
93.8669211188486
 20
146.9980880191951
 11
93.86047212087083
 21
147.0215698786057
 72
     1
 10
93.86047212087088
 20
147.0215698786057
 11
93.85287789828693
 21
147.0447368500231
 72
     1
 10
93.85287789828693
 20
147.0447368500231
 11
93.84414688021477
 21
147.0675461994755
 72
     1
 10
93.84414688021477
 20
147.0675461994755
 11
93.83431293087765
 21
147.0899008791008
 72
     1
 10
93.83431293087765
 20
147.0899008791008
 11
93.82341925344972
 21
147.1117106695708
 72
     1
 10
93.82341925344972
 20
147.1117106695708
 11
93.81148986405895
 21
147.1329392424635
 72
     1
 10
93.81148986405898
 20
147.1329392424635
 11
93.79854877883328
 21
147.1535502693571
 72
     1
 10
93.79854877883323
 20
147.1535502693572
 11
93.78462001390056
 21
147.1735074218296
 72
     1
 10
93.78462001390049
 20
147.1735074218296
 11
93.76972758538872
 21
147.1927743714591
 72
     1
 10
93.76972758538874
 20
147.1927743714591
 11
93.75389550942584
 21
147.2113147898237
 72
     1
 10
93.75389550942587
 20
147.2113147898237
 11
93.7371478256362
 21
147.229092324749
 72
     1
 10
93.73714782563615
 20
147.229092324749
 11
93.71955372835223
 21
147.2460291644824
 72
     1
 10
93.71955372835223
 20
147.2460291644825
 11
93.70118654231808
 21
147.2620592921613
 72
     1
 10
93.70118654231804
 20
147.2620592921612
 11
93.68208227767395
 21
147.2771582170026
 72
     1
 10
93.68208227767398
 20
147.2771582170027
 11
93.6622769445603
 21
147.291301448224
 72
     1
 10
93.66227694456027
 20
147.2913014482241
 11
93.64180655311724
 21
147.3044644950427
 72
     1
 10
93.64180655311724
 20
147.3044644950427
 11
93.62070711348518
 21
147.3166228666759
 72
     1
 10
93.62070711348518
 20
147.3166228666759
 11
93.59901463580444
 21
147.3277520723411
 72
     1
 10
93.59901463580444
 20
147.327752072341
 11
93.57676519087169
 21
147.3378275955519
 72
     1
 10
93.5767651908718
 20
147.337827595552
 11
93.55404639806691
 21
147.3468059538536
 72
     1
 10
93.55404639806691
 20
147.3468059538536
 11
93.53094345390363
 21
147.3546554138031
 72
     1
 10
93.53094345390351
 20
147.3546554138031
 11
93.50749862044745
 21
147.3613649291339
 72
     1
 10
93.50749862044745
 20
147.3613649291339
 11
93.48375415976411
 21
147.3669234535795
 72
     1
 10
93.48375415976418
 20
147.3669234535796
 11
93.4597523339193
 21
147.3713199408734
 72
     1
 10
93.45975233391936
 20
147.3713199408734
 11
93.43553541903981
 21
147.3745433432256
 72
     1
 10
93.43553541903972
 20
147.3745433432257
 11
93.41119125117323
 21
147.3765798986208
 72
     1
 10
93.41119125117323
 20
147.3765798986208
 11
93.38680549487888
 21
147.377424652985
 72
     1
 10
93.38680549487888
 20
147.3774246529851
 11
93.36242180026074
 21
147.3770792708327
 72
     1
 10
93.36242180026077
 20
147.3770792708327
 11
93.33808381742299
 21
147.3755454166776
 72
     1
 10
93.33808381742299
 20
147.3755454166776
 11
93.3138351964696
 21
147.372824755034
 72
     1
 10
93.31383519646951
 20
147.3728247550341
 11
93.2897195875047
 21
147.3689189504161
 72
     3
 10
120.8816928316519
 20
-0.0715199138733453
 11
-106.0660171795852
 21
-106.0660171795852
 40
0.9999999999919182
 50
235.5997165732266
 51
235.8045317355761
 73
     1
 72
     1
 10
92.76284182077585
 20
147.2693441321481
 11
92.72663279489313
 21
147.2617370716404
 72
     1
 10
92.72663279489313
 20
147.2617370716404
 11
92.69078187334827
 21
147.2528096167387
 72
     1
 10
92.69078187334832
 20
147.2528096167387
 11
92.65532413431463
 21
147.2425759118545
 72
     1
 10
92.65532413431456
 20
147.2425759118545
 11
92.62029465596516
 21
147.2310501013991
 72
     1
 10
92.62029465596514
 20
147.2310501013992
 11
92.58572851647327
 21
147.2182463297842
 72
     1
 10
92.58572851647327
 20
147.2182463297841
 11
92.55166079401206
 21
147.2041787414211
 72
     1
 10
92.55166079401211
 20
147.2041787414211
 11
92.51812656675488
 21
147.1888614807214
 72
     1
 10
92.51812656675483
 20
147.1888614807213
 11
92.48516091287468
 21
147.1723086920964
 72
     1
 10
92.48516091287466
 20
147.1723086920965
 11
92.45279891054478
 21
147.1545345199579
 72
     1
 10
92.45279891054485
 20
147.1545345199579
 11
92.42107563793849
 21
147.1355531087171
 72
     1
 10
92.42107563793842
 20
147.1355531087171
 11
92.39003750786499
 21
147.1153862643197
 72
     1
 10
92.39003750786499
 20
147.1153862643198
 11
92.35979996217706
 21
147.0941086538715
 72
     1
 10
92.35979996217713
 20
147.0941086538715
 11
92.33040722305842
 21
147.071757380064
 72
     1
 10
92.33040722305835
 20
147.071757380064
 11
92.30188637244973
 21
147.0483588457586
 72
     1
 10
92.30188637244976
 20
147.0483588457587
 11
92.274264492292
 21
147.0239394538168
 72
     1
 10
92.27426449229195
 20
147.0239394538168
 11
92.24756866452592
 21
146.9985256071
 72
     1
 10
92.24756866452592
 20
146.9985256071
 11
92.22182597109243
 21
146.9721437084698
 72
     1
 10
92.22182597109243
 20
146.9721437084697
 11
92.19706349393231
 21
146.9448201607873
 72
     1
 10
92.19706349393231
 20
146.9448201607874
 11
92.1733083149863
 21
146.9165813669144
 72
     1
 10
92.1733083149863
 20
146.9165813669144
 11
92.15058751619535
 21
146.8874537297121
 72
     1
 10
92.15058751619542
 20
146.8874537297121
 11
92.12892817950022
 21
146.8574636520422
 72
     1
 10
92.12892817950022
 20
146.8574636520422
 11
92.10838263248929
 21
146.8266768799219
 72
     1
 10
92.10838263248922
 20
146.8266768799219
 11
92.08900830416503
 21
146.7951810852519
 72
     1
 10
92.08900830416506
 20
146.7951810852519
 11
92.07082254445959
 21
146.7630106272151
 72
     1
 10
92.07082254445957
 20
146.7630106272153
 11
92.05384239510079
 21
146.7301994211271
 72
     1
 10
92.05384239510079
 20
146.730199421127
 11
92.03808489781676
 21
146.6967813823023
 72
     1
 10
92.03808489781678
 20
146.6967813823023
 11
92.02356709433557
 21
146.662790426056
 72
     1
 10
92.02356709433557
 20
146.6627904260559
 11
92.01030602638512
 21
146.628260467703
 72
     1
 10
92.01030602638512
 20
146.628260467703
 11
91.99832169239462
 21
146.5932346112111
 72
     1
 10
91.99832169239458
 20
146.5932346112112
 11
91.98764936469965
 21
146.5578153749246
 72
     1
 10
91.98764936469968
 20
146.5578153749246
 11
91.97830107749238
 21
146.5220534326842
 72
     1
 10
91.97830107749231
 20
146.5220534326842
 11
91.9702840034582
 21
146.485986056754
 72
     1
 10
91.9702840034582
 20
146.4859860567541
 11
91.96360531528254
 21
146.4496505193982
 72
     1
 10
91.96360531528259
 20
146.4496505193982
 11
91.95827218565083
 21
146.4130840928808
 72
     1
 10
91.95827218565078
 20
146.4130840928808
 11
91.95429178724827
 21
146.3763240494659
 72
     1
 10
91.95429178724838
 20
146.3763240494659
 11
91.9516712927605
 21
146.3394076614176
 72
     1
 10
91.95167129276041
 20
146.3394076614177
 11
91.9057840898899
 21
145.4638276712275
 72
     3
 10
83.41743304447605
 20
145.9086832992925
 11
6.010407640085617
 21
-6.010407640085615
 40
0.9999999999999859
 50
317.9999999999999
 51
345.8544392695611
 73
     0
 72
     1
 10
90.71445349832469
 20
141.5493837573805
 11
90.68018226645463
 21
141.491126449299
 72
     1
 10
90.68018226645468
 20
141.491126449299
 11
90.64671375036535
 21
141.4324327020612
 72
     1
 10
90.64671375036525
 20
141.4324327020612
 11
90.61405169365256
 21
141.3733109672234
 72
     1
 10
90.61405169365265
 20
141.3733109672234
 11
90.58219983991259
 21
141.3137696963419
 72
     1
 10
90.58219983991259
 20
141.3137696963419
 11
90.55116193274129
 21
141.2538173409733
 72
     1
 10
90.55116193274123
 20
141.2538173409733
 11
90.52094171573463
 21
141.1934623526737
 72
     1
 10
90.5209417157347
 20
141.1934623526737
 11
90.4915429324888
 21
141.1327131829995
 72
     1
 10
90.49154293248886
 20
141.1327131829996
 11
90.46296932659977
 21
141.0715782835072
 72
     1
 10
90.46296932659968
 20
141.0715782835072
 11
90.43522464166334
 21
141.0100661057531
 72
     1
 10
90.43522464166334
 20
141.010066105753
 11
90.40831262127579
 21
140.9481851012933
 72
     1
 10
90.40831262127584
 20
140.9481851012933
 11
90.38223700903307
 21
140.8859437216845
 72
     1
 10
90.38223700903314
 20
140.8859437216846
 11
90.35700154853113
 21
140.823350418483
 72
     1
 10
90.35700154853108
 20
140.8233504184829
 11
90.33260998336594
 21
140.7604136432449
 72
     1
 10
90.33260998336594
 20
140.760413643245
 11
90.30906605713362
 21
140.6971418475269
 72
     1
 10
90.30906605713356
 20
140.6971418475268
 11
90.28637351343007
 21
140.633543482885
 72
     1
 10
90.28637351343013
 20
140.633543482885
 11
90.26453609585152
 21
140.5696270008758
 72
     1
 10
90.26453609585152
 20
140.5696270008758
 11
90.24355754799378
 21
140.5054008530556
 72
     1
 10
90.24355754799373
 20
140.5054008530555
 11
90.22344161345293
 21
140.4408734909807
 72
     1
 10
90.22344161345287
 20
140.4408734909807
 11
90.20419978228137
 21
140.3760801023368
 72
     1
 10
90.20419978228138
 20
140.3760801023368
 11
90.18584211503059
 21
140.311056309867
 72
     1
 10
90.18584211503059
 20
140.3110563098671
 11
90.16837021104505
 21
140.2458112177141
 72
     1
 10
90.16837021104505
 20
140.245811217714
 11
90.15178566966939
 21
140.1803539300204
 72
     1
 10
90.15178566966936
 20
140.1803539300203
 11
90.13609009024813
 21
140.1146935509287
 72
     1
 10
90.1360900902482
 20
140.1146935509288
 11
90.12128507212601
 21
140.0488391845818
 72
     1
 10
90.12128507212592
 20
140.0488391845818
 11
90.10737221464728
 21
139.982799935122
 72
     1
 10
90.10737221464728
 20
139.982799935122
 11
90.09435311715677
 21
139.916584906692
 72
     1
 10
90.09435311715671
 20
139.916584906692
 11
90.08222937899887
 21
139.8502032034346
 72
     1
 10
90.08222937899892
 20
139.8502032034346
 11
90.07100259951839
 21
139.7836639294922
 72
     1
 10
90.07100259951846
 20
139.7836639294921
 11
90.06067437805972
 21
139.7169761890075
 72
     1
 10
90.06067437805972
 20
139.7169761890076
 11
90.05124631396739
 21
139.6501490861233
 72
     1
 10
90.05124631396745
 20
139.6501490861233
 11
90.04272000658614
 21
139.583191724982
 72
     1
 10
90.04272000658614
 20
139.583191724982
 11
90.03509705526035
 21
139.5161132097262
 72
     1
 10
90.03509705526036
 20
139.5161132097262
 11
90.02837905933469
 21
139.4489226444988
 72
     1
 10
90.02837905933459
 20
139.4489226444988
 11
90.02256761815361
 21
139.3816291334421
 72
     1
 10
90.02256761815372
 20
139.381629133442
 11
90.01766433106199
 21
139.3142417806988
 72
     1
 10
90.01766433106194
 20
139.3142417806989
 11
90.01367079740402
 21
139.2467696904118
 72
     1
 10
90.01367079740406
 20
139.2467696904117
 11
89.93410061093495
 21
137.7284800861267
 72
     1
 10
89.9341006109349
 20
137.7284800861267
 11
90.12928505236885
 21
137.7284800861267
 72
     1
 10
90.12928505236892
 20
137.7284800861267
 11
90.13202786361226
 21
137.6761441298838
 72
     3
 10
91.13065739836676
 20
137.7284800861267
 11
-0.7071067811865487
 21
-0.7071067811865488
 40
0.9999999999999927
 50
317.9999999999999
 51
405.0
 73
     1
 72
     1
 10
91.13065739836676
 20
136.7284800861267
 11
91.98169283165189
 21
136.7284800861267
 72
     1
 10
91.9816928316519
 20
136.7284800861267
 11
92.08650839021798
 21
138.7284800861267
 72
     1
 10
92.08650839021798
 20
138.7284800861267
 11
96.26024062382887
 21
138.7284800861267
 72
     1
 10
96.26024062382885
 20
138.7284800861267
 11
96.18169283165187
 21
143.2284800861267
 97
        0
 75
     0
 76
     1
 52
360.0
 41
0.5
 77
     0
 78
     1
 53
315.0
 43
190.4855874106406
 44
27.6921736054189
 45
-1.122532015133643
 46
-1.122532015133643
 79
     0
 98
        1
 10
252.0289013141925
 20
228.0583712426814
1001
PHOENIX7010
1002
{
1070
    41
1040
1.0
1002
}
  0
LINE
  5
3A5B
102
{ACAD_REACTORS
330
431E
102
}
330
1F
100
AcDbEntity
  8
0
  6
ACAD_ISO04W100
 62
     1
370
    25
100
AcDbLine
 10
259.2254220921605
 20
200.3087114718518
 30
0.0
 11
324.2254220921604
 21
200.3087114718518
 31
0.0
1001
PHOENIX7010
1002
{
1070
    41
1040
1.0
1002
}
  0
LINE
  5
3A5C
102
{ACAD_REACTORS
330
431E
102
}
330
1F
100
AcDbEntity
  8
0
  6
ACAD_ISO04W100
 62
     1
 48
0.4354838709677419
370
    25
100
AcDbLine
 10
291.7254220921604
 20
213.8087114718518
 30
0.0
 11
291.7254220921604
 21
186.8087114718518
 31
0.0
1001
PHOENIX7010
1002
{
1070
    41
1040
1.0
1002
}
  0
LINE
  5
3A5D
102
{ACAD_REACTORS
330
431E
102
}
330
1F
100
AcDbEntity
  8
0
  6
ACAD_ISO04W100
 62
     1
 48
0.1612991589931037
370
    25
100
AcDbLine
 10
314.7254220921604
 20
195.3082757482752
 30
0.0
 11
314.7254220921604
 21
205.3088236058476
 31
0.0
1001
PHOENIX7010
1002
{
1070
    41
1040
1.0
1002
}
  0
ARC
  5
3A5E
102
{ACAD_REACTORS
330
431E
102
}
330
1F
100
AcDbEntity
  8
0
  6
Continuous
 62
     7
370
    50
100
AcDbCircle
 10
120.8816928316519
 20
200.3087114718516
 30
0.0
 40
23.0
100
AcDbArc
 50
159.9347610922472
 51
165.0105650921424
1001
PHOENIX7010
1002
{
1070
    41
1040
1.0
1002
}
  0
ARC
  5
3A5F
102
{ACAD_REACTORS
330
431E
102
}
330
1F
100
AcDbEntity
  8
0
  6
Continuous
 62
     7
370
    50
100
AcDbCircle
 10
120.8816928316519
 20
200.3087114718516
 30
0.0
 40
23.0
100
AcDbArc
 50
194.9894349078576
 51
200.0652389077504
1001
PHOENIX7010
1002
{
1070
    41
1040
1.0
1002
}
  0
ARC
  5
3A60
102
{ACAD_REACTORS
330
431E
102
}
330
1F
100
AcDbEntity
  8
0
  6
Continuous
 62
     7
370
    50
100
AcDbCircle
 10
120.8816928316519
 20
200.3087114718516
 30
0.0
 40
23.0
100
AcDbArc
 50
339.9347610922496
 51
345.0105650921424
1001
PHOENIX7010
1002
{
1070
    41
1040
1.0
1002
}
  0
ARC
  5
3A61
102
{ACAD_REACTORS
330
431E
102
}
330
1F
100
AcDbEntity
  8
0
  6
Continuous
 62
     7
370
    50
100
AcDbCircle
 10
120.8816928316519
 20
200.3087114718516
 30
0.0
 40
23.0
100
AcDbArc
 50
14.98943490785757
 51
20.0652389077504
1001
PHOENIX7010
1002
{
1070
    41
1040
1.0
1002
}
  0
ARC
  5
3A62
102
{ACAD_REACTORS
330
431E
102
}
330
1F
100
AcDbEntity
  8
0
100
AcDbCircle
 10
115.8816928316519
 20
200.3087114718516
 30
0.0
 40
33.36278146030118
100
AcDbArc
 50
344.3169443510092
 51
346.125962226261
1001
PHOENIX7010
1002
{
1070
    41
1040
1.0
1002
}
  0
CIRCLE
  5
3A63
102
{ACAD_REACTORS
330
431E
102
}
330
1F
100
AcDbEntity
  8
0
100
AcDbCircle
 10
143.8816928316519
 20
200.3087114718516
 30
0.0
 40
1.621452207823019
1001
PHOENIX7010
1002
{
1070
    41
1040
1.0
1002
}
  0
ARC
  5
3A64
102
{ACAD_REACTORS
330
431E
102
}
330
1F
100
AcDbEntity
  8
0
100
AcDbCircle
 10
143.8816928316519
 20
200.3087114718516
 30
0.0
 40
3.5
100
AcDbArc
 50
12.37362511619142
 51
347.6263748838085
1001
PHOENIX7010
1002
{
1070
    41
1040
1.0
1002
}
  0
ARC
  5
3A65
102
{ACAD_REACTORS
330
431E
102
}
330
1F
100
AcDbEntity
  8
0
100
AcDbCircle
 10
115.8816928316519
 20
200.3087114718516
 30
0.0
 40
33.36278146030118
100
AcDbArc
 50
13.87403777373905
 51
15.68305564899081
1001
PHOENIX7010
1002
{
1070
    41
1040
1.0
1002
}
  0
ARC
  5
3A66
102
{ACAD_REACTORS
330
431E
102
}
330
1F
100
AcDbEntity
  8
0
100
AcDbCircle
 10
115.8816928316519
 20
200.3087114718516
 30
0.0
 40
35.2
100
AcDbArc
 50
343.5229113816589
 51
347.7237963776175
1001
PHOENIX7010
1002
{
1070
    41
1040
1.0
1002
}
  0
ARC
  5
3A67
102
{ACAD_REACTORS
330
431E
102
}
330
1F
100
AcDbEntity
  8
0
100
AcDbCircle
 10
148.0064496400698
 20
190.8087114718516
 30
0.0
 40
2.75240777928303
100
AcDbArc
 50
270.0
 51
343.5258881106843
1001
PHOENIX7010
1002
{
1070
    41
1040
1.0
1002
}
  0
ARC
  5
3A68
102
{ACAD_REACTORS
330
431E
102
}
330
1F
100
AcDbEntity
  8
0
100
AcDbCircle
 10
148.0064496400698
 20
209.8087114718516
 30
0.0
 40
2.999999999999998
100
AcDbArc
 50
16.47411188931565
 51
90.0
1001
PHOENIX7010
1002
{
1070
    41
1040
1.0
1002
}
  0
ARC
  5
3A69
102
{ACAD_REACTORS
330
431E
102
}
330
1F
100
AcDbEntity
  8
0
100
AcDbCircle
 10
115.8816928316519
 20
200.3087114718516
 30
0.0
 40
36.5
100
AcDbArc
 50
9.811602081858811
 51
16.47411188931565
1001
PHOENIX7010
1002
{
1070
    41
1040
1.0
1002
}
  0
ARC
  5
3A6A
102
{ACAD_REACTORS
330
431E
102
}
330
1F
100
AcDbEntity
  8
0
100
AcDbCircle
 10
115.8816928316519
 20
200.3087114718516
 30
0.0
 40
35.94759222071696
100
AcDbArc
 50
350.8852060024168
 51
9.114793997583062
1001
PHOENIX7010
1002
{
1070
    41
1040
1.0
1002
}
  0
ARC
  5
3A6B
102
{ACAD_REACTORS
330
431E
102
}
330
1F
100
AcDbEntity
  8
0
100
AcDbCircle
 10
115.8816928316519
 20
200.3087114718516
 30
0.0
 40
36.5
100
AcDbArc
 50
343.5258881106843
 51
350.1883979181412
1001
PHOENIX7010
1002
{
1070
    41
1040
1.0
1002
}
  0
ARC
  5
3A6C
102
{ACAD_REACTORS
330
431E
102
}
330
1F
100
AcDbEntity
  8
0
100
AcDbCircle
 10
148.0064496400698
 20
190.8087114718516
 30
0.0
 40
2.999999999999998
100
AcDbArc
 50
270.0
 51
343.5258881106843
1001
PHOENIX7010
1002
{
1070
    41
1040
1.0
1002
}
  0
ARC
  5
3A6D
102
{ACAD_REACTORS
330
431E
102
}
330
1F
100
AcDbEntity
  8
0
100
AcDbCircle
 10
115.8816928316519
 20
200.3087114718516
 30
0.0
 40
36.25240777928303
100
AcDbArc
 50
343.5258881106843
 51
350.1825669212223
1001
PHOENIX7010
1002
{
1070
    41
1040
1.0
1002
}
  0
ARC
  5
3A6E
102
{ACAD_REACTORS
330
431E
102
}
330
1F
100
AcDbEntity
  8
0
100
AcDbCircle
 10
115.8816928316519
 20
200.3087114718516
 30
0.0
 40
35.75240777928303
100
AcDbArc
 50
350.8898298470727
 51
9.110170152927187
1001
PHOENIX7010
1002
{
1070
    41
1040
1.0
1002
}
  0
ARC
  5
3A6F
102
{ACAD_REACTORS
330
431E
102
}
330
1F
100
AcDbEntity
  8
0
100
AcDbCircle
 10
115.8816928316519
 20
200.3087114718516
 30
0.0
 40
36.25240777928303
100
AcDbArc
 50
9.817433078777726
 51
16.47411188931565
1001
PHOENIX7010
1002
{
1070
    41
1040
1.0
1002
}
  0
ARC
  5
3A70
102
{ACAD_REACTORS
330
431E
102
}
330
1F
100
AcDbEntity
  8
0
100
AcDbCircle
 10
148.0064496400698
 20
209.8087114718516
 30
0.0
 40
2.752407779283019
100
AcDbArc
 50
16.47411188931565
 51
90.0
1001
PHOENIX7010
1002
{
1070
    41
1040
1.0
1002
}
  0
ARC
  5
3A71
102
{ACAD_REACTORS
330
431E
102
}
330
1F
100
AcDbEntity
  8
0
100
AcDbCircle
 10
115.8816928316519
 20
200.3087114718516
 30
0.0
 40
35.2
100
AcDbArc
 50
12.27620362238242
 51
16.47708861834114
1001
PHOENIX7010
1002
{
1070
    41
1040
1.0
1002
}
  0
LINE
  5
3A72
102
{ACAD_REACTORS
330
431E
102
}
330
1F
100
AcDbEntity
  8
0
100
AcDbLine
 10
141.8816928316519
 20
208.1997788752918
 30
0.0
 11
143.0072128300126
 21
208.1997788752918
 31
0.0
1001
PHOENIX7010
1002
{
1070
    41
1040
1.0
1002
}
  0
LINE
  5
3A73
102
{ACAD_REACTORS
330
431E
102
}
330
1F
100
AcDbEntity
  8
0
100
AcDbLine
 10
146.2816928316518
 20
208.3087114718516
 30
0.0
 11
146.2816928316518
 21
206.8087114718516
 31
0.0
1001
PHOENIX7010
1002
{
1070
    41
1040
1.0
1002
}
  0
LINE
  5
3A74
102
{ACAD_REACTORS
330
431E
102
}
330
1F
100
AcDbEntity
  8
0
100
AcDbLine
 10
148.2711230021228
 20
208.3087114718516
 30
0.0
 11
146.2816928316518
 21
208.3087114718516
 31
0.0
1001
PHOENIX7010
1002
{
1070
    41
1040
1.0
1002
}
  0
LINE
  5
3A75
102
{ACAD_REACTORS
330
431E
102
}
330
1F
100
AcDbEntity
  8
0
100
AcDbLine
 10
146.2816928316518
 20
206.8087114718516
 30
0.0
 11
148.2816928316518
 21
206.8087114718516
 31
0.0
1001
PHOENIX7010
1002
{
1070
    41
1040
1.0
1002
}
  0
LINE
  5
3A76
102
{ACAD_REACTORS
330
431E
102
}
330
1F
100
AcDbEntity
  8
0
100
AcDbLine
 10
146.2816928316518
 20
192.3087114718516
 30
0.0
 11
148.2711230021228
 21
192.3087114718516
 31
0.0
1001
PHOENIX7010
1002
{
1070
    41
1040
1.0
1002
}
  0
LINE
  5
3A77
102
{ACAD_REACTORS
330
431E
102
}
330
1F
100
AcDbEntity
  8
0
100
AcDbLine
 10
146.2816928316518
 20
193.8087114718516
 30
0.0
 11
146.2816928316518
 21
192.3087114718516
 31
0.0
1001
PHOENIX7010
1002
{
1070
    41
1040
1.0
1002
}
  0
LINE
  5
3A78
102
{ACAD_REACTORS
330
431E
102
}
330
1F
100
AcDbEntity
  8
0
100
AcDbLine
 10
148.2816928316518
 20
193.8087114718516
 30
0.0
 11
148.2485954351116
 21
193.8197349728179
 31
0.0
1001
PHOENIX7010
1002
{
1070
    41
1040
1.0
1002
}
  0
LINE
  5
3A79
102
{ACAD_REACTORS
330
431E
102
}
330
1F
100
AcDbEntity
  8
0
100
AcDbLine
 10
148.2816928316518
 20
193.8087114718516
 30
0.0
 11
146.2816928316518
 21
193.8087114718516
 31
0.0
1001
PHOENIX7010
1002
{
1070
    41
1040
1.0
1002
}
  0
LINE
  5
3A7A
102
{ACAD_REACTORS
330
431E
102
}
330
1F
100
AcDbEntity
  8
0
100
AcDbLine
 10
148.2816928316518
 20
206.8087114718516
 30
0.0
 11
148.2816928316518
 21
201.0587114718516
 31
0.0
1001
PHOENIX7010
1002
{
1070
    41
1040
1.0
1002
}
  0
LINE
  5
3A7B
102
{ACAD_REACTORS
330
431E
102
}
330
1F
100
AcDbEntity
  8
0
100
AcDbLine
 10
148.2816928316518
 20
199.5587114718516
 30
0.0
 11
148.2816928316518
 21
193.8087114718516
 31
0.0
1001
PHOENIX7010
1002
{
1070
    41
1040
1.0
1002
}
  0
ARC
  5
3A7C
102
{ACAD_REACTORS
330
431E
102
}
330
1F
100
AcDbEntity
  8
0
100
AcDbCircle
 10
143.0105475917406
 20
190.9216802998345
 30
0.0
 40
1.495967485451163
100
AcDbArc
 50
7.794715601789576
 51
90.12772196065096
1001
PHOENIX7010
1002
{
1070
    41
1040
1.0
1002
}
  0
ARC
  5
3A7D
102
{ACAD_REACTORS
330
431E
102
}
330
1F
100
AcDbEntity
  8
0
100
AcDbCircle
 10
144.6914583940715
 20
191.1457838743429
 30
0.0
 40
0.1998944142988584
100
AcDbArc
 50
186.0920999945846
 51
268.8458875169739
1001
PHOENIX7010
1002
{
1070
    41
1040
1.0
1002
}
  0
LINE
  5
3A7E
102
{ACAD_REACTORS
330
431E
102
}
330
1F
100
AcDbEntity
  8
0
100
AcDbLine
 10
147.5481581292684
 20
190.9459300115503
 30
0.0
 11
144.6874321806183
 21
190.9459300115503
 31
0.0
1001
PHOENIX7010
1002
{
1070
    41
1040
1.0
1002
}
  0
ARC
  5
3A7F
102
{ACAD_REACTORS
330
431E
102
}
330
1F
100
AcDbEntity
  8
0
100
AcDbCircle
 10
147.5515911335062
 20
191.4132438330124
 30
0.0
 40
0.4673264311424
100
AcDbArc
 50
269.5790984991246
 51
344.7378458518825
1001
PHOENIX7010
1002
{
1070
    41
1040
1.0
1002
}
  0
LINE
  5
3A80
102
{ACAD_REACTORS
330
431E
102
}
330
1F
100
AcDbEntity
  8
0
100
AcDbLine
 10
148.2816928316518
 20
199.5587114718516
 30
0.0
 11
147.3003914144461
 21
199.5587114718516
 31
0.0
1001
PHOENIX7010
1002
{
1070
    41
1040
1.0
1002
}
  0
LINE
  5
3A81
102
{ACAD_REACTORS
330
431E
102
}
330
1F
100
AcDbEntity
  8
0
100
AcDbLine
 10
147.3003914144461
 20
201.0587114718516
 30
0.0
 11
148.2816928316518
 21
201.0587114718516
 31
0.0
1001
PHOENIX7010
1002
{
1070
    41
1040
1.0
1002
}
  0
ARC
  5
3A82
102
{ACAD_REACTORS
330
431E
102
}
330
1F
100
AcDbEntity
  8
0
100
AcDbCircle
 10
147.5515911386312
 20
209.204179117453
 30
0.0
 40
0.4673264244180024
100
AcDbArc
 50
15.26215351368274
 51
90.42090213530823
1001
PHOENIX7010
1002
{
1070
    41
1040
1.0
1002
}
  0
LINE
  5
3A83
102
{ACAD_REACTORS
330
431E
102
}
330
1F
100
AcDbEntity
  8
0
100
AcDbLine
 10
144.6874321806183
 20
209.6714929321528
 30
0.0
 11
147.5481581297354
 21
209.6714929321528
 31
0.0
1001
PHOENIX7010
1002
{
1070
    41
1040
1.0
1002
}
  0
ARC
  5
3A84
102
{ACAD_REACTORS
330
431E
102
}
330
1F
100
AcDbEntity
  8
0
100
AcDbCircle
 10
144.6914607280994
 20
209.4716365249814
 30
0.0
 40
0.1998970051858092
100
AcDbArc
 50
91.15476665251366
 51
173.9072458359161
1001
PHOENIX7010
1002
{
1070
    41
1040
1.0
1002
}
  0
ARC
  5
3A85
102
{ACAD_REACTORS
330
431E
102
}
330
1F
100
AcDbEntity
  8
0
100
AcDbCircle
 10
143.010544716981
 20
209.6957459463842
 30
0.0
 40
1.495970781552838
100
AcDbArc
 50
269.8723884245462
 51
352.2051740130438
1001
PHOENIX7010
1002
{
1070
    41
1040
1.0
1002
}
  0
ARC
  5
3A86
102
{ACAD_REACTORS
330
431E
102
}
330
1F
100
AcDbEntity
  8
0
100
AcDbCircle
 10
148.0086192066378
 20
190.8058073443584
 30
0.0
 40
1.697095926743338
100
AcDbArc
 50
269.9855145969308
 51
343.5373967847249
1001
PHOENIX7010
1002
{
1070
    41
1040
1.0
1002
}
  0
ARC
  5
3A87
102
{ACAD_REACTORS
330
431E
102
}
330
1F
100
AcDbEntity
  8
0
100
AcDbCircle
 10
149.8868922814558
 20
192.9095833848795
 30
0.0
 40
0.3991282891622099
100
AcDbArc
 50
347.666124873415
 51
90.05767150420076
1001
PHOENIX7010
1002
{
1070
    41
1040
1.0
1002
}
  0
LINE
  5
3A88
102
{ACAD_REACTORS
330
431E
102
}
330
1F
100
AcDbEntity
  8
0
100
AcDbLine
 10
149.8864905358978
 20
193.3087114718516
 30
0.0
 11
149.781692831652
 21
193.3087114718516
 31
0.0
1001
PHOENIX7010
1002
{
1070
    41
1040
1.0
1002
}
  0
LINE
  5
3A89
102
{ACAD_REACTORS
330
431E
102
}
330
1F
100
AcDbEntity
  8
0
100
AcDbLine
 10
149.7816928316519
 20
193.3087114718516
 30
0.0
 11
149.7816928316519
 21
207.3087114718516
 31
0.0
1001
PHOENIX7010
1002
{
1070
    41
1040
1.0
1002
}
  0
LINE
  5
3A8A
102
{ACAD_REACTORS
330
431E
102
}
330
1F
100
AcDbEntity
  8
0
  6
ACAD_ISO04W100
 62
     1
 48
0.248204978792194
370
    25
100
AcDbLine
 10
120.8816928316519
 20
134.7284800861267
 30
0.0
 11
120.8816928316519
 21
150.1171887712428
 31
0.0
1001
PHOENIX7010
1002
{
1070
    41
1040
1.0
1002
}
  0
LINE
  5
3AE0
102
{ACAD_REACTORS
330
431E
102
}
330
1F
100
AcDbEntity
  8
0
100
AcDbLine
 10
149.7816928316519
 20
207.3087114718516
 30
0.0
 11
149.8864905358978
 21
207.3087114718516
 31
0.0
1001
PHOENIX7010
1002
{
1070
    41
1040
1.0
1002
}
  0
LINE
  5
3AE1
102
{ACAD_REACTORS
330
431E
102
}
330
1F
100
AcDbEntity
  8
0
100
AcDbLine
 10
142.128599819746
 20
188.0563036925686
 30
0.0
 11
148.0064496400698
 21
188.0563036925686
 31
0.0
1001
PHOENIX7010
1002
{
1070
    41
1040
1.0
1002
}
  0
LINE
  5
3AE2
102
{ACAD_REACTORS
330
431E
102
}
330
1F
100
AcDbEntity
  8
0
100
AcDbLine
 10
148.0064496400698
 20
187.8087114718516
 30
0.0
 11
142.133141285263
 21
187.8087114718516
 31
0.0
1001
PHOENIX7010
1002
{
1070
    41
1040
1.0
1002
}
  0
LINE
  5
3AE3
102
{ACAD_REACTORS
330
431E
102
}
330
1F
100
AcDbEntity
  8
0
100
AcDbLine
 10
141.4341006109349
 20
212.1096707975234
 30
0.0
 11
141.4341006109349
 21
211.2563036925687
 31
0.0
1001
PHOENIX7010
1002
{
1070
    41
1040
1.0
1002
}
  0
ELLIPSE
  5
3AE4
102
{ACAD_REACTORS
330
431E
102
}
330
1F
100
AcDbEntity
  8
0
100
AcDbEllipse
 10
142.1350612531334
 20
212.1077508296532
 30
0.0
 11
-0.4963323704045593
 21
0.4963323704045593
 31
0.0
210
0.0
220
0.0
230
-0.9999999999999998
 40
0.997264688634168
 41
5.499156671652467
 42
7.067213942706704
1001
PHOENIX7010
1002
{
1070
    41
1040
1.0
1002
}
  0
LINE
  5
3AE5
102
{ACAD_REACTORS
330
431E
102
}
330
1F
100
AcDbEntity
  8
0
100
AcDbLine
 10
142.1331412852631
 20
212.8087114718516
 30
0.0
 11
148.0064496400699
 21
212.8087114718516
 31
0.0
1001
PHOENIX7010
1002
{
1070
    41
1040
1.0
1002
}
  0
ARC
  5
3AE6
102
{ACAD_REACTORS
330
431E
102
}
330
1F
100
AcDbEntity
  8
0
100
AcDbCircle
 10
151.4545712075171
 20
206.4602696273822
 30
0.0
 40
0.3991505368315742
100
AcDbArc
 50
269.9486050674553
 51
9.862997014431183
1001
PHOENIX7010
1002
{
1070
    41
1040
1.0
1002
}
  0
LINE
  5
3AE7
102
{ACAD_REACTORS
330
431E
102
}
330
1F
100
AcDbEntity
  8
0
100
AcDbLine
 10
151.4246735221866
 20
206.0611192511346
 30
0.0
 11
151.4542131652258
 21
206.0611192511346
 31
0.0
1001
PHOENIX7010
1002
{
1070
    41
1040
1.0
1002
}
  0
ARC
  5
3AE8
102
{ACAD_REACTORS
330
431E
102
}
330
1F
100
AcDbEntity
  8
0
100
AcDbCircle
 10
151.4246301977324
 20
206.0112247019805
 30
0.0
 40
0.0498945679638552
100
AcDbArc
 50
89.95024891917912
 51
189.1645450784159
1001
PHOENIX7010
1002
{
1070
    41
1040
1.0
1002
}
  0
ARC
  5
3AE9
102
{ACAD_REACTORS
330
431E
102
}
330
1F
100
AcDbEntity
  8
0
100
AcDbCircle
 10
151.4246301977328
 20
194.6061982417228
 30
0.0
 40
0.0498945679641081
100
AcDbArc
 50
170.8354549219265
 51
270.0497510805083
1001
PHOENIX7010
1002
{
1070
    41
1040
1.0
1002
}
  0
LINE
  5
3AEA
102
{ACAD_REACTORS
330
431E
102
}
330
1F
100
AcDbEntity
  8
0
100
AcDbLine
 10
151.4542131652258
 20
194.5563036925685
 30
0.0
 11
151.4246735221866
 21
194.5563036925685
 31
0.0
1001
PHOENIX7010
1002
{
1070
    41
1040
1.0
1002
}
  0
ARC
  5
3AEB
102
{ACAD_REACTORS
330
431E
102
}
330
1F
100
AcDbEntity
  8
0
100
AcDbCircle
 10
151.4545712074981
 20
194.157153316305
 30
0.0
 40
0.3991505368474954
100
AcDbArc
 50
350.1370029882929
 51
90.05139492983493
1001
PHOENIX7010
1002
{
1070
    41
1040
1.0
1002
}
  0
ELLIPSE
  5
3AEC
102
{ACAD_REACTORS
330
431E
102
}
330
1F
100
AcDbEntity
  8
0
100
AcDbEllipse
 10
142.1350612531334
 20
188.5096721140502
 30
0.0
 11
0.4963323704045593
 21
0.4963323704045593
 31
0.0
210
0.0
220
0.0
230
-0.9999999999999998
 40
0.997264688634168
 41
2.357564018062674
 42
3.925621289116911
1001
PHOENIX7010
1002
{
1070
    41
1040
1.0
1002
}
  0
LINE
  5
3AED
102
{ACAD_REACTORS
330
431E
102
}
330
1F
100
AcDbEntity
  8
0
100
AcDbLine
 10
141.4341006109349
 20
189.3611192511347
 30
0.0
 11
141.4341006109349
 21
188.5077521461798
 31
0.0
1001
PHOENIX7010
1002
{
1070
    41
1040
1.0
1002
}
  0
LINE
  5
3AEE
102
{ACAD_REACTORS
330
431E
102
}
330
1F
100
AcDbEntity
  8
0
100
AcDbLine
 10
141.6292850523689
 20
188.5556184599458
 30
0.0
 11
141.6292850523689
 21
189.5563036925685
 31
0.0
1001
PHOENIX7010
1002
{
1070
    41
1040
1.0
1002
}
  0
ELLIPSE
  5
3AEF
102
{ACAD_REACTORS
330
431E
102
}
330
1F
100
AcDbEntity
  8
0
100
AcDbEllipse
 10
142.1299712253678
 20
188.5569898655675
 30
0.0
 11
0.3545231217175626
 21
0.3545231217175627
 31
0.0
210
0.0
220
0.0
230
-1.0
 40
0.9972646886342161
 41
2.357564018062633
 42
3.925621289116838
1001
PHOENIX7010
1002
{
1070
    41
1040
1.0
1002
}
  0
ARC
  5
3AF0
102
{ACAD_REACTORS
330
431E
102
}
330
1F
100
AcDbEntity
  8
0
100
AcDbCircle
 10
151.4066006161599
 20
194.1615440911138
 30
0.0
 40
0.1995752403592416
100
AcDbArc
 50
350.131157088892
 51
90.05140983231818
1001
PHOENIX7010
1002
{
1070
    41
1040
1.0
1002
}
  0
LINE
  5
3AF1
102
{ACAD_REACTORS
330
431E
102
}
330
1F
100
AcDbEntity
  8
0
100
AcDbLine
 10
151.40642154314
 20
194.3611192511347
 30
0.0
 11
151.1371204249185
 21
194.3611192511347
 31
0.0
1001
PHOENIX7010
1002
{
1070
    41
1040
1.0
1002
}
  0
LINE
  5
3AF2
102
{ACAD_REACTORS
330
431E
102
}
330
1F
100
AcDbEntity
  8
0
100
AcDbLine
 10
151.1831096469832
 20
194.6479135734652
 30
0.0
 11
151.1371204249185
 21
194.3611192511347
 31
0.0
1001
PHOENIX7010
1002
{
1070
    41
1040
1.0
1002
}
  0
LINE
  5
3AF3
102
{ACAD_REACTORS
330
431E
102
}
330
1F
100
AcDbEntity
  8
0
100
AcDbLine
 10
151.1831096469832
 20
205.9695093702382
 30
0.0
 11
151.1371204249185
 21
206.2563036925686
 31
0.0
1001
PHOENIX7010
1002
{
1070
    41
1040
1.0
1002
}
  0
LINE
  5
3AF4
102
{ACAD_REACTORS
330
431E
102
}
330
1F
100
AcDbEntity
  8
0
100
AcDbLine
 10
151.40642154314
 20
206.2563036925686
 30
0.0
 11
151.1371204249185
 21
206.2563036925686
 31
0.0
1001
PHOENIX7010
1002
{
1070
    41
1040
1.0
1002
}
  0
ARC
  5
3AF5
102
{ACAD_REACTORS
330
431E
102
}
330
1F
100
AcDbEntity
  8
0
100
AcDbCircle
 10
151.4066006161647
 20
206.4558788525855
 30
0.0
 40
0.199575240355274
100
AcDbArc
 50
269.9485901663009
 51
9.868842912483623
1001
PHOENIX7010
1002
{
1070
    41
1040
1.0
1002
}
  0
LINE
  5
3AF6
102
{ACAD_REACTORS
330
431E
102
}
330
1F
100
AcDbEntity
  8
0
100
AcDbLine
 10
148.0064496400698
 20
212.5611192511346
 30
0.0
 11
142.128599819746
 21
212.5611192511346
 31
0.0
1001
PHOENIX7010
1002
{
1070
    41
1040
1.0
1002
}
  0
ELLIPSE
  5
3AF7
102
{ACAD_REACTORS
330
431E
102
}
330
1F
100
AcDbEntity
  8
0
100
AcDbEllipse
 10
142.1299712253678
 20
212.0604330781356
 30
0.0
 11
-0.3545231217175341
 21
0.354523121717534
 31
0.0
210
0.0
220
0.0
230
-1.0
 40
0.9972646886343763
 41
5.499156671652619
 42
7.067213942706437
1001
PHOENIX7010
1002
{
1070
    41
1040
1.0
1002
}
  0
LINE
  5
3AF8
102
{ACAD_REACTORS
330
431E
102
}
330
1F
100
AcDbEntity
  8
0
100
AcDbLine
 10
141.6292850523689
 20
212.0618044837573
 30
0.0
 11
141.6292850523689
 21
211.0611192511345
 31
0.0
1001
PHOENIX7010
1002
{
1070
    41
1040
1.0
1002
}
  0
ARC
  5
3AF9
102
{ACAD_REACTORS
330
431E
102
}
330
1F
100
AcDbEntity
  8
0
100
AcDbCircle
 10
148.0086192062473
 20
209.8116155988222
 30
0.0
 40
1.69709592726593
100
AcDbArc
 50
16.46260322842492
 51
90.01448538985922
1001
PHOENIX7010
1002
{
1070
    41
1040
1.0
1002
}
  0
LINE
  5
3AFA
102
{ACAD_REACTORS
330
431E
102
}
330
1F
100
AcDbEntity
  8
0
100
AcDbLine
 10
148.0081901502832
 20
211.5087114718515
 30
0.0
 11
143.0811446455536
 21
211.5087114718515
 31
0.0
1001
PHOENIX7010
1002
{
1070
    41
1040
1.0
1002
}
  0
LINE
  5
3AFB
102
{ACAD_REACTORS
330
431E
102
}
330
1F
100
AcDbEntity
  8
0
100
AcDbLine
 10
143.0811446455536
 20
189.1087114718515
 30
0.0
 11
148.0081901502832
 21
189.1087114718515
 31
0.0
1001
PHOENIX7010
1002
{
1070
    41
1040
1.0
1002
}
  0
ELLIPSE
  5
3AFC
102
{ACAD_REACTORS
330
431E
102
}
330
1F
100
AcDbEntity
  8
0
100
AcDbEllipse
 10
143.082241770051
 20
189.5092604102507
 30
0.0
 11
0.2836184973740501
 21
0.2836184973740501
 31
0.0
210
0.0
220
0.0
230
-0.9999999999999998
 40
0.9972646886340738
 41
2.357564018062646
 42
3.925621289116866
1001
PHOENIX7010
1002
{
1070
    41
1040
1.0
1002
}
  0
ELLIPSE
  5
3AFD
102
{ACAD_REACTORS
330
431E
102
}
330
1F
100
AcDbEntity
  8
0
100
AcDbEllipse
 10
143.082241770051
 20
211.1081625334524
 30
0.0
 11
-0.2836184973740359
 21
0.2836184973740359
 31
0.0
210
0.0
220
0.0
230
-0.9999999999999998
 40
0.9972646886343163
 41
5.499156671652491
 42
7.06721394270661
1001
PHOENIX7010
1002
{
1070
    41
1040
1.0
1002
}
  0
LINE
  5
3AFE
102
{ACAD_REACTORS
330
431E
102
}
330
1F
100
AcDbEntity
  8
0
100
AcDbLine
 10
142.6816928316518
 20
211.1092596579498
 30
0.0
 11
142.6816928316518
 21
210.0087114718516
 31
0.0
1001
PHOENIX7010
1002
{
1070
    41
1040
1.0
1002
}
  0
ARC
  5
3AFF
102
{ACAD_REACTORS
330
431E
102
}
330
1F
100
AcDbEntity
  8
0
100
AcDbCircle
 10
149.8868922814379
 20
207.7078395588382
 30
0.0
 40
0.3991282891766308
100
AcDbArc
 50
269.9423284983786
 51
12.33387512399868
1001
PHOENIX7010
1002
{
1070
    41
1040
1.0
1002
}
  0
LINE
  5
3B00
102
{ACAD_REACTORS
330
431E
102
}
330
1F
100
AcDbEntity
  8
0
100
AcDbLine
 10
142.6816928316518
 20
190.6087114718515
 30
0.0
 11
142.6816928316518
 21
189.5081632857536
 31
0.0
1001
PHOENIX7010
1002
{
1070
    41
1040
1.0
1002
}
  0
ARC
  5
3B01
102
{ACAD_REACTORS
330
431E
102
}
330
1F
100
AcDbEntity
  8
0
  6
Continuous
 62
     7
370
    50
100
AcDbCircle
 10
97.88169283165188
 20
200.3087114718516
 30
0.0
 40
6.0
100
AcDbArc
 50
222.8334280660849
 51
277.4947174539164
1001
PHOENIX7010
1002
{
1070
    41
1040
1.0
1002
}
  0
ARC
  5
3B02
102
{ACAD_REACTORS
330
431E
102
}
330
1F
100
AcDbEntity
  8
0
  6
Continuous
 62
     7
370
    50
100
AcDbCircle
 10
97.88169283165188
 20
200.3087114718516
 30
0.0
 40
6.0
100
AcDbArc
 50
82.5052825460836
 51
137.166571933915
1001
PHOENIX7010
1002
{
1070
    41
1040
1.0
1002
}
  0
LINE
  5
3B03
102
{ACAD_REACTORS
330
431E
102
}
330
1F
100
AcDbEntity
  8
0
100
AcDbLine
 10
99.88169283165188
 20
208.1997788752918
 30
0.0
 11
99.88169283165188
 21
204.3087114718516
 31
0.0
1001
PHOENIX7010
1002
{
1070
    41
1040
1.0
1002
}
  0
ARC
  5
3B04
102
{ACAD_REACTORS
330
431E
102
}
330
1F
100
AcDbEntity
  8
0
  6
Continuous
 62
     7
370
    50
100
AcDbCircle
 10
143.8816928316519
 20
200.3087114718516
 30
0.0
 40
6.0
100
AcDbArc
 50
262.5052825460835
 51
317.1665719339151
1001
PHOENIX7010
1002
{
1070
    41
1040
1.0
1002
}
  0
ARC
  5
3B05
102
{ACAD_REACTORS
330
431E
102
}
330
1F
100
AcDbEntity
  8
0
  6
Continuous
 62
     7
370
    50
100
AcDbCircle
 10
143.8816928316519
 20
200.3087114718516
 30
0.0
 40
6.0
100
AcDbArc
 50
42.83342806608493
 51
97.49471745391645
1001
PHOENIX7010
1002
{
1070
    41
1040
1.0
1002
}
  0
LINE
  5
3B06
102
{ACAD_REACTORS
330
431E
102
}
330
1F
100
AcDbEntity
  8
0
100
AcDbLine
 10
207.6504550478007
 20
208.0910344604115
 30
0.0
 11
209.7254220921604
 21
208.1997788752919
 31
0.0
1001
PHOENIX7010
1002
{
1070
    41
1040
1.0
1002
}
  0
LINE
  5
3B07
102
{ACAD_REACTORS
330
431E
102
}
330
1F
100
AcDbEntity
  8
0
  6
ACAD_ISO04W100
 62
     1
 48
0.1613021309767279
370
    25
100
AcDbLine
 10
268.7254220921604
 20
195.3083454115732
 30
0.0
 11
268.7254220921604
 21
205.3090775321304
 31
0.0
1001
PHOENIX7010
1002
{
1070
    41
1040
1.0
1002
}
  0
ARC
  5
3B08
102
{ACAD_REACTORS
330
431E
102
}
330
1F
100
AcDbEntity
  8
0
100
AcDbCircle
 10
291.7254220921604
 20
200.3087114718518
 30
0.0
 40
21.5
100
AcDbArc
 50
191.8831359821913
 51
203.7984928287397
1001
PHOENIX7010
1002
{
1070
    41
1040
1.0
1002
}
  0
ARC
  5
3B09
102
{ACAD_REACTORS
330
431E
102
}
330
1F
100
AcDbEntity
  8
0
100
AcDbCircle
 10
291.7254220921604
 20
200.3087114718518
 30
0.0
 40
21.5
100
AcDbArc
 50
156.2015071712601
 51
168.1168640178086
1001
PHOENIX7010
1002
{
1070
    41
1040
1.0
1002
}
  0
CIRCLE
  5
3B0A
102
{ACAD_REACTORS
330
431E
102
}
330
1F
100
AcDbEntity
  8
0
100
AcDbCircle
 10
268.7254220921604
 20
200.3087114718518
 30
0.0
 40
3.199999999999998
1001
PHOENIX7010
1002
{
1070
    41
1040
1.0
1002
}
  0
ARC
  5
3B0B
102
{ACAD_REACTORS
330
431E
102
}
330
1F
100
AcDbEntity
  8
0
100
AcDbCircle
 10
296.7254220921605
 20
200.3087114718518
 30
0.0
 40
36.5
100
AcDbArc
 50
163.5258881106559
 51
170.1883979181411
1001
PHOENIX7010
1002
{
1070
    41
1040
1.0
1002
}
  0
ARC
  5
3B0C
102
{ACAD_REACTORS
330
431E
330
98C1
102
}
330
1F
100
AcDbEntity
  8
0
100
AcDbCircle
 10
296.7254220921605
 20
200.3087114718518
 30
0.0
 40
35.94759222071696
100
AcDbArc
 50
170.8852060024169
 51
189.114793997583
1001
PHOENIX7010
1002
{
1070
    41
1040
1.0
1002
}
  0
ARC
  5
3B0D
102
{ACAD_REACTORS
330
431E
102
}
330
1F
100
AcDbEntity
  8
0
100
AcDbCircle
 10
296.7254220921605
 20
200.3087114718518
 30
0.0
 40
36.5
100
AcDbArc
 50
189.8116020818588
 51
196.4741118893156
1001
PHOENIX7010
1002
{
1070
    41
1040
1.0
1002
}
  0
CIRCLE
  5
3B0E
102
{ACAD_REACTORS
330
431E
102
}
330
1F
100
AcDbEntity
  8
0
100
AcDbCircle
 10
268.7254220921604
 20
200.3087114718518
 30
0.0
 40
1.7
1001
PHOENIX7010
1002
{
1070
    41
1040
1.0
1002
}
  0
CIRCLE
  5
3B0F
102
{ACAD_REACTORS
330
431E
102
}
330
1F
100
AcDbEntity
  8
0
100
AcDbCircle
 10
268.7254220921604
 20
200.3087114718518
 30
0.0
 40
2.799999999999998
1001
PHOENIX7010
1002
{
1070
    41
1040
1.0
1002
}
  0
SPLINE
  5
3B15
102
{ACAD_REACTORS
330
431E
102
}
330
1F
100
AcDbEntity
  8
0
100
AcDbSpline
210
0.0
220
0.0
230
1.0
 70
     8
 71
     3
 72
    16
 73
    12
 74
     0
 42
0.0000000001
 43
0.0000000001
 40
-1.5766872410707
 40
-1.5766872410707
 40
-1.5766872410707
 40
-1.5766872410707
 40
-1.57473694690516
 40
-1.57473694690516
 40
-1.159055661645165
 40
-1.159055661645165
 40
-0.7489248124767284
 40
-0.7489248124767284
 40
-0.3668197769070979
 40
-0.3668197769070979
 40
0.0
 40
0.0
 40
0.0
 40
0.0
 10
271.7339939626629
 20
210.2837298908086
 30
0.0
 10
271.7342265340761
 20
210.2836980214457
 30
0.0
 10
271.7344591058672
 20
210.2836655966481
 30
0.0
 10
271.7842615220163
 20
210.2766032930432
 30
0.0
 10
271.8335875532992
 20
210.2443789487069
 30
0.0
 10
271.9254952788087
 20
210.132625490924
 30
0.0
 10
271.9675974928236
 20
210.0544017473461
 30
0.0
 10
272.0368327444151
 20
209.8652708544789
 30
0.0
 10
272.0642117405553
 20
209.7585068968132
 30
0.0
 10
272.1023828969996
 20
209.5278375013328
 30
0.0
 10
272.1133604554044
 20
209.4073490432583
 30
0.0
 10
272.1158092556092
 20
209.2851003535467
 30
0.0
1001
PHOENIX7010
1002
{
1070
    41
1040
1.0
1002
}
  0
SPLINE
  5
3B16
102
{ACAD_REACTORS
330
431E
102
}
330
1F
100
AcDbEntity
  8
0
100
AcDbSpline
210
0.0
220
0.0
230
1.0
 70
     8
 71
     3
 72
    16
 73
    12
 74
     0
 42
0.0000000001
 43
0.0000000001
 40
-1.578956058437073
 40
-1.578956058437073
 40
-1.578956058437073
 40
-1.578956058437073
 40
-1.211153469732729
 40
-1.211153469732729
 40
-0.8280246669770971
 40
-0.8280246669770971
 40
-0.4167949609668101
 40
-0.4167949609668101
 40
0.0
 40
0.0
 40
0.0019555195456042
 40
0.0019555195456042
 40
0.0019555195456042
 40
0.0019555195456042
 10
272.1158092555655
 20
191.3323225879816
 30
0.0
 10
272.1133604526269
 20
191.2100738587026
 30
0.0
 10
272.1023828922995
 20
191.0895854014874
 30
0.0
 10
272.0642117321554
 20
190.8589160091296
 30
0.0
 10
272.0368327342029
 20
190.7521520538018
 30
0.0
 10
271.9675974792863
 20
190.5630211674553
 30
0.0
 10
271.9254952637823
 20
190.4847974281209
 30
0.0
 10
271.8335875417594
 20
190.373043987439
 30
0.0
 10
271.7842615160928
 20
190.340819649835
 30
0.0
 10
271.7344591058684
 20
190.3337573470552
 30
0.0
 10
271.7342265340766
 20
190.3337249222575
 30
0.0
 10
271.7339939626629
 20
190.333693052895
 30
0.0
1001
PHOENIX7010
1002
{
1070
    41
1040
1.0
1002
}
  0
ARC
  5
3B17
102
{ACAD_REACTORS
330
431E
102
}
330
1F
100
AcDbEntity
  8
0
100
AcDbCircle
 10
271.4086039229759
 20
191.3426993428894
 30
0.0
 40
0.707281457055896
100
AcDbArc
 50
359.1593649367614
 51
24.23328840123143
1001
PHOENIX7010
1002
{
1070
    41
1040
1.0
1002
}
  0
SPLINE
  5
3B18
102
{ACAD_REACTORS
330
431E
102
}
330
1F
100
AcDbEntity
  8
0
100
AcDbSpline
210
0.0
220
0.0
230
1.0
 70
     8
 71
     3
 72
    14
 73
    10
 74
     0
 42
0.0000000001
 43
0.0000000001
 40
0.0
 40
0.0
 40
0.0
 40
0.0
 40
0.1456469032191184
 40
0.1456469032191184
 40
0.3288791907115989
 40
0.3288791907115989
 40
0.5727800530668499
 40
0.5727800530668499
 40
0.8358427177962488
 40
0.8358427177962488
 40
0.8358427177962488
 40
0.8358427177962488
 10
270.6861749322704
 20
195.8815138316892
 30
0.0
 10
270.6761779148095
 20
195.9290223773465
 30
0.0
 10
270.6568052936176
 20
195.9736635817241
 30
0.0
 10
270.5972530498899
 20
196.0658923676109
 30
0.0
 10
270.5537086706233
 20
196.1102477032024
 30
0.0
 10
270.4398396992078
 20
196.1967642228749
 30
0.0
 10
270.361358145601
 20
196.2364873240204
 30
0.0
 10
270.1790609788046
 20
196.294190632209
 30
0.0
 10
270.0784670113909
 20
196.3087114718518
 30
0.0
 10
269.9790294811773
 20
196.3087114718518
 30
0.0
1001
PHOENIX7010
1002
{
1070
    41
1040
1.0
1002
}
  0
SPLINE
  5
3B19
102
{ACAD_REACTORS
330
431E
102
}
330
1F
100
AcDbEntity
  8
0
100
AcDbSpline
210
0.0
220
0.0
230
1.0
 70
     8
 71
     3
 72
    14
 73
    10
 74
     0
 42
0.0000000001
 43
0.0000000001
 40
0.0
 40
0.0
 40
0.0
 40
0.0
 40
0.3859705180315469
 40
0.3859705180315469
 40
0.6916068981750989
 40
0.6916068981750989
 40
0.8499058958970417
 40
0.8499058958970417
 40
0.9985241198167456
 40
0.9985241198167456
 40
0.9985241198167456
 40
0.9985241198167456
 10
269.9790294811773
 20
204.3087114718518
 30
0.0
 10
270.1076863205212
 20
204.3087114718518
 30
0.0
 10
270.2339233424195
 20
204.3329941597541
 30
0.0
 10
270.4321324289524
 20
204.4155110016412
 30
0.0
 10
270.5075681431846
 20
204.464662707591
 30
0.0
 10
270.5959198730733
 20
204.5535011887456
 30
0.0
 10
270.6224542862772
 20
204.5873440699064
 30
0.0
 10
270.663271084587
 20
204.6593801715982
 30
0.0
 10
270.6779257949298
 20
204.6967069680238
 30
0.0
 10
270.6861749322704
 20
204.7359091120142
 30
0.0
1001
PHOENIX7010
1002
{
1070
    41
1040
1.0
1002
}
  0
ARC
  5
3B1A
102
{ACAD_REACTORS
330
431E
102
}
330
1F
100
AcDbEntity
  8
0
100
AcDbCircle
 10
271.4087093667688
 20
209.2747017716339
 30
0.0
 40
0.7071763453161816
100
AcDbArc
 50
335.7648178192987
 51
0.8425286463895965
1001
PHOENIX7010
1002
{
1070
    41
1040
1.0
1002
}
  0
LINE
  5
3B1B
102
{ACAD_REACTORS
330
431E
102
}
330
1F
100
AcDbEntity
  8
0
100
AcDbLine
 10
264.6006652837423
 20
187.8087114718518
 30
0.0
 11
270.4739736385492
 21
187.8087114718518
 31
0.0
1001
PHOENIX7010
1002
{
1070
    41
1040
1.0
1002
}
  0
ARC
  5
3B1C
102
{ACAD_REACTORS
330
431E
102
}
330
1F
100
AcDbEntity
  8
0
100
AcDbCircle
 10
264.6006652837423
 20
190.8087114718518
 30
0.0
 40
2.999999999999998
100
AcDbArc
 50
269.9413625078723
 51
270.0
1001
PHOENIX7010
1002
{
1070
    41
1040
1.0
1002
}
  0
LINE
  5
3B1D
102
{ACAD_REACTORS
330
431E
102
}
330
1F
100
AcDbEntity
  8
0
100
AcDbLine
 10
271.1730143128774
 20
212.1096707975236
 30
0.0
 11
271.1730143128774
 21
211.2563036925687
 31
0.0
1001
PHOENIX7010
1002
{
1070
    41
1040
1.0
1002
}
  0
ELLIPSE
  5
3B1E
102
{ACAD_REACTORS
330
431E
102
}
330
1F
100
AcDbEntity
  8
0
100
AcDbEllipse
 10
270.4720536706789
 20
212.1077508296532
 30
0.0
 11
0.4963323704045879
 21
0.4963323704045879
 31
0.0
210
0.0
220
0.0
230
-1.0
 40
0.9972646886340536
 41
-0.7840286355271762
 42
0.7840286355270952
1001
PHOENIX7010
1002
{
1070
    41
1040
1.0
1002
}
  0
LINE
  5
3B1F
102
{ACAD_REACTORS
330
431E
102
}
330
1F
100
AcDbEntity
  8
0
100
AcDbLine
 10
270.4739736385492
 20
212.8087114718518
 30
0.0
 11
264.6006652837423
 21
212.8087114718518
 31
0.0
1001
PHOENIX7010
1002
{
1070
    41
1040
1.0
1002
}
  0
ARC
  5
3B20
102
{ACAD_REACTORS
330
431E
102
}
330
1F
100
AcDbEntity
  8
0
100
AcDbCircle
 10
261.1525437162952
 20
206.4602696273825
 30
0.0
 40
0.3991505368315742
100
AcDbArc
 50
170.1370029855688
 51
270.0513949325447
1001
PHOENIX7010
1002
{
1070
    41
1040
1.0
1002
}
  0
LINE
  5
3B21
102
{ACAD_REACTORS
330
431E
102
}
330
1F
100
AcDbEntity
  8
0
100
AcDbLine
 10
261.1824414016258
 20
206.0611192511348
 30
0.0
 11
261.1529017585865
 21
206.0611192511348
 31
0.0
1001
PHOENIX7010
1002
{
1070
    41
1040
1.0
1002
}
  0
ARC
  5
3B22
102
{ACAD_REACTORS
330
431E
102
}
330
1F
100
AcDbEntity
  8
0
100
AcDbCircle
 10
261.1824847260798
 20
206.0112247019807
 30
0.0
 40
0.0498945679638552
100
AcDbArc
 50
350.8354549215841
 51
90.04975108082087
1001
PHOENIX7010
1002
{
1070
    41
1040
1.0
1002
}
  0
ARC
  5
3B23
102
{ACAD_REACTORS
330
431E
102
}
330
1F
100
AcDbEntity
  8
0
100
AcDbCircle
 10
261.1824847260796
 20
194.6061982417231
 30
0.0
 40
0.0498945679641081
100
AcDbArc
 50
269.9502489195179
 51
9.16454507807351
1001
PHOENIX7010
1002
{
1070
    41
1040
1.0
1002
}
  0
LINE
  5
3B24
102
{ACAD_REACTORS
330
431E
102
}
330
1F
100
AcDbEntity
  8
0
100
AcDbLine
 10
261.1529017585865
 20
194.5563036925688
 30
0.0
 11
261.1824414016258
 21
194.5563036925688
 31
0.0
1001
PHOENIX7010
1002
{
1070
    41
1040
1.0
1002
}
  0
ARC
  5
3B25
102
{ACAD_REACTORS
330
431E
102
}
330
1F
100
AcDbEntity
  8
0
100
AcDbCircle
 10
261.1525437163141
 20
194.1571533163052
 30
0.0
 40
0.3991505368474954
100
AcDbArc
 50
89.94860507013902
 51
189.862997011707
1001
PHOENIX7010
1002
{
1070
    41
1040
1.0
1002
}
  0
ELLIPSE
  5
3B26
102
{ACAD_REACTORS
330
431E
102
}
330
1F
100
AcDbEntity
  8
0
100
AcDbEllipse
 10
270.4720536706789
 20
188.5096721140502
 30
0.0
 11
-0.4963323704045593
 21
0.4963323704045593
 31
0.0
210
0.0
220
0.0
230
-1.0
 40
0.997264688634168
 41
2.357564018062674
 42
3.925621289116911
1001
PHOENIX7010
1002
{
1070
    41
1040
1.0
1002
}
  0
LINE
  5
3B27
102
{ACAD_REACTORS
330
431E
102
}
330
1F
100
AcDbEntity
  8
0
100
AcDbLine
 10
271.1730143128774
 20
189.3611192511347
 30
0.0
 11
271.1730143128774
 21
188.50775214618
 31
0.0
1001
PHOENIX7010
1002
{
1070
    41
1040
1.0
1002
}
  0
LINE
  5
3B28
102
{ACAD_REACTORS
330
431E
102
}
330
1F
100
AcDbEntity
  8
0
100
AcDbLine
 10
268.7254147341343
 20
196.3083455595337
 30
0.0
 11
268.556757404966
 21
196.3117370415138
 31
0.0
1001
PHOENIX7010
1002
{
1070
    41
1040
1.0
1002
}
  0
ARC
  5
3B29
102
{ACAD_REACTORS
330
431E
102
}
330
1F
100
AcDbEntity
  8
0
100
AcDbCircle
 10
268.7363245024919
 20
200.3326909413781
 30
0.0
 40
4.02442996075587
100
AcDbArc
 50
223.6587820452517
 51
267.4428078477729
1001
PHOENIX7010
1002
{
1070
    41
1040
1.0
1002
}
  0
ARC
  5
3B2A
102
{ACAD_REACTORS
330
431E
102
}
330
1F
100
AcDbEntity
  8
0
100
AcDbCircle
 10
268.725422152088
 20
200.3087114718518
 30
0.0
 40
4.000000043456859
100
AcDbArc
 50
136.4819037952246
 51
223.5180962392562
1001
PHOENIX7010
1002
{
1070
    41
1040
1.0
1002
}
  0
ARC
  5
3B2B
102
{ACAD_REACTORS
330
431E
102
}
330
1F
100
AcDbEntity
  8
0
100
AcDbCircle
 10
268.7281766039905
 20
200.304346214515
 30
0.0
 40
4.004478338689118
100
AcDbArc
 50
92.45324980502457
 51
136.4942798512166
1001
PHOENIX7010
1002
{
1070
    41
1040
1.0
1002
}
  0
LINE
  5
3B2C
102
{ACAD_REACTORS
330
431E
102
}
330
1F
100
AcDbEntity
  8
0
100
AcDbLine
 10
268.7254147341343
 20
204.3090773841699
 30
0.0
 11
268.556757404966
 21
204.3056859021896
 31
0.0
1001
PHOENIX7010
1002
{
1070
    41
1040
1.0
1002
}
  0
LINE
  5
3B2D
102
{ACAD_REACTORS
330
431E
102
}
330
1F
100
AcDbEntity
  8
0
100
AcDbLine
 10
261.7247714284374
 20
189.9547580780785
 30
0.0
 11
261.7238210926426
 21
189.9579651149459
 31
0.0
1001
PHOENIX7010
1002
{
1070
    41
1040
1.0
1002
}
  0
SPLINE
  5
3B2E
102
{ACAD_REACTORS
330
431E
102
}
330
1F
100
AcDbEntity
  8
0
100
AcDbSpline
210
0.0
220
0.0
230
1.0
 70
     8
 71
     3
 72
     8
 73
     4
 74
     0
 42
0.0000000001
 43
0.0000000001
 40
0.0
 40
0.0
 40
0.0
 40
0.0
 40
0.0777416131806741
 40
0.0777416131806741
 40
0.0777416131806741
 40
0.0777416131806741
 10
271.0076928029375
 20
189.5264407610746
 30
0.0
 10
271.0063384292973
 20
189.5277951347149
 30
0.0
 10
271.0046170026636
 20
189.5291486392333
 30
0.0
 10
271.0025431545544
 20
189.5304998790283
 30
0.0
1001
PHOENIX7010
1002
{
1070
    41
1040
1.0
1002
}
  0
ARC
  5
3B2F
102
{ACAD_REACTORS
330
431E
102
}
330
1F
100
AcDbEntity
  8
0
100
AcDbCircle
 10
273.6297682555395
 20
195.4630843777771
 30
0.0
 40
6.488287182765705
100
AcDbArc
 50
237.9421836077052
 51
246.1140032676925
1001
PHOENIX7010
1002
{
1070
    41
1040
1.0
1002
}
  0
ARC
  5
3B30
102
{ACAD_REACTORS
330
431E
102
}
330
1F
100
AcDbEntity
  8
0
100
AcDbCircle
 10
273.6297682659794
 20
205.1543385462686
 30
0.0
 40
6.488287204967202
100
AcDbArc
 50
113.8859967463274
 51
122.0578163783066
1001
PHOENIX7010
1002
{
1070
    41
1040
1.0
1002
}
  0
SPLINE
  5
3B31
102
{ACAD_REACTORS
330
431E
102
}
330
1F
100
AcDbEntity
  8
0
100
AcDbSpline
210
0.0
220
0.0
230
1.0
 70
     8
 71
     3
 72
     8
 73
     4
 74
     0
 42
0.0000000001
 43
0.0000000001
 40
1.524549297275926
 40
1.524549297275926
 40
1.524549297275926
 40
1.524549297275926
 40
1.584698545471451
 40
1.584698545471451
 40
1.584698545471451
 40
1.584698545471451
 10
271.0025431545544
 20
211.0869230646753
 30
0.0
 10
271.0046253758969
 20
211.0882797601475
 30
0.0
 10
271.0063439855053
 20
211.0896333651966
 30
0.0
 10
271.0076928029375
 20
211.0909821826289
 30
0.0
1001
PHOENIX7010
1002
{
1070
    41
1040
1.0
1002
}
  0
LINE
  5
3B32
102
{ACAD_REACTORS
330
431E
102
}
330
1F
100
AcDbEntity
  8
0
100
AcDbLine
 10
271.1730143128774
 20
211.2563036925687
 30
0.0
 11
271.0076928029375
 21
211.0909821826289
 31
0.0
1001
PHOENIX7010
1002
{
1070
    41
1040
1.0
1002
}
  0
LINE
  5
3B33
102
{ACAD_REACTORS
330
431E
102
}
330
1F
100
AcDbEntity
  8
0
100
AcDbLine
 10
271.1730143128774
 20
189.3611192511347
 30
0.0
 11
271.0076928029375
 21
189.5264407610746
 31
0.0
1001
PHOENIX7010
1002
{
1070
    41
1040
1.0
1002
}
  0
ARC
  5
3B34
102
{ACAD_REACTORS
330
431E
102
}
330
1F
100
AcDbEntity
  8
0
100
AcDbCircle
 10
264.60066823223
 20
190.8087154188723
 30
0.0
 40
3.000003950037751
100
AcDbArc
 50
196.5380506336151
 51
269.9413062731641
1001
PHOENIX7010
1002
{
1070
    41
1040
1.0
1002
}
  0
ARC
  5
3B35
102
{ACAD_REACTORS
330
431E
102
}
330
1F
100
AcDbEntity
  8
0
100
AcDbCircle
 10
264.6006652837423
 20
209.8087114718518
 30
0.0
 40
2.999999999999998
100
AcDbArc
 50
90.0
 51
90.05863749212764
1001
PHOENIX7010
1002
{
1070
    41
1040
1.0
1002
}
  0
ARC
  5
3B36
102
{ACAD_REACTORS
330
431E
102
}
330
1F
100
AcDbEntity
  8
0
100
AcDbCircle
 10
264.6006682315037
 20
209.8087075258033
 30
0.0
 40
3.000003949064799
100
AcDbArc
 50
90.05869371297457
 51
163.461949380218
1001
PHOENIX7010
1002
{
1070
    41
1040
1.0
1002
}
  0
LINE
  5
3B37
102
{ACAD_REACTORS
330
431E
102
}
330
1F
100
AcDbEntity
  8
0
100
AcDbLine
 10
261.7247714284374
 20
210.6626648656251
 30
0.0
 11
261.7238210926426
 21
210.6594578287576
 31
0.0
1001
PHOENIX7010
1002
{
1070
    41
1040
1.0
1002
}
  0
LINE
  5
3B38
102
{ACAD_REACTORS
330
431E
102
}
330
1F
100
AcDbEntity
  8
0
100
AcDbLine
 10
268.9772420831314
 20
196.3087114718518
 30
0.0
 11
268.7254220921604
 21
196.3087114718518
 31
0.0
1001
PHOENIX7010
1002
{
1070
    41
1040
1.0
1002
}
  0
LINE
  5
3B39
102
{ACAD_REACTORS
330
431E
102
}
330
1F
100
AcDbEntity
  8
0
100
AcDbLine
 10
269.9790294808358
 20
196.3087114718518
 30
0.0
 11
268.9772420831314
 21
196.3087114718518
 31
0.0
1001
PHOENIX7010
1002
{
1070
    41
1040
1.0
1002
}
  0
LINE
  5
3B3A
102
{ACAD_REACTORS
330
431E
102
}
330
1F
100
AcDbEntity
  8
0
100
AcDbLine
 10
268.9772420831314
 20
204.3087114718518
 30
0.0
 11
268.7254220921604
 21
204.3087114718518
 31
0.0
1001
PHOENIX7010
1002
{
1070
    41
1040
1.0
1002
}
  0
LINE
  5
3B3B
102
{ACAD_REACTORS
330
431E
102
}
330
1F
100
AcDbEntity
  8
0
100
AcDbLine
 10
269.9790294809293
 20
204.3087114718518
 30
0.0
 11
268.9772420831314
 21
204.3087114718518
 31
0.0
1001
PHOENIX7010
1002
{
1070
    41
1040
1.0
1002
}
  0
LINE
  5
3B3C
102
{ACAD_REACTORS
330
431E
102
}
330
1F
100
AcDbEntity
  8
0
100
AcDbLine
 10
151.7497148658997
 20
139.2467696904117
 30
0.0
 11
151.7777930903617
 21
138.7110052515031
 31
0.0
1001
PHOENIX7010
1002
{
1070
    41
1040
1.0
1002
}
  0
LINE
  5
3B4D
102
{ACAD_REACTORS
330
431E
102
}
330
1F
100
AcDbEntity
  8
0
100
AcDbLine
 10
209.7254220921604
 20
204.3087114718519
 30
0.0
 11
209.7254220921604
 21
208.1997788752919
 31
0.0
1001
PHOENIX7010
1002
{
1070
    41
1040
1.0
1002
}
  0
ARC
  5
3B5F
102
{ACAD_REACTORS
330
431E
102
}
330
1F
100
AcDbEntity
  8
0
  6
Continuous
 62
     7
370
    50
100
AcDbCircle
 10
97.88169283165188
 20
200.3087114718516
 30
0.0
 40
5.0
100
AcDbArc
 50
66.42182152179249
 51
151.6423634236771
1001
PHOENIX7010
1002
{
1070
    41
1040
1.0
1002
}
  0
ARC
  5
3B60
102
{ACAD_REACTORS
330
431E
102
}
330
1F
100
AcDbEntity
  8
0
  6
Continuous
 62
     7
370
    50
100
AcDbCircle
 10
97.88169283165188
 20
200.3087114718516
 30
0.0
 40
5.0
100
AcDbArc
 50
208.3576365763229
 51
53.13010235416657
1001
PHOENIX7010
1002
{
1070
    41
1040
1.0
1002
}
  0
LINE
  5
3B61
102
{ACAD_REACTORS
330
431E
102
}
330
1F
100
AcDbEntity
  8
0
  6
Continuous
 62
     7
370
    50
100
AcDbLine
 10
99.88169283165188
 20
192.8087114718516
 30
0.0
 11
99.88169283165188
 21
195.7261357768958
 31
0.0
1001
PHOENIX7010
1002
{
1070
    41
1040
1.0
1002
}
  0
LINE
  5
3B62
102
{ACAD_REACTORS
330
431E
102
}
330
1F
100
AcDbEntity
  8
0
  6
Continuous
 62
     7
370
    50
100
AcDbLine
 10
141.8816928316519
 20
195.7261357768958
 30
0.0
 11
141.8816928316519
 21
192.8087114718516
 31
0.0
1001
PHOENIX7010
1002
{
1070
    41
1040
1.0
1002
}
  0
ARC
  5
3B63
102
{ACAD_REACTORS
330
431E
102
}
330
1F
100
AcDbEntity
  8
0
  6
Continuous
 62
     7
370
    50
100
AcDbCircle
 10
143.8816928316519
 20
200.3087114718516
 30
0.0
 40
5.0
100
AcDbArc
 50
28.3576365763229
 51
331.6423634236771
1001
PHOENIX7010
1002
{
1070
    41
1040
1.0
1002
}
  0
LINE
  5
3B64
102
{ACAD_REACTORS
330
431E
102
}
330
1F
100
AcDbEntity
  8
0
  6
Continuous
 62
     7
370
    50
100
AcDbLine
 10
141.8816928316519
 20
204.8912871668075
 30
0.0
 11
141.8816928316519
 21
207.8087114718516
 31
0.0
1001
PHOENIX7010
1002
{
1070
    41
1040
1.0
1002
}
  0
LINE
  5
3B6A
102
{ACAD_REACTORS
330
431E
102
}
330
1F
100
AcDbEntity
  8
0
  6
ACAD_ISO04W100
 62
     1
 48
0.4354838709677419
370
    25
100
AcDbLine
 10
120.8816928316519
 20
213.8087114718516
 30
0.0
 11
120.8816928316519
 21
186.8087114718516
 31
0.0
1001
PHOENIX7010
1002
{
1070
    41
1040
1.0
1002
}
  0
LINE
  5
3B6B
102
{ACAD_REACTORS
330
431E
102
}
330
1F
100
AcDbEntity
  8
0
  6
ACAD_ISO04W100
 62
     1
370
    25
100
AcDbLine
 10
88.38169283165187
 20
200.3087114718516
 30
0.0
 11
153.3933725836285
 21
200.3087114718516
 31
0.0
1001
PHOENIX7010
1002
{
1070
    41
1040
1.0
1002
}
  0
LINE
  5
3B6C
102
{ACAD_REACTORS
330
431E
102
}
330
1F
100
AcDbEntity
  8
0
  6
ACAD_ISO04W100
 62
     1
 48
0.1887096774193537
370
    25
100
AcDbLine
 10
143.8816928316519
 20
136.7284800861267
 30
0.0
 11
143.8816928316519
 21
148.4284800861266
 31
0.0
1001
PHOENIX7010
1002
{
1070
    41
1040
1.0
1002
}
  0
LINE
  5
3B6D
102
{ACAD_REACTORS
330
431E
102
}
330
1F
100
AcDbEntity
  8
0
  6
ACAD_ISO04W100
 62
     1
 48
0.1887096774193537
370
    25
100
AcDbLine
 10
97.88169283165188
 20
136.7284800861267
 30
0.0
 11
97.88169283165188
 21
148.4284800861266
 31
0.0
1001
PHOENIX7010
1002
{
1070
    41
1040
1.0
1002
}
  0
LINE
  5
3B6E
102
{ACAD_REACTORS
330
431E
102
}
330
1F
100
AcDbEntity
  8
0
  6
ACAD_ISO04W100
 62
     1
 48
0.2472312780657885
370
    25
100
AcDbLine
 10
213.7254220921604
 20
200.3087114718519
 30
0.0
 11
198.3970828520815
 21
200.3087114718518
 31
0.0
1001
PHOENIX7010
1002
{
1070
    41
1040
1.0
1002
}
  0
LINE
  5
3B6F
102
{ACAD_REACTORS
330
431E
102
}
330
1F
100
AcDbEntity
  8
0
100
AcDbLine
 10
313.4718147033916
 20
204.3087114718518
 30
0.0
 11
314.4736021011895
 21
204.3087114718518
 31
0.0
1001
PHOENIX7010
1002
{
1070
    41
1040
1.0
1002
}
  0
LINE
  5
3B70
102
{ACAD_REACTORS
330
431E
102
}
330
1F
100
AcDbEntity
  8
0
100
AcDbLine
 10
314.4736021011895
 20
204.3087114718518
 30
0.0
 11
314.7254220921604
 21
204.3087114718518
 31
0.0
1001
PHOENIX7010
1002
{
1070
    41
1040
1.0
1002
}
  0
LINE
  5
3B71
102
{ACAD_REACTORS
330
431E
102
}
330
1F
100
AcDbEntity
  8
0
100
AcDbLine
 10
313.471814703485
 20
196.3087114718518
 30
0.0
 11
314.4736021011895
 21
196.3087114718518
 31
0.0
1001
PHOENIX7010
1002
{
1070
    41
1040
1.0
1002
}
  0
LINE
  5
3B72
102
{ACAD_REACTORS
330
431E
102
}
330
1F
100
AcDbEntity
  8
0
100
AcDbLine
 10
314.4736021011895
 20
196.3087114718518
 30
0.0
 11
314.7254220921604
 21
196.3087114718518
 31
0.0
1001
PHOENIX7010
1002
{
1070
    41
1040
1.0
1002
}
  0
LINE
  5
3B73
102
{ACAD_REACTORS
330
431E
102
}
330
1F
100
AcDbEntity
  8
0
100
AcDbLine
 10
321.7260727558835
 20
210.6626648656251
 30
0.0
 11
321.7270230916783
 21
210.6594578287576
 31
0.0
1001
PHOENIX7010
1002
{
1070
    41
1040
1.0
1002
}
  0
ARC
  5
3B74
102
{ACAD_REACTORS
330
431E
102
}
330
1F
100
AcDbEntity
  8
0
100
AcDbCircle
 10
318.8501759528171
 20
209.8087075258033
 30
0.0
 40
3.000003949064799
100
AcDbArc
 50
16.538050619782
 51
89.94130628702542
1001
PHOENIX7010
1002
{
1070
    41
1040
1.0
1002
}
  0
ARC
  5
3B75
102
{ACAD_REACTORS
330
431E
102
}
330
1F
100
AcDbEntity
  8
0
100
AcDbCircle
 10
318.8501789005785
 20
209.8087114718518
 30
0.0
 40
2.999999999999998
100
AcDbArc
 50
89.94136250787235
 51
90.0
1001
PHOENIX7010
1002
{
1070
    41
1040
1.0
1002
}
  0
ARC
  5
3B76
102
{ACAD_REACTORS
330
431E
102
}
330
1F
100
AcDbEntity
  8
0
100
AcDbCircle
 10
318.8501759520908
 20
190.8087154188723
 30
0.0
 40
3.000003950037751
100
AcDbArc
 50
270.0586937268359
 51
343.4619493663849
1001
PHOENIX7010
1002
{
1070
    41
1040
1.0
1002
}
  0
LINE
  5
3B77
102
{ACAD_REACTORS
330
431E
102
}
330
1F
100
AcDbEntity
  8
0
100
AcDbLine
 10
312.2778298714435
 20
189.3611192511347
 30
0.0
 11
312.4431513813834
 21
189.5264407610746
 31
0.0
1001
PHOENIX7010
1002
{
1070
    41
1040
1.0
1002
}
  0
LINE
  5
3B78
102
{ACAD_REACTORS
330
431E
102
}
330
1F
100
AcDbEntity
  8
0
100
AcDbLine
 10
312.2778298714435
 20
211.2563036925687
 30
0.0
 11
312.4431513813834
 21
211.0909821826289
 31
0.0
1001
PHOENIX7010
1002
{
1070
    41
1040
1.0
1002
}
  0
SPLINE
  5
3B79
102
{ACAD_REACTORS
330
431E
102
}
330
1F
100
AcDbEntity
  8
0
100
AcDbSpline
210
0.0
220
0.0
230
1.0
 70
     8
 71
     3
 72
     8
 73
     4
 74
     0
 42
0.0000000001
 43
0.0000000001
 40
1.524549297275926
 40
1.524549297275926
 40
1.524549297275926
 40
1.524549297275926
 40
1.584698545471451
 40
1.584698545471451
 40
1.584698545471451
 40
1.584698545471451
 10
312.4483010297665
 20
211.0869230646753
 30
0.0
 10
312.446218808424
 20
211.0882797601475
 30
0.0
 10
312.4445001988156
 20
211.0896333651966
 30
0.0
 10
312.4431513813834
 20
211.0909821826289
 30
0.0
1001
PHOENIX7010
1002
{
1070
    41
1040
1.0
1002
}
  0
ARC
  5
3B7A
102
{ACAD_REACTORS
330
431E
102
}
330
1F
100
AcDbEntity
  8
0
100
AcDbCircle
 10
309.8210759183416
 20
205.1543385462686
 30
0.0
 40
6.488287204967202
100
AcDbArc
 50
57.94218362169338
 51
66.11400325367256
1001
PHOENIX7010
1002
{
1070
    41
1040
1.0
1002
}
  0
ARC
  5
3B7B
102
{ACAD_REACTORS
330
431E
102
}
330
1F
100
AcDbEntity
  8
0
100
AcDbCircle
 10
309.8210759287813
 20
195.4630843777771
 30
0.0
 40
6.488287182765705
100
AcDbArc
 50
293.8859967323075
 51
302.0578163922948
1001
PHOENIX7010
1002
{
1070
    41
1040
1.0
1002
}
  0
SPLINE
  5
3B7C
102
{ACAD_REACTORS
330
431E
102
}
330
1F
100
AcDbEntity
  8
0
100
AcDbSpline
210
0.0
220
0.0
230
1.0
 70
     8
 71
     3
 72
     8
 73
     4
 74
     0
 42
0.0000000001
 43
0.0000000001
 40
0.0
 40
0.0
 40
0.0
 40
0.0
 40
0.0777416131806741
 40
0.0777416131806741
 40
0.0777416131806741
 40
0.0777416131806741
 10
312.4431513813834
 20
189.5264407610746
 30
0.0
 10
312.4445057550236
 20
189.5277951347149
 30
0.0
 10
312.4462271816573
 20
189.5291486392333
 30
0.0
 10
312.4483010297665
 20
189.5304998790283
 30
0.0
1001
PHOENIX7010
1002
{
1070
    41
1040
1.0
1002
}
  0
LINE
  5
3B7D
102
{ACAD_REACTORS
330
431E
102
}
330
1F
100
AcDbEntity
  8
0
100
AcDbLine
 10
321.7260727558835
 20
189.9547580780785
 30
0.0
 11
321.7270230916783
 21
189.9579651149459
 31
0.0
1001
PHOENIX7010
1002
{
1070
    41
1040
1.0
1002
}
  0
LINE
  5
3B7E
102
{ACAD_REACTORS
330
431E
102
}
330
1F
100
AcDbEntity
  8
0
100
AcDbLine
 10
314.7254294501865
 20
204.3090773841699
 30
0.0
 11
314.8940867793549
 21
204.3056859021896
 31
0.0
1001
PHOENIX7010
1002
{
1070
    41
1040
1.0
1002
}
  0
ARC
  5
3B7F
102
{ACAD_REACTORS
330
431E
102
}
330
1F
100
AcDbEntity
  8
0
100
AcDbCircle
 10
314.7226675803304
 20
200.304346214515
 30
0.0
 40
4.004478338689118
100
AcDbArc
 50
43.50572014878333
 51
87.54675019500151
1001
PHOENIX7010
1002
{
1070
    41
1040
1.0
1002
}
  0
ARC
  5
3B80
102
{ACAD_REACTORS
330
431E
102
}
330
1F
100
AcDbEntity
  8
0
100
AcDbCircle
 10
314.7254220322329
 20
200.3087114718518
 30
0.0
 40
4.000000043456859
100
AcDbArc
 50
316.4819037607437
 51
43.51809620477536
1001
PHOENIX7010
1002
{
1070
    41
1040
1.0
1002
}
  0
ARC
  5
3B81
102
{ACAD_REACTORS
330
431E
102
}
330
1F
100
AcDbEntity
  8
0
100
AcDbCircle
 10
314.714519681829
 20
200.3326909413781
 30
0.0
 40
4.02442996075587
100
AcDbArc
 50
272.557192152227
 51
316.3412179547483
1001
PHOENIX7010
1002
{
1070
    41
1040
1.0
1002
}
  0
LINE
  5
3B82
102
{ACAD_REACTORS
330
431E
102
}
330
1F
100
AcDbEntity
  8
0
100
AcDbLine
 10
314.7254294501865
 20
196.3083455595337
 30
0.0
 11
314.8940867793549
 21
196.3117370415138
 31
0.0
1001
PHOENIX7010
1002
{
1070
    41
1040
1.0
1002
}
  0
LINE
  5
3B83
102
{ACAD_REACTORS
330
431E
102
}
330
1F
100
AcDbEntity
  8
0
100
AcDbLine
 10
271.1730143128774
 20
189.3611192511347
 30
0.0
 11
312.2778298714435
 21
189.3611192511347
 31
0.0
1001
PHOENIX7010
1002
{
1070
    41
1040
1.0
1002
}
  0
LINE
  5
3B84
102
{ACAD_REACTORS
330
431E
102
}
330
1F
100
AcDbEntity
  8
0
100
AcDbLine
 10
312.2778298714435
 20
189.3611192511347
 30
0.0
 11
312.2778298714435
 21
188.50775214618
 31
0.0
1001
PHOENIX7010
1002
{
1070
    41
1040
1.0
1002
}
  0
ELLIPSE
  5
3B85
102
{ACAD_REACTORS
330
431E
102
}
330
1F
100
AcDbEntity
  8
0
100
AcDbEllipse
 10
312.978790513642
 20
188.5096721140502
 30
0.0
 11
0.4963323704045593
 21
0.4963323704045593
 31
0.0
210
0.0
220
0.0
230
1.0
 40
0.997264688634168
 41
2.357564018062674
 42
3.925621289116911
1001
PHOENIX7010
1002
{
1070
    41
1040
1.0
1002
}
  0
ARC
  5
3B86
102
{ACAD_REACTORS
330
431E
102
}
330
1F
100
AcDbEntity
  8
0
100
AcDbCircle
 10
322.2983004680067
 20
194.1571533163052
 30
0.0
 40
0.3991505368474954
100
AcDbArc
 50
350.1370029882929
 51
90.05139492983493
1001
PHOENIX7010
1002
{
1070
    41
1040
1.0
1002
}
  0
LINE
  5
3B87
102
{ACAD_REACTORS
330
431E
102
}
330
1F
100
AcDbEntity
  8
0
100
AcDbLine
 10
322.2979424257344
 20
194.5563036925688
 30
0.0
 11
322.2684027826951
 21
194.5563036925688
 31
0.0
1001
PHOENIX7010
1002
{
1070
    41
1040
1.0
1002
}
  0
ARC
  5
3B88
102
{ACAD_REACTORS
330
431E
102
}
330
1F
100
AcDbEntity
  8
0
100
AcDbCircle
 10
322.2683594582413
 20
194.6061982417231
 30
0.0
 40
0.0498945679641081
100
AcDbArc
 50
170.8354549219265
 51
270.0497510805083
1001
PHOENIX7010
1002
{
1070
    41
1040
1.0
1002
}
  0
ARC
  5
3B89
102
{ACAD_REACTORS
330
431E
102
}
330
1F
100
AcDbEntity
  8
0
100
AcDbCircle
 10
322.268359458241
 20
206.0112247019807
 30
0.0
 40
0.0498945679638552
100
AcDbArc
 50
89.95024891917912
 51
189.1645450784159
1001
PHOENIX7010
1002
{
1070
    41
1040
1.0
1002
}
  0
LINE
  5
3B8A
102
{ACAD_REACTORS
330
431E
102
}
330
1F
100
AcDbEntity
  8
0
100
AcDbLine
 10
322.2684027826951
 20
206.0611192511348
 30
0.0
 11
322.2979424257344
 21
206.0611192511348
 31
0.0
1001
PHOENIX7010
1002
{
1070
    41
1040
1.0
1002
}
  0
ARC
  5
3B8B
102
{ACAD_REACTORS
330
431E
102
}
330
1F
100
AcDbEntity
  8
0
100
AcDbCircle
 10
322.2983004680257
 20
206.4602696273825
 30
0.0
 40
0.3991505368315742
100
AcDbArc
 50
269.9486050674553
 51
9.862997014431185
1001
PHOENIX7010
1002
{
1070
    41
1040
1.0
1002
}
  0
LINE
  5
3B8C
102
{ACAD_REACTORS
330
431E
330
7D7F
102
}
330
1F
100
AcDbEntity
  8
0
100
AcDbLine
 10
312.9768705457717
 20
212.8087114718518
 30
0.0
 11
318.8501789005785
 21
212.8087114718518
 31
0.0
1001
PHOENIX7010
1002
{
1070
    41
1040
1.0
1002
}
  0
ELLIPSE
  5
3B8D
102
{ACAD_REACTORS
330
431E
102
}
330
1F
100
AcDbEntity
  8
0
100
AcDbEllipse
 10
312.978790513642
 20
212.1077508296532
 30
0.0
 11
-0.4963323704045593
 21
0.4963323704045593
 31
0.0
210
0.0
220
0.0
230
1.0
 40
0.9972646886340873
 41
-0.7840286355271593
 42
0.7840286355270778
1001
PHOENIX7010
1002
{
1070
    41
1040
1.0
1002
}
  0
LINE
  5
3B8E
102
{ACAD_REACTORS
330
431E
102
}
330
1F
100
AcDbEntity
  8
0
100
AcDbLine
 10
312.2778298714435
 20
212.1096707975236
 30
0.0
 11
312.2778298714435
 21
211.2563036925687
 31
0.0
1001
PHOENIX7010
1002
{
1070
    41
1040
1.0
1002
}
  0
LINE
  5
3B8F
102
{ACAD_REACTORS
330
431E
102
}
330
1F
100
AcDbEntity
  8
0
100
AcDbLine
 10
312.2778298714435
 20
211.2563036925687
 30
0.0
 11
271.1730143128774
 21
211.2563036925687
 31
0.0
1001
PHOENIX7010
1002
{
1070
    41
1040
1.0
1002
}
  0
ARC
  5
3B90
102
{ACAD_REACTORS
330
431E
102
}
330
1F
100
AcDbEntity
  8
0
100
AcDbCircle
 10
318.8501789005785
 20
190.8087114718518
 30
0.0
 40
2.999999999999998
100
AcDbArc
 50
270.0
 51
270.0586374921277
1001
PHOENIX7010
1002
{
1070
    41
1040
1.0
1002
}
  0
LINE
  5
3B91
102
{ACAD_REACTORS
330
431E
102
}
330
1F
100
AcDbEntity
  8
0
100
AcDbLine
 10
318.8501789005785
 20
187.8087114718518
 30
0.0
 11
312.9768705457717
 21
187.8087114718518
 31
0.0
1001
PHOENIX7010
1002
{
1070
    41
1040
1.0
1002
}
  0
ARC
  5
3B92
102
{ACAD_REACTORS
330
431E
102
}
330
1F
100
AcDbEntity
  8
0
100
AcDbCircle
 10
312.0421348175521
 20
209.2747017716339
 30
0.0
 40
0.7071763453161816
100
AcDbArc
 50
179.1574713536104
 51
204.2351821807013
1001
PHOENIX7010
1002
{
1070
    41
1040
1.0
1002
}
  0
SPLINE
  5
3B93
102
{ACAD_REACTORS
330
431E
102
}
330
1F
100
AcDbEntity
  8
0
100
AcDbSpline
210
0.0
220
0.0
230
1.0
 70
     8
 71
     3
 72
    14
 73
    10
 74
     0
 42
0.0000000001
 43
0.0000000001
 40
0.0
 40
0.0
 40
0.0
 40
0.0
 40
0.3859705180315469
 40
0.3859705180315469
 40
0.6916068981750989
 40
0.6916068981750989
 40
0.8499058958970417
 40
0.8499058958970417
 40
0.9985241198167456
 40
0.9985241198167456
 40
0.9985241198167456
 40
0.9985241198167456
 10
313.4718147031435
 20
204.3087114718518
 30
0.0
 10
313.3431578637996
 20
204.3087114718518
 30
0.0
 10
313.2169208419014
 20
204.3329941597541
 30
0.0
 10
313.0187117553685
 20
204.4155110016412
 30
0.0
 10
312.9432760411363
 20
204.464662707591
 30
0.0
 10
312.8549243112477
 20
204.5535011887456
 30
0.0
 10
312.8283898980437
 20
204.5873440699064
 30
0.0
 10
312.7875730997339
 20
204.6593801715982
 30
0.0
 10
312.7729183893911
 20
204.6967069680238
 30
0.0
 10
312.7646692520503
 20
204.7359091120142
 30
0.0
1001
PHOENIX7010
1002
{
1070
    41
1040
1.0
1002
}
  0
SPLINE
  5
3B94
102
{ACAD_REACTORS
330
431E
102
}
330
1F
100
AcDbEntity
  8
0
100
AcDbSpline
210
0.0
220
0.0
230
1.0
 70
     8
 71
     3
 72
    14
 73
    10
 74
     0
 42
0.0000000001
 43
0.0000000001
 40
0.0
 40
0.0
 40
0.0
 40
0.0
 40
0.1456469032191184
 40
0.1456469032191184
 40
0.3288791907115989
 40
0.3288791907115989
 40
0.5727800530668499
 40
0.5727800530668499
 40
0.8358427177962488
 40
0.8358427177962488
 40
0.8358427177962488
 40
0.8358427177962488
 10
312.7646692520503
 20
195.8815138316892
 30
0.0
 10
312.7746662695114
 20
195.9290223773465
 30
0.0
 10
312.7940388907033
 20
195.9736635817241
 30
0.0
 10
312.8535911344309
 20
196.0658923676109
 30
0.0
 10
312.8971355136976
 20
196.1102477032024
 30
0.0
 10
313.011004485113
 20
196.1967642228749
 30
0.0
 10
313.0894860387199
 20
196.2364873240204
 30
0.0
 10
313.2717832055163
 20
196.294190632209
 30
0.0
 10
313.37237717293
 20
196.3087114718518
 30
0.0
 10
313.4718147031435
 20
196.3087114718518
 30
0.0
1001
PHOENIX7010
1002
{
1070
    41
1040
1.0
1002
}
  0
ARC
  5
3B95
102
{ACAD_REACTORS
330
431E
102
}
330
1F
100
AcDbEntity
  8
0
100
AcDbCircle
 10
312.042240261345
 20
191.3426993428894
 30
0.0
 40
0.707281457055896
100
AcDbArc
 50
155.7667115987685
 51
180.8406350632386
1001
PHOENIX7010
1002
{
1070
    41
1040
1.0
1002
}
  0
SPLINE
  5
3B96
102
{ACAD_REACTORS
330
431E
102
}
330
1F
100
AcDbEntity
  8
0
100
AcDbSpline
210
0.0
220
0.0
230
1.0
 70
     8
 71
     3
 72
    16
 73
    12
 74
     0
 42
0.0000000001
 43
0.0000000001
 40
-1.578956058437073
 40
-1.578956058437073
 40
-1.578956058437073
 40
-1.578956058437073
 40
-1.211153469732729
 40
-1.211153469732729
 40
-0.8280246669770971
 40
-0.8280246669770971
 40
-0.4167949609668101
 40
-0.4167949609668101
 40
0.0
 40
0.0
 40
0.0019555195456042
 40
0.0019555195456042
 40
0.0019555195456042
 40
0.0019555195456042
 10
311.3350349287554
 20
191.3323225879816
 30
0.0
 10
311.337483731694
 20
191.2100738587026
 30
0.0
 10
311.3484612920214
 20
191.0895854014874
 30
0.0
 10
311.3866324521655
 20
190.8589160091296
 30
0.0
 10
311.414011450118
 20
190.7521520538018
 30
0.0
 10
311.4832467050346
 20
190.5630211674553
 30
0.0
 10
311.5253489205386
 20
190.4847974281209
 30
0.0
 10
311.6172566425615
 20
190.373043987439
 30
0.0
 10
311.6665826682281
 20
190.340819649835
 30
0.0
 10
311.7163850784525
 20
190.3337573470552
 30
0.0
 10
311.7166176502444
 20
190.3337249222575
 30
0.0
 10
311.716850221658
 20
190.333693052895
 30
0.0
1001
PHOENIX7010
1002
{
1070
    41
1040
1.0
1002
}
  0
SPLINE
  5
3B97
102
{ACAD_REACTORS
330
431E
102
}
330
1F
100
AcDbEntity
  8
0
100
AcDbSpline
210
0.0
220
0.0
230
1.0
 70
     8
 71
     3
 72
    16
 73
    12
 74
     0
 42
0.0000000001
 43
0.0000000001
 40
-1.5766872410707
 40
-1.5766872410707
 40
-1.5766872410707
 40
-1.5766872410707
 40
-1.57473694690516
 40
-1.57473694690516
 40
-1.159055661645165
 40
-1.159055661645165
 40
-0.7489248124767284
 40
-0.7489248124767284
 40
-0.3668197769070979
 40
-0.3668197769070979
 40
0.0
 40
0.0
 40
0.0
 40
0.0
 10
311.716850221658
 20
210.2837298908086
 30
0.0
 10
311.7166176502447
 20
210.2836980214457
 30
0.0
 10
311.7163850784536
 20
210.2836655966481
 30
0.0
 10
311.6665826623046
 20
210.2766032930432
 30
0.0
 10
311.6172566310216
 20
210.2443789487069
 30
0.0
 10
311.5253489055121
 20
210.132625490924
 30
0.0
 10
311.4832466914972
 20
210.0544017473461
 30
0.0
 10
311.4140114399059
 20
209.8652708544789
 30
0.0
 10
311.3866324437656
 20
209.7585068968132
 30
0.0
 10
311.3484612873212
 20
209.5278375013328
 30
0.0
 10
311.3374837289165
 20
209.4073490432583
 30
0.0
 10
311.3350349287117
 20
209.2851003535467
 30
0.0
1001
PHOENIX7010
1002
{
1070
    41
1040
1.0
1002
}
  0
LINE
  5
3B98
102
{ACAD_REACTORS
330
431E
102
}
330
1F
100
AcDbEntity
  8
0
100
AcDbLine
 10
273.2254220921604
 20
208.3087114718516
 30
0.0
 11
310.2254220921604
 21
208.3087114718516
 31
0.0
1001
PHOENIX7010
1002
{
1070
    41
1040
1.0
1002
}
  0
LINE
  5
3B9C
102
{ACAD_REACTORS
330
431E
102
}
330
1F
100
AcDbEntity
  8
0
100
AcDbLine
 10
273.2254220921604
 20
192.3087114718518
 30
0.0
 11
310.2254220921604
 21
192.3087114718518
 31
0.0
1001
PHOENIX7010
1002
{
1070
    41
1040
1.0
1002
}
  0
CIRCLE
  5
3B9F
102
{ACAD_REACTORS
330
431E
102
}
330
1F
100
AcDbEntity
  8
0
100
AcDbCircle
 10
314.7254220921604
 20
200.3087114718518
 30
0.0
 40
2.799999999999998
1001
PHOENIX7010
1002
{
1070
    41
1040
1.0
1002
}
  0
CIRCLE
  5
3BA0
102
{ACAD_REACTORS
330
431E
102
}
330
1F
100
AcDbEntity
  8
0
100
AcDbCircle
 10
314.7254220921604
 20
200.3087114718518
 30
0.0
 40
1.7
1001
PHOENIX7010
1002
{
1070
    41
1040
1.0
1002
}
  0
ARC
  5
3BA1
102
{ACAD_REACTORS
330
431E
102
}
330
1F
100
AcDbEntity
  8
0
100
AcDbCircle
 10
286.7254220921605
 20
200.3087114718518
 30
0.0
 40
36.5
100
AcDbArc
 50
343.5258881106843
 51
350.1883979181412
1001
PHOENIX7010
1002
{
1070
    41
1040
1.0
1002
}
  0
ARC
  5
3BA2
102
{ACAD_REACTORS
330
431E
330
98C2
102
}
330
1F
100
AcDbEntity
  8
0
100
AcDbCircle
 10
286.7254220921605
 20
200.3087114718518
 30
0.0
 40
35.94759222071696
100
AcDbArc
 50
350.8852060024168
 51
9.114793997583056
1001
PHOENIX7010
1002
{
1070
    41
1040
1.0
1002
}
  0
ARC
  5
3BA3
102
{ACAD_REACTORS
330
431E
102
}
330
1F
100
AcDbEntity
  8
0
100
AcDbCircle
 10
286.7254220921605
 20
200.3087114718518
 30
0.0
 40
36.5
100
AcDbArc
 50
9.811602081858811
 51
16.47411188931565
1001
PHOENIX7010
1002
{
1070
    41
1040
1.0
1002
}
  0
CIRCLE
  5
3BA4
102
{ACAD_REACTORS
330
431E
102
}
330
1F
100
AcDbEntity
  8
0
100
AcDbCircle
 10
314.7254220921604
 20
200.3087114718518
 30
0.0
 40
3.199999999999998
1001
PHOENIX7010
1002
{
1070
    41
1040
1.0
1002
}
  0
ARC
  5
3BA5
102
{ACAD_REACTORS
330
431E
102
}
330
1F
100
AcDbEntity
  8
0
100
AcDbCircle
 10
291.7254220921604
 20
200.3087114718518
 30
0.0
 40
21.5
100
AcDbArc
 50
11.88313598219139
 51
23.79849282873973
1001
PHOENIX7010
1002
{
1070
    41
1040
1.0
1002
}
  0
ARC
  5
3BA6
102
{ACAD_REACTORS
330
431E
102
}
330
1F
100
AcDbEntity
  8
0
100
AcDbCircle
 10
291.7254220921604
 20
200.3087114718518
 30
0.0
 40
21.5
100
AcDbArc
 50
336.2015071712603
 51
348.1168640178086
1001
PHOENIX7010
1002
{
1070
    41
1040
1.0
1002
}
  0
LINE
  5
3BA7
102
{ACAD_REACTORS
330
431E
102
}
330
1F
100
AcDbEntity
  8
0
100
AcDbLine
 10
99.08169283165193
 20
190.6087114718515
 30
0.0
 11
99.08169283165193
 21
189.5081632857536
 31
0.0
1001
PHOENIX7010
1002
{
1070
    41
1040
1.0
1002
}
  0
LINE
  5
3BA8
102
{ACAD_REACTORS
330
431E
102
}
330
1F
100
AcDbEntity
  8
0
100
AcDbLine
 10
142.6816928316518
 20
190.6087114718515
 30
0.0
 11
99.08169283165193
 21
190.6087114718515
 31
0.0
1001
PHOENIX7010
1002
{
1070
    41
1040
1.0
1002
}
  0
LINE
  5
3BA9
102
{ACAD_REACTORS
330
431E
102
}
330
1F
100
AcDbEntity
  8
0
100
AcDbLine
 10
99.08169283165193
 20
210.0087114718516
 30
0.0
 11
142.6816928316518
 21
210.0087114718516
 31
0.0
1001
PHOENIX7010
1002
{
1070
    41
1040
1.0
1002
}
  0
ARC
  5
3BAA
102
{ACAD_REACTORS
330
431E
102
}
330
1F
100
AcDbEntity
  8
0
100
AcDbCircle
 10
91.87649338186586
 20
207.7078395588382
 30
0.0
 40
0.3991282891766308
100
AcDbArc
 50
167.6661248760013
 51
270.0576715016214
1001
PHOENIX7010
1002
{
1070
    41
1040
1.0
1002
}
  0
LINE
  5
3BAB
102
{ACAD_REACTORS
330
431E
102
}
330
1F
100
AcDbEntity
  8
0
100
AcDbLine
 10
99.08169283165193
 20
211.1092596579498
 30
0.0
 11
99.08169283165193
 21
210.0087114718516
 31
0.0
1001
PHOENIX7010
1002
{
1070
    41
1040
1.0
1002
}
  0
ELLIPSE
  5
3BAC
102
{ACAD_REACTORS
330
431E
102
}
330
1F
100
AcDbEntity
  8
0
100
AcDbEllipse
 10
98.6811438932527
 20
211.1081625334524
 30
0.0
 11
0.2836184973740217
 21
0.2836184973740217
 31
0.0
210
0.0
220
0.0
230
1.0
 40
0.997264688634381
 41
5.499156671652523
 42
7.067213942706719
1001
PHOENIX7010
1002
{
1070
    41
1040
1.0
1002
}
  0
ELLIPSE
  5
3BAD
102
{ACAD_REACTORS
330
431E
102
}
330
1F
100
AcDbEntity
  8
0
100
AcDbEllipse
 10
98.6811438932527
 20
189.5092604102507
 30
0.0
 11
-0.2836184973740501
 21
0.2836184973740501
 31
0.0
210
0.0
220
0.0
230
0.9999999999999998
 40
0.9972646886342516
 41
2.357564018062558
 42
3.92562128911685
1001
PHOENIX7010
1002
{
1070
    41
1040
1.0
1002
}
  0
LINE
  5
3BAE
102
{ACAD_REACTORS
330
431E
102
}
330
1F
100
AcDbEntity
  8
0
100
AcDbLine
 10
98.68224101775012
 20
189.1087114718515
 30
0.0
 11
93.75519551302044
 21
189.1087114718515
 31
0.0
1001
PHOENIX7010
1002
{
1070
    41
1040
1.0
1002
}
  0
LINE
  5
3BAF
102
{ACAD_REACTORS
330
431E
102
}
330
1F
100
AcDbEntity
  8
0
100
AcDbLine
 10
93.75519551302044
 20
211.5087114718515
 30
0.0
 11
98.68224101775012
 21
211.5087114718515
 31
0.0
1001
PHOENIX7010
1002
{
1070
    41
1040
1.0
1002
}
  0
ARC
  5
3BB0
102
{ACAD_REACTORS
330
431E
102
}
330
1F
100
AcDbEntity
  8
0
100
AcDbCircle
 10
93.7547664570563
 20
209.8116155988222
 30
0.0
 40
1.69709592726593
100
AcDbArc
 50
89.98551461014079
 51
163.537396771575
1001
PHOENIX7010
1002
{
1070
    41
1040
1.0
1002
}
  0
LINE
  5
3BB1
102
{ACAD_REACTORS
330
431E
102
}
330
1F
100
AcDbEntity
  8
0
100
AcDbLine
 10
141.6292850523689
 20
211.0611192511345
 30
0.0
 11
100.1341006109348
 21
211.0611192511345
 31
0.0
1001
PHOENIX7010
1002
{
1070
    41
1040
1.0
1002
}
  0
LINE
  5
3BB2
102
{ACAD_REACTORS
330
431E
102
}
330
1F
100
AcDbEntity
  8
0
100
AcDbLine
 10
100.1341006109348
 20
212.0618044837573
 30
0.0
 11
100.1341006109348
 21
211.0611192511345
 31
0.0
1001
PHOENIX7010
1002
{
1070
    41
1040
1.0
1002
}
  0
ELLIPSE
  5
3BB3
102
{ACAD_REACTORS
330
431E
102
}
330
1F
100
AcDbEntity
  8
0
100
AcDbEllipse
 10
99.63341443793593
 20
212.0604330781356
 30
0.0
 11
0.3545231217175341
 21
0.354523121717534
 31
0.0
210
0.0
220
0.0
230
1.0
 40
0.9972646886341497
 41
5.499156671652506
 42
7.067213942706664
1001
PHOENIX7010
1002
{
1070
    41
1040
1.0
1002
}
  0
LINE
  5
3BB4
102
{ACAD_REACTORS
330
431E
102
}
330
1F
100
AcDbEntity
  8
0
100
AcDbLine
 10
93.75693602323392
 20
212.5611192511346
 30
0.0
 11
99.63478584355764
 21
212.5611192511346
 31
0.0
1001
PHOENIX7010
1002
{
1070
    41
1040
1.0
1002
}
  0
ARC
  5
3BB5
102
{ACAD_REACTORS
330
431E
102
}
330
1F
100
AcDbEntity
  8
0
100
AcDbCircle
 10
90.35678504713905
 20
206.4558788525855
 30
0.0
 40
0.199575240355274
100
AcDbArc
 50
170.1311570875163
 51
270.0514098336731
1001
PHOENIX7010
1002
{
1070
    41
1040
1.0
1002
}
  0
LINE
  5
3BB6
102
{ACAD_REACTORS
330
431E
102
}
330
1F
100
AcDbEntity
  8
0
100
AcDbLine
 10
90.35696412016362
 20
206.2563036925686
 30
0.0
 11
90.62626523838524
 21
206.2563036925686
 31
0.0
1001
PHOENIX7010
1002
{
1070
    41
1040
1.0
1002
}
  0
LINE
  5
3BB7
102
{ACAD_REACTORS
330
431E
102
}
330
1F
100
AcDbEntity
  8
0
100
AcDbLine
 10
90.58027601632057
 20
205.9695093702382
 30
0.0
 11
90.62626523838524
 21
206.2563036925686
 31
0.0
1001
PHOENIX7010
1002
{
1070
    41
1040
1.0
1002
}
  0
LINE
  5
3BB8
102
{ACAD_REACTORS
330
431E
102
}
330
1F
100
AcDbEntity
  8
0
100
AcDbLine
 10
90.58027601632057
 20
194.6479135734652
 30
0.0
 11
90.62626523838524
 21
194.3611192511347
 31
0.0
1001
PHOENIX7010
1002
{
1070
    41
1040
1.0
1002
}
  0
LINE
  5
3BB9
102
{ACAD_REACTORS
330
431E
102
}
330
1F
100
AcDbEntity
  8
0
100
AcDbLine
 10
90.35696412016362
 20
194.3611192511347
 30
0.0
 11
90.62626523838524
 21
194.3611192511347
 31
0.0
1001
PHOENIX7010
1002
{
1070
    41
1040
1.0
1002
}
  0
ARC
  5
3BBA
102
{ACAD_REACTORS
330
431E
102
}
330
1F
100
AcDbEntity
  8
0
100
AcDbCircle
 10
90.35678504714381
 20
194.1615440911138
 30
0.0
 40
0.1995752403592416
100
AcDbArc
 50
89.94859016768181
 51
189.868842911108
1001
PHOENIX7010
1002
{
1070
    41
1040
1.0
1002
}
  0
ELLIPSE
  5
3BBB
102
{ACAD_REACTORS
330
431E
102
}
330
1F
100
AcDbEntity
  8
0
100
AcDbEllipse
 10
99.63341443793593
 20
188.5569898655675
 30
0.0
 11
-0.3545231217175413
 21
0.3545231217175414
 31
0.0
210
0.0
220
0.0
230
1.0
 40
0.9972646886341372
 41
2.357564018062565
 42
3.925621289116877
1001
PHOENIX7010
1002
{
1070
    41
1040
1.0
1002
}
  0
LINE
  5
3BBC
102
{ACAD_REACTORS
330
431E
102
}
330
1F
100
AcDbEntity
  8
0
100
AcDbLine
 10
100.1341006109348
 20
188.5556184599458
 30
0.0
 11
100.1341006109348
 21
189.5563036925685
 31
0.0
1001
PHOENIX7010
1002
{
1070
    41
1040
1.0
1002
}
  0
LINE
  5
3BBD
102
{ACAD_REACTORS
330
431E
102
}
330
1F
100
AcDbEntity
  8
0
100
AcDbLine
 10
100.1341006109348
 20
189.5563036925685
 30
0.0
 11
141.6292850523689
 21
189.5563036925685
 31
0.0
1001
PHOENIX7010
1002
{
1070
    41
1040
1.0
1002
}
  0
LINE
  5
3BBE
102
{ACAD_REACTORS
330
431E
102
}
330
1F
100
AcDbEntity
  8
0
100
AcDbLine
 10
141.4341006109349
 20
189.3611192511347
 30
0.0
 11
100.3292850523688
 21
189.3611192511347
 31
0.0
1001
PHOENIX7010
1002
{
1070
    41
1040
1.0
1002
}
  0
LINE
  5
3BBF
102
{ACAD_REACTORS
330
431E
102
}
330
1F
100
AcDbEntity
  8
0
100
AcDbLine
 10
100.3292850523688
 20
189.3611192511347
 30
0.0
 11
100.3292850523688
 21
188.5077521461798
 31
0.0
1001
PHOENIX7010
1002
{
1070
    41
1040
1.0
1002
}
  0
ELLIPSE
  5
3BC0
102
{ACAD_REACTORS
330
431E
102
}
330
1F
100
AcDbEntity
  8
0
100
AcDbEllipse
 10
99.62832441017029
 20
188.5096721140502
 30
0.0
 11
-0.4963323704045523
 21
0.4963323704045523
 31
0.0
210
0.0
220
0.0
230
1.0
 40
0.9972646886342372
 41
2.357564018062688
 42
3.925621289116834
1001
PHOENIX7010
1002
{
1070
    41
1040
1.0
1002
}
  0
ARC
  5
3BC1
102
{ACAD_REACTORS
330
431E
102
}
330
1F
100
AcDbEntity
  8
0
100
AcDbCircle
 10
90.30881445580552
 20
194.157153316305
 30
0.0
 40
0.3991505368474954
100
AcDbArc
 50
89.94860507013902
 51
189.862997011707
1001
PHOENIX7010
1002
{
1070
    41
1040
1.0
1002
}
  0
LINE
  5
3BC2
102
{ACAD_REACTORS
330
431E
102
}
330
1F
100
AcDbEntity
  8
0
100
AcDbLine
 10
90.30917249807792
 20
194.5563036925685
 30
0.0
 11
90.33871214111718
 21
194.5563036925685
 31
0.0
1001
PHOENIX7010
1002
{
1070
    41
1040
1.0
1002
}
  0
ARC
  5
3BC3
102
{ACAD_REACTORS
330
431E
102
}
330
1F
100
AcDbEntity
  8
0
100
AcDbCircle
 10
90.338755465571
 20
194.6061982417228
 30
0.0
 40
0.0498945679641081
100
AcDbArc
 50
269.9502489195179
 51
9.16454507807351
1001
PHOENIX7010
1002
{
1070
    41
1040
1.0
1002
}
  0
ARC
  5
3BC4
102
{ACAD_REACTORS
330
431E
102
}
330
1F
100
AcDbEntity
  8
0
100
AcDbCircle
 10
90.33875546557123
 20
206.0112247019805
 30
0.0
 40
0.0498945679638552
100
AcDbArc
 50
350.8354549215841
 51
90.04975108082087
1001
PHOENIX7010
1002
{
1070
    41
1040
1.0
1002
}
  0
LINE
  5
3BC5
102
{ACAD_REACTORS
330
431E
102
}
330
1F
100
AcDbEntity
  8
0
100
AcDbLine
 10
90.33871214111718
 20
206.0611192511346
 30
0.0
 11
90.30917249807792
 21
206.0611192511346
 31
0.0
1001
PHOENIX7010
1002
{
1070
    41
1040
1.0
1002
}
  0
ARC
  5
3BC6
102
{ACAD_REACTORS
330
431E
102
}
330
1F
100
AcDbEntity
  8
0
100
AcDbCircle
 10
90.30881445578664
 20
206.4602696273822
 30
0.0
 40
0.3991505368315742
100
AcDbArc
 50
170.1370029855688
 51
270.0513949325447
1001
PHOENIX7010
1002
{
1070
    41
1040
1.0
1002
}
  0
LINE
  5
3BC7
102
{ACAD_REACTORS
330
431E
102
}
330
1F
100
AcDbEntity
  8
0
100
AcDbLine
 10
99.63024437804062
 20
212.8087114718516
 30
0.0
 11
93.75693602323371
 21
212.8087114718516
 31
0.0
1001
PHOENIX7010
1002
{
1070
    41
1040
1.0
1002
}
  0
ELLIPSE
  5
3BC8
102
{ACAD_REACTORS
330
431E
102
}
330
1F
100
AcDbEntity
  8
0
100
AcDbEllipse
 10
99.62832441017029
 20
212.1077508296532
 30
0.0
 11
0.4963323704045593
 21
0.4963323704045593
 31
0.0
210
0.0
220
0.0
230
0.9999999999999998
 40
0.997264688634168
 41
5.499156671652467
 42
7.067213942706704
1001
PHOENIX7010
1002
{
1070
    41
1040
1.0
1002
}
  0
LINE
  5
3BC9
102
{ACAD_REACTORS
330
431E
102
}
330
1F
100
AcDbEntity
  8
0
100
AcDbLine
 10
100.3292850523688
 20
212.1096707975234
 30
0.0
 11
100.3292850523688
 21
211.2563036925687
 31
0.0
1001
PHOENIX7010
1002
{
1070
    41
1040
1.0
1002
}
  0
LINE
  5
3BCA
102
{ACAD_REACTORS
330
431E
102
}
330
1F
100
AcDbEntity
  8
0
100
AcDbLine
 10
100.3292850523688
 20
211.2563036925687
 30
0.0
 11
141.4341006109349
 21
211.2563036925687
 31
0.0
1001
PHOENIX7010
1002
{
1070
    41
1040
1.0
1002
}
  0
LINE
  5
4B2E
330
1F
100
AcDbEntity
  8
0
  6
Continuous
 62
     7
370
    50
100
AcDbLine
 10
310.2254220921604
 20
208.3087114718516
 30
0.0
 11
310.2254220921604
 21
192.3087114718518
 31
0.0
1001
PHOENIX7010
1002
{
1070
    41
1040
1.0
1002
}
  0
LINE
  5
4B2F
330
1F
100
AcDbEntity
  8
0
  6
Continuous
 62
     7
370
    50
100
AcDbLine
 10
273.2254220921604
 20
208.3087114718516
 30
0.0
 11
273.2254220921604
 21
192.3087114718518
 31
0.0
1001
PHOENIX7010
1002
{
1070
    41
1040
1.0
1002
}
  0
DIMENSION
  5
70AB
102
{ACAD_REACTORS
330
7D80
102
}
330
1F
100
AcDbEntity
  8
0
  6
Continuous
 62
     7
370
    35
100
AcDbDimension
  2
*D3
 10
335.1098364323836
 20
187.80871304322
 30
0.0
 11
331.6093443063993
 21
200.308712257536
 31
0.0
 70
    32
 71
     5
 42
24.99999842863173
  3
phoenix
100
AcDbAlignedDimension
 13
318.8501789005785
 23
212.8087114718518
 33
0.0
 14
318.8532494391489
 24
187.8087130432201
 34
0.0
 50
90.0
100
AcDbRotatedDimension
1001
ACAD
1000
DSTYLE
1002
{
1070
   147
1040
1.0
1070
   140
1040
5.0
1070
   173
1070
     1
1070
   271
1070
     3
1070
   272
1070
     3
1070
   179
1070
     3
1002
}
  0
DIMENSION
  5
8FEB
102
{ACAD_REACTORS
330
98C3
102
}
330
1F
100
AcDbEntity
  8
0
  6
Continuous
 62
     7
370
    35
100
AcDbDimension
  2
*D4
 10
322.6730143128774
 20
222.3045831527885
 30
0.0
 11
291.7254220921604
 21
225.8050752787728
 31
0.0
 70
    32
  1
62
 71
     5
 42
61.89518444143391
  3
phoenix
100
AcDbAlignedDimension
 13
260.7778298714435
 23
200.3087114718518
 33
0.0
 14
322.6730143128774
 24
200.3087114718518
 34
0.0
100
AcDbRotatedDimension
1001
ACAD
1000
DSTYLE
1002
{
1070
   147
1040
1.0
1070
   140
1040
5.0
1070
   173
1070
     1
1070
   271
1070
     3
1070
   272
1070
     3
1070
   179
1070
     3
1002
}
  0
DIMENSION
  5
B403
102
{ACAD_REACTORS
330
C56E
102
}
330
1F
100
AcDbEntity
  8
0
  6
Continuous
 62
     7
370
    35
100
AcDbDimension
  2
*D5
 10
163.6052383903775
 20
138.7284800861267
 30
0.0
 11
160.1052383903775
 21
125.6642160174148
 31
0.0
 70
    32
  1
9.4
 71
     5
 42
9.388708685116055
  3
phoenix
100
AcDbAlignedDimension
 13
120.8816928316519
 23
148.1171887712428
 33
0.0
 14
149.6768772730856
 24
138.7284800861267
 34
0.0
 50
90.0
100
AcDbRotatedDimension
1001
ACAD
1000
DSTYLE
1002
{
1070
   147
1040
1.0
1070
   140
1040
5.0
1070
   173
1070
     1
1070
   271
1070
     2
1070
   272
1070
     2
1070
   179
1070
     2
1002
}
  0
LINE
  5
E276
330
1F
100
AcDbEntity
  8
0
  6
Continuous
 62
     7
370
    50
100
AcDbLine
 10
99.88169283165188
 20
192.8087114718516
 30
0.0
 11
141.8816928316519
 21
192.8087114718516
 31
0.0
1001
PHOENIX7010
1002
{
1070
    41
1040
1.0
1002
}
  0
LINE
  5
E278
330
1F
100
AcDbEntity
  8
0
  6
Continuous
 62
     7
370
    50
100
AcDbLine
 10
101.3816928316519
 20
207.8087114718516
 30
0.0
 11
141.8816928316519
 21
207.8087114718516
 31
0.0
1001
PHOENIX7010
1002
{
1070
    41
1040
1.0
1002
}
  0
LINE
  5
10721
102
{ACAD_REACTORS
330
10730
102
}
330
1F
100
AcDbEntity
  8
0
  6
Continuous
 62
     1
100
AcDbLine
 10
230.0
 20
5.000000000000113
 30
0.0
 11
230.0
 21
1.000000000000113
 31
0.0
1001
PHOENIX7010
1002
{
1070
    62
1070
     1
1070
    41
1040
1.0
1002
}
  0
LINE
  5
10722
102
{ACAD_REACTORS
330
10730
102
}
330
1F
100
AcDbEntity
  8
0
  6
Continuous
 62
     3
100
AcDbLine
 10
415.0
 20
5.000000000000113
 30
0.0
 11
20.0
 21
5.000000000000113
 31
0.0
1001
PHOENIX7010
1002
{
1070
    62
1070
     3
1070
    41
1040
1.0
1002
}
  0
LINE
  5
10723
102
{ACAD_REACTORS
330
10730
102
}
330
1F
100
AcDbEntity
  8
0
  6
Continuous
 62
     1
100
AcDbLine
 10
125.0
 20
296.0000000000001
 30
0.0
 11
125.0
 21
292.0000000000001
 31
0.0
1001
PHOENIX7010
1002
{
1070
    62
1070
     1
1070
    41
1040
1.0
1002
}
  0
LINE
  5
10724
102
{ACAD_REACTORS
330
10730
102
}
330
1F
100
AcDbEntity
  8
0
  6
Continuous
 62
     1
100
AcDbLine
 10
230.0
 20
296.0000000000001
 30
0.0
 11
230.0
 21
292.0000000000001
 31
0.0
1001
PHOENIX7010
1002
{
1070
    62
1070
     1
1070
    41
1040
1.0
1002
}
  0
LINE
  5
10725
102
{ACAD_REACTORS
330
10730
102
}
330
1F
100
AcDbEntity
  8
0
  6
Continuous
 62
     1
100
AcDbLine
 10
125.0
 20
5.000000000000113
 30
0.0
 11
125.0
 21
1.000000000000113
 31
0.0
1001
PHOENIX7010
1002
{
1070
    62
1070
     1
1070
    41
1040
1.0
1002
}
  0
LINE
  5
10726
102
{ACAD_REACTORS
330
10730
102
}
330
1F
100
AcDbEntity
  8
0
  6
Continuous
 62
     1
100
AcDbLine
 10
419.0
 20
1.000000000000113
 30
0.0
 11
1.0
 21
1.000000000000113
 31
0.0
1001
PHOENIX7010
1002
{
1070
    62
1070
     1
1070
    41
1040
1.0
1002
}
  0
LINE
  5
10727
102
{ACAD_REACTORS
330
10730
102
}
330
1F
100
AcDbEntity
  8
0
  6
Continuous
 62
     1
100
AcDbLine
 10
1.0
 20
1.000000000000113
 30
0.0
 11
1.0
 21
296.0000000000001
 31
0.0
1001
PHOENIX7010
1002
{
1070
    62
1070
     1
1070
    41
1040
1.0
1002
}
  0
LINE
  5
10728
102
{ACAD_REACTORS
330
10730
102
}
330
1F
100
AcDbEntity
  8
0
  6
Continuous
 62
     1
100
AcDbLine
 10
1.0
 20
296.0000000000001
 30
0.0
 11
419.0
 21
296.0000000000001
 31
0.0
1001
PHOENIX7010
1002
{
1070
    62
1070
     1
1070
    41
1040
1.0
1002
}
  0
LINE
  5
10729
102
{ACAD_REACTORS
330
10730
102
}
330
1F
100
AcDbEntity
  8
0
  6
Continuous
 62
     1
100
AcDbLine
 10
419.0
 20
296.0000000000001
 30
0.0
 11
419.0
 21
1.000000000000113
 31
0.0
1001
PHOENIX7010
1002
{
1070
    62
1070
     1
1070
    41
1040
1.0
1002
}
  0
LINE
  5
1072A
102
{ACAD_REACTORS
330
10730
102
}
330
1F
100
AcDbEntity
  8
0
  6
Continuous
 62
     3
100
AcDbLine
 10
20.0
 20
5.000000000000113
 30
0.0
 11
20.0
 21
292.0000000000001
 31
0.0
1001
PHOENIX7010
1002
{
1070
    62
1070
     3
1070
    41
1040
1.0
1002
}
  0
LINE
  5
1072B
102
{ACAD_REACTORS
330
10730
102
}
330
1F
100
AcDbEntity
  8
0
  6
Continuous
 62
     3
100
AcDbLine
 10
20.0
 20
292.0000000000001
 30
0.0
 11
415.0
 21
292.0000000000001
 31
0.0
1001
PHOENIX7010
1002
{
1070
    62
1070
     3
1070
    41
1040
1.0
1002
}
  0
LINE
  5
1072C
102
{ACAD_REACTORS
330
10730
102
}
330
1F
100
AcDbEntity
  8
0
  6
Continuous
 62
     3
100
AcDbLine
 10
415.0
 20
292.0000000000001
 30
0.0
 11
415.0
 21
5.000000000000113
 31
0.0
1001
PHOENIX7010
1002
{
1070
    62
1070
     3
1070
    41
1040
1.0
1002
}
  0
MTEXT
  5
1072D
102
{ACAD_REACTORS
330
10730
102
}
330
1F
100
AcDbEntity
  8
0
  6
Continuous
 62
     7
370
    50
100
AcDbMText
 10
19.70248718641096
 20
55.39351207913341
 30
0.0
 40
2.0
 41
0.0
 71
     7
 72
     5
  1
{\T1.1;\C1;"Schutzvermerk nach DIN ISO 16016 beachten" \Q20;"Please pay attention to copyright note DIN ISO 16016"}
 11
0.0000000000000002
 21
1.0
 31
0.0
 73
     1
 44
1.0
1001
PHOENIX7010
1002
{
1070
    41
1040
1.0
1002
}
1001
ACAD
1000
MTEXTBEGIN
1070
    73
1070
     1
1070
    44
1040
1.0
1070
    74
1070
     0
1000
MTEXTEND
  0
INSERT
  5
1072E
102
{ACAD_REACTORS
330
10730
102
}
330
1F
100
AcDbEntity
  8
0
  6
Continuous
 62
     1
100
AcDbBlockReference
  2
PH_GRPBLK
 10
230.0
 20
5.000000000000113
 30
0.0
1001
PHOENIX7010
1002
{
1070
    41
1040
1.0
1002
}
  0
INSERT
  5
107C9
102
{ACAD_REACTORS
330
10832
102
}
330
1F
100
AcDbEntity
  8
0
  6
Continuous
 62
     1
370
    25
100
AcDbBlockReference
  2
PH_GRPBLK
 10
400.7334749940254
 20
50.36453811398029
 30
0.0
1001
PHOENIX7010
1002
{
1070
    41
1040
1.0
1002
}
  0
LINE
  5
107CA
102
{ACAD_REACTORS
330
10832
102
}
330
1F
100
AcDbEntity
  8
0
  6
Continuous
 62
     7
370
    50
100
AcDbLine
 10
412.7334749940255
 20
58.16453811398026
 30
0.0
 11
407.4334749940256
 21
51.26453811398029
 31
0.0
1001
PHOENIX7010
1002
{
1070
    41
1040
1.0
1002
}
  0
LINE
  5
107CB
102
{ACAD_REACTORS
330
10832
102
}
330
1F
100
AcDbEntity
  8
0
  6
Continuous
 62
     7
370
    50
100
AcDbLine
 10
407.4334749940256
 20
58.16453811398026
 30
0.0
 11
400.7334749940254
 21
50.36453811398029
 31
0.0
1001
PHOENIX7010
1002
{
1070
    41
1040
1.0
1002
}
  0
LINE
  5
107CC
102
{ACAD_REACTORS
330
10832
102
}
330
1F
100
AcDbEntity
  8
0
  6
Continuous
 62
     7
370
    50
100
AcDbLine
 10
407.4334749940256
 20
51.26453811398029
 30
0.0
 11
407.4334749940256
 21
58.16453811398026
 31
0.0
1001
PHOENIX7010
1002
{
1070
    41
1040
1.0
1002
}
  0
LINE
  5
107CD
102
{ACAD_REACTORS
330
10832
102
}
330
1F
100
AcDbEntity
  8
0
  6
Continuous
 62
     7
370
    50
100
AcDbLine
 10
412.7334749940255
 20
50.36453811398029
 30
0.0
 11
412.7334749940255
 21
58.16453811398026
 31
0.0
1001
PHOENIX7010
1002
{
1070
    41
1040
1.0
1002
}
  0
LINE
  5
107CE
102
{ACAD_REACTORS
330
10832
102
}
330
1F
100
AcDbEntity
  8
0
  6
Continuous
 62
     7
370
    50
100
AcDbLine
 10
400.7334749940254
 20
50.36453811398029
 30
0.0
 11
412.7334749940255
 21
50.36453811398029
 31
0.0
1001
PHOENIX7010
1002
{
1070
    41
1040
1.0
1002
}
  0
HATCH
  5
107CF
102
{ACAD_REACTORS
330
10832
102
}
330
1F
100
AcDbEntity
  8
0
  6
Continuous
 62
     1
370
    25
100
AcDbHatch
 10
0.0
 20
0.0
 30
0.0
210
0.0
220
0.0
230
1.0
  2
_U
 70
     0
 71
     1
 91
        1
 92
        1
 93
        3
 72
     1
 10
399.8834749940255
 20
50.36453811398029
 11
399.8834749940255
 21
54.51453811398028
 72
     1
 10
399.8834749940255
 20
54.51453811398028
 11
404.0334749940255
 21
54.51453811398028
 72
     2
 10
399.8834749940255
 20
54.51453811398028
 40
4.149999999999977
 50
0.0000000000000981
 51
270.0
 73
     1
 97
        1
330
1082D
 75
     0
 76
     0
 52
45.0
 41
0.65
 77
     0
 78
     1
 53
45.0
 43
0.0
 44
-9.08885297207064
 45
-0.4596194077712559
 46
0.4596194077712561
 79
     0
 98
        1
 10
0.0
 20
-9.08885297207064
1001
PHOENIX7010
1002
{
1070
    41
1040
1.0
1002
}
  0
HATCH
  5
107D0
102
{ACAD_REACTORS
330
10832
102
}
330
1F
100
AcDbEntity
  8
0
  6
Continuous
 62
     1
370
    25
100
AcDbHatch
 10
0.0
 20
0.0
 30
0.0
210
0.0
220
0.0
230
1.0
  2
_U
 70
     0
 71
     1
 91
        1
 92
        1
 93
        5
 72
     1
 10
407.4334749940256
 20
58.16453811398037
 11
400.7334749940254
 21
50.36453811398029
 72
     1
 10
400.7334749940254
 20
50.36453811398029
 11
412.7334749940255
 21
50.36453811398029
 72
     1
 10
412.7334749940255
 20
50.36453811398029
 11
412.7334749940255
 21
58.16453811398026
 72
     1
 10
412.7334749940255
 20
58.16453811398026
 11
407.4334749940256
 21
51.2645381139804
 72
     1
 10
407.4334749940256
 20
51.2645381139804
 11
407.4334749940256
 21
58.16453811398037
 97
        1
330
1082E
 75
     0
 76
     0
 52
45.0
 41
0.1
 77
     0
 78
     1
 53
45.0
 43
0.0
 44
-9.08885297207064
 45
-0.0707106781186548
 46
0.0707106781186548
 79
     0
 98
        1
 10
0.0
 20
-9.08885297207064
1001
PHOENIX7010
1002
{
1070
    41
1040
1.0
1002
}
  0
INSERT
  5
107D1
102
{ACAD_REACTORS
330
10833
102
}
330
1F
100
AcDbEntity
  8
0
  6
Continuous
 62
     7
370
    50
100
AcDbBlockReference
  2
PH_GRPBLK
 10
400.7334749940254
 20
50.36453811398029
 30
0.0
1001
PHOENIX7010
1002
{
1070
    41
1040
1.0
1002
}
  0
MTEXT
  5
107D2
102
{ACAD_XDICTIONARY
360
108FC
102
}
102
{ACAD_REACTORS
330
10833
102
}
330
1F
100
AcDbEntity
  8
0
  6
Continuous
 62
     7
370
    50
100
AcDbMText
 10
393.5658807175857
 20
44.46517927327727
 30
0.0
 40
3.7
 41
0.0
 71
     7
 72
     5
  1
{\fArial|b1|i0|c0|p34;\W1.1;BOPLA}
 73
     1
 44
1.135135135135135
1001
PHOENIX7010
1002
{
1070
    41
1040
1.0
1002
}
1001
ACAD
1000
MTEXTBEGIN
1070
    73
1070
     1
1070
    44
1040
1.135135135135135
1070
    74
1070
     0
1000
MTEXTEND
  0
MTEXT
  5
107D3
102
{ACAD_REACTORS
330
10833
102
}
330
1F
100
AcDbEntity
  8
0
  6
Continuous
 62
     7
370
    50
100
AcDbMText
 10
381.0842366554657
 20
40.8834606000314
 30
0.0
 40
1.6
 41
0.0
 71
     7
 72
     5
  1
{\fArial|b0|i0|c0|p34;\W1.1;\C1;A Phoenix Mecano Company}
 73
     1
 44
1.0
1001
PHOENIX7010
1002
{
1070
    41
1040
1.0
1002
}
1001
ACAD
1000
MTEXTBEGIN
1070
    73
1070
     1
1070
    44
1040
1.0
1070
    74
1070
     0
1000
MTEXTEND
  0
MTEXT
  5
107D4
102
{ACAD_REACTORS
330
10834
102
}
330
1F
100
AcDbEntity
  8
0
  6
Continuous
 62
     5
370
    35
100
AcDbMText
 10
340.3074630969179
 20
126.1987580068237
 30
0.0
 40
4.0
 41
0.0
 71
     7
 72
     5
  1
{\C7;1:1}
 73
     1
 44
1.0
1001
PHOENIX7010
1002
{
1070
    41
1040
1.0
1002
}
1001
ACAD
1000
MTEXTBEGIN
1070
    73
1070
     1
1070
    44
1040
1.0
1070
    74
1070
     0
1000
MTEXTEND
  0
MTEXT
  5
107D5
102
{ACAD_REACTORS
330
10834
102
}
330
1F
100
AcDbEntity
  8
0
  6
Continuous
 62
     5
370
    35
100
AcDbMText
 10
319.2942762589885
 20
125.2466907925511
 30
0.0
 40
2.5
 41
0.0
 71
     7
 72
     5
  1
{\C1;Maßstab/\P\Q20;Scale:}
 73
     1
 44
1.0
1001
PHOENIX7010
1002
{
1070
    41
1040
1.0
1002
}
1001
ACAD
1000
MTEXTBEGIN
1070
    73
1070
     1
1070
    44
1040
1.0
1070
    74
1070
     0
1000
MTEXTEND
  0
MTEXT
  5
107D6
102
{ACAD_REACTORS
330
10834
102
}
330
1F
100
AcDbEntity
  8
0
  6
Continuous
 62
     5
370
    35
100
AcDbMText
 10
319.5702130763932
 20
117.578461793006
 30
0.0
 40
3.0
 41
0.0
 71
     7
 72
     5
  1
Zeichnungs-Nr. / {\Q20;Drawing-No.:}
 73
     1
 44
1.0
1001
PHOENIX7010
1002
{
1070
    41
1040
1.0
1002
}
1001
ACAD
1000
MTEXTBEGIN
1070
    73
1070
     1
1070
    44
1040
1.0
1070
    74
1070
     0
1000
MTEXTEND
  0
MTEXT
  5
107D7
102
{ACAD_REACTORS
330
10834
102
}
330
1F
100
AcDbEntity
  8
0
  6
Continuous
 62
     5
370
    35
100
AcDbMText
 10
340.6810942169352
 20
111.4363046740557
 30
0.0
 40
4.0
 41
0.0
 71
     7
 72
     5
  1
{\C7;3G 5340.075.01}
 73
     1
 44
1.0
1001
PHOENIX7010
1002
{
1070
    41
1040
1.0
1002
}
1001
ACAD
1000
MTEXTBEGIN
1070
    73
1070
     1
1070
    44
1040
1.0
1070
    74
1070
     0
1000
MTEXTEND
  0
MTEXT
  5
107DE
102
{ACAD_REACTORS
330
10834
102
}
330
1F
100
AcDbEntity
  8
0
  6
Continuous
 62
     5
370
    35
100
AcDbMText
 10
329.5918340418987
 20
38.32304279191078
 30
0.0
 40
2.0
 41
0.0
 71
     7
 72
     5
  1
{\C1;Datum/\P\Q20;Date:}
 73
     1
 44
1.0
1001
PHOENIX7010
1002
{
1070
    41
1040
1.0
1002
}
1001
ACAD
1000
MTEXTBEGIN
1070
    73
1070
     1
1070
    44
1040
1.0
1070
    74
1070
     0
1000
MTEXTEND
  0
MTEXT
  5
107DF
102
{ACAD_REACTORS
330
10834
102
}
330
1F
100
AcDbEntity
  8
0
  6
Continuous
 62
     5
370
    35
100
AcDbMText
 10
316.167758256943
 20
38.32303913053613
 30
0.0
 40
2.0
 41
0.0
 71
     7
 72
     5
  1
{\C1;Ä.Nr/\P\Q20;Alt-No.:}
 73
     1
 44
1.0
1001
PHOENIX7010
1002
{
1070
    41
1040
1.0
1002
}
1001
ACAD
1000
MTEXTBEGIN
1070
    73
1070
     1
1070
    44
1040
1.0
1070
    74
1070
     0
1000
MTEXTEND
  0
MTEXT
  5
107E0
102
{ACAD_REACTORS
330
10834
102
}
330
1F
100
AcDbEntity
  8
0
  6
Continuous
 62
     5
370
    35
100
AcDbMText
 10
316.5289912646938
 20
33.49475527098106
 30
0.0
 40
2.5
 41
0.0
 71
     7
 72
     5
  1
DISK:
 73
     1
 44
1.0
1001
PHOENIX7010
1002
{
1070
    41
1040
1.0
1002
}
1001
ACAD
1000
MTEXTBEGIN
1070
    73
1070
     1
1070
    44
1040
1.0
1070
    74
1070
     0
1000
MTEXTEND
  0
MTEXT
  5
107E1
102
{ACAD_REACTORS
330
10834
102
}
330
1F
100
AcDbEntity
  8
0
  6
Continuous
 62
     5
370
    35
100
AcDbMText
 10
316.5289912646938
 20
29.24888752318759
 30
0.0
 40
2.5
 41
0.0
 71
     7
 72
     5
  1
Datum/{\Q20;Date:}
 73
     1
 44
1.0
1001
PHOENIX7010
1002
{
1070
    41
1040
1.0
1002
}
1001
ACAD
1000
MTEXTBEGIN
1070
    73
1070
     1
1070
    44
1040
1.0
1070
    74
1070
     0
1000
MTEXTEND
  0
LINE
  5
107E2
102
{ACAD_REACTORS
330
10834
102
}
330
1F
100
AcDbEntity
  8
0
  6
Continuous
 62
     5
370
    35
100
AcDbLine
 10
314.9999999999999
 20
37.50000000000011
 30
0.0
 11
415.0
 21
37.50000000000011
 31
0.0
1001
PHOENIX7010
1002
{
1070
    41
1040
1.0
1002
}
  0
LINE
  5
107E3
102
{ACAD_REACTORS
330
10834
102
}
330
1F
100
AcDbEntity
  8
0
  6
Continuous
 62
     5
100
AcDbLine
 10
405.4999999999997
 20
123.5000000000001
 30
0.0
 11
405.4999999999997
 21
130.5000000000001
 31
0.0
1001
PHOENIX7010
1002
{
1070
    62
1070
     5
1070
    41
1040
1.0
1002
}
  0
LINE
  5
107E4
102
{ACAD_REACTORS
330
10834
102
}
330
1F
100
AcDbEntity
  8
0
  6
ACAD_ISO04W100
 62
     1
 48
0.1451612903225806
100
AcDbLine
 10
410.4999999999996
 20
122.5000000000001
 30
0.0
 11
410.4999999999996
 21
131.5000000000001
 31
0.0
1001
PHOENIX7010
1002
{
1070
    62
1070
     1
1070
    41
1040
1.0
1002
}
  0
CIRCLE
  5
107E5
102
{ACAD_REACTORS
330
10834
102
}
330
1F
100
AcDbEntity
  8
0
  6
Continuous
 62
     5
100
AcDbCircle
 10
410.4999999999996
 20
127.0000000000001
 30
0.0
 40
1.75
1001
PHOENIX7010
1002
{
1070
    62
1070
     5
1070
    41
1040
1.0
1002
}
  0
CIRCLE
  5
107E6
102
{ACAD_REACTORS
330
10834
102
}
330
1F
100
AcDbEntity
  8
0
  6
Continuous
 62
     5
100
AcDbCircle
 10
410.4999999999996
 20
127.0000000000001
 30
0.0
 40
3.5
1001
PHOENIX7010
1002
{
1070
    62
1070
     5
1070
    41
1040
1.0
1002
}
  0
LINE
  5
107E7
102
{ACAD_REACTORS
330
10834
102
}
330
1F
100
AcDbEntity
  8
0
  6
Continuous
 62
     5
100
AcDbLine
 10
398.4999999999999
 20
125.2500000000001
 30
0.0
 11
398.4999999999999
 21
128.7500000000001
 31
0.0
1001
PHOENIX7010
1002
{
1070
    62
1070
     5
1070
    41
1040
1.0
1002
}
  0
LINE
  5
107E8
102
{ACAD_REACTORS
330
10834
102
}
330
1F
100
AcDbEntity
  8
0
  6
ACAD_ISO04W100
 62
     1
 48
0.282258064516129
100
AcDbLine
 10
414.9999999999996
 20
127.0000000000001
 30
0.0
 11
397.4999999999998
 21
127.0000000000001
 31
0.0
1001
PHOENIX7010
1002
{
1070
    62
1070
     1
1070
    41
1040
1.0
1002
}
  0
LINE
  5
107E9
102
{ACAD_REACTORS
330
10834
102
}
330
1F
100
AcDbEntity
  8
0
  6
Continuous
 62
     5
100
AcDbLine
 10
405.4999999999997
 20
123.5000000000001
 30
0.0
 11
398.4999999999999
 21
125.2500000000001
 31
0.0
1001
PHOENIX7010
1002
{
1070
    62
1070
     5
1070
    41
1040
1.0
1002
}
  0
LINE
  5
107EA
102
{ACAD_REACTORS
330
10834
102
}
330
1F
100
AcDbEntity
  8
0
  6
Continuous
 62
     5
100
AcDbLine
 10
405.4999999999997
 20
130.5000000000001
 30
0.0
 11
398.4999999999999
 21
128.7500000000001
 31
0.0
1001
PHOENIX7010
1002
{
1070
    62
1070
     5
1070
    41
1040
1.0
1002
}
  0
ARC
  5
107EB
102
{ACAD_REACTORS
330
10834
102
}
330
1F
100
AcDbEntity
  8
0
  6
Continuous
 62
     5
100
AcDbCircle
 10
317.4999999999998
 20
120.0000000000001
 30
0.0
 40
2.5
100
AcDbArc
 50
90.0
 51
180.0
1001
PHOENIX7010
1002
{
1070
    62
1070
     5
1070
    41
1040
1.0
1002
}
  0
LINE
  5
107EC
102
{ACAD_REACTORS
330
10834
102
}
330
1F
100
AcDbEntity
  8
0
  6
Continuous
 62
     5
100
AcDbLine
 10
415.0
 20
122.5000000000001
 30
0.0
 11
317.4999999999998
 21
122.5000000000001
 31
0.0
1001
PHOENIX7010
1002
{
1070
    62
1070
     5
1070
    41
1040
1.0
1002
}
  0
LINE
  5
107ED
102
{ACAD_REACTORS
330
10834
102
}
330
1F
100
AcDbEntity
  8
0
  6
Continuous
 62
     1
370
    25
100
AcDbLine
 10
374.0
 20
28.00000000000011
 30
0.0
 11
374.0
 21
5.000000000000113
 31
0.0
1001
PHOENIX7010
1002
{
1070
    62
1070
     5
1070
    41
1040
1.0
1002
}
  0
TEXT
  5
107EE
102
{ACAD_REACTORS
330
10834
102
}
330
1F
100
AcDbEntity
  8
0
  6
Continuous
 62
     1
100
AcDbText
 10
328.9999996997324
 20
65.74999981501354
 30
0.0
 40
2.0
  1
-
 41
1.5
100
AcDbText
1001
PHOENIX7010
1002
{
1070
    62
1070
     1
1070
    41
1040
1.0
1002
}
  0
TEXT
  5
107EF
102
{ACAD_REACTORS
330
10834
102
}
330
1F
100
AcDbEntity
  8
0
  6
Continuous
 62
     1
100
AcDbText
 10
328.9999996997324
 20
63.24999981501354
 30
0.0
 40
2.0
  1
-
 41
1.5
100
AcDbText
1001
PHOENIX7010
1002
{
1070
    62
1070
     1
1070
    41
1040
1.0
1002
}
  0
TEXT
  5
107F0
102
{ACAD_REACTORS
330
10834
102
}
330
1F
100
AcDbEntity
  8
0
  6
Continuous
 62
     1
100
AcDbText
 10
328.9999996997324
 20
68.24999981501354
 30
0.0
 40
2.0
  1
-
 41
1.5
100
AcDbText
1001
PHOENIX7010
1002
{
1070
    62
1070
     1
1070
    41
1040
1.0
1002
}
  0
TEXT
  5
107F1
102
{ACAD_REACTORS
330
10834
102
}
330
1F
100
AcDbEntity
  8
0
  6
Continuous
 62
     1
100
AcDbText
 10
315.9999996997324
 20
65.74999981501354
 30
0.0
 40
2.0
  1
-
 41
1.5
100
AcDbText
1001
PHOENIX7010
1002
{
1070
    62
1070
     1
1070
    41
1040
1.0
1002
}
  0
TEXT
  5
107F2
102
{ACAD_REACTORS
330
10834
102
}
330
1F
100
AcDbEntity
  8
0
  6
Continuous
 62
     1
100
AcDbText
 10
315.9999996997324
 20
63.24999981501354
 30
0.0
 40
2.0
  1
-
 41
1.5
100
AcDbText
1001
PHOENIX7010
1002
{
1070
    62
1070
     1
1070
    41
1040
1.0
1002
}
  0
TEXT
  5
107F3
102
{ACAD_REACTORS
330
10834
102
}
330
1F
100
AcDbEntity
  8
0
  6
Continuous
 62
     1
100
AcDbText
 10
315.9999996997324
 20
68.24999981501354
 30
0.0
 40
2.0
  1
-
 41
1.5
100
AcDbText
1001
PHOENIX7010
1002
{
1070
    62
1070
     1
1070
    41
1040
1.0
1002
}
  0
ARC
  5
107F4
102
{ACAD_REACTORS
330
10834
102
}
330
1F
100
AcDbEntity
  8
0
  6
Continuous
 62
     5
100
AcDbCircle
 10
317.4999999999998
 20
68.50000000000012
 30
0.0
 40
2.5
100
AcDbArc
 50
90.0
 51
180.0
1001
PHOENIX7010
1002
{
1070
    62
1070
     5
1070
    41
1040
1.0
1002
}
  0
ARC
  5
107F5
102
{ACAD_REACTORS
330
10834
102
}
330
1F
100
AcDbEntity
  8
0
  6
Continuous
 62
     5
100
AcDbCircle
 10
317.4999999999998
 20
99.00000000000012
 30
0.0
 40
2.5
100
AcDbArc
 50
90.0
 51
180.0
1001
PHOENIX7010
1002
{
1070
    62
1070
     5
1070
    41
1040
1.0
1002
}
  0
TEXT
  5
107F6
102
{ACAD_REACTORS
330
10834
102
}
330
1F
100
AcDbEntity
  8
0
  6
Continuous
 62
     1
100
AcDbText
 10
328.9999996997324
 20
48.24999981501354
 30
0.0
 40
2.0
  1
-
 41
1.5
100
AcDbText
1001
PHOENIX7010
1002
{
1070
    62
1070
     1
1070
    41
1040
1.0
1002
}
  0
TEXT
  5
107F7
102
{ACAD_REACTORS
330
10834
102
}
330
1F
100
AcDbEntity
  8
0
  6
Continuous
 62
     1
100
AcDbText
 10
328.9999996997324
 20
45.74999981501354
 30
0.0
 40
2.0
  1
-
 41
1.5
100
AcDbText
1001
PHOENIX7010
1002
{
1070
    62
1070
     1
1070
    41
1040
1.0
1002
}
  0
TEXT
  5
107F8
102
{ACAD_REACTORS
330
10834
102
}
330
1F
100
AcDbEntity
  8
0
  6
Continuous
 62
     1
100
AcDbText
 10
328.9999996997324
 20
53.24999981501354
 30
0.0
 40
2.0
  1
-
 41
1.5
100
AcDbText
1001
PHOENIX7010
1002
{
1070
    62
1070
     1
1070
    41
1040
1.0
1002
}
  0
TEXT
  5
107F9
102
{ACAD_REACTORS
330
10834
102
}
330
1F
100
AcDbEntity
  8
0
  6
Continuous
 62
     1
100
AcDbText
 10
328.9999996997324
 20
50.74999981501354
 30
0.0
 40
2.0
  1
-
 41
1.5
100
AcDbText
1001
PHOENIX7010
1002
{
1070
    62
1070
     1
1070
    41
1040
1.0
1002
}
  0
TEXT
  5
107FA
102
{ACAD_REACTORS
330
10834
102
}
330
1F
100
AcDbEntity
  8
0
  6
Continuous
 62
     1
100
AcDbText
 10
328.9999996997324
 20
55.74999981501354
 30
0.0
 40
2.0
  1
-
 41
1.5
100
AcDbText
1001
PHOENIX7010
1002
{
1070
    62
1070
     1
1070
    41
1040
1.0
1002
}
  0
TEXT
  5
107FB
102
{ACAD_REACTORS
330
10834
102
}
330
1F
100
AcDbEntity
  8
0
  6
Continuous
 62
     1
100
AcDbText
 10
328.9999996997324
 20
58.24999981501354
 30
0.0
 40
2.0
  1
-
 41
1.5
100
AcDbText
1001
PHOENIX7010
1002
{
1070
    62
1070
     1
1070
    41
1040
1.0
1002
}
  0
TEXT
  5
107FC
102
{ACAD_REACTORS
330
10834
102
}
330
1F
100
AcDbEntity
  8
0
  6
Continuous
 62
     1
100
AcDbText
 10
328.9999996997324
 20
60.74999981501354
 30
0.0
 40
2.0
  1
-
 41
1.5
100
AcDbText
1001
PHOENIX7010
1002
{
1070
    62
1070
     1
1070
    41
1040
1.0
1002
}
  0
TEXT
  5
107FD
102
{ACAD_REACTORS
330
10834
102
}
330
1F
100
AcDbEntity
  8
0
  6
Continuous
 62
     1
100
AcDbText
 10
315.9999996997324
 20
48.24999981501354
 30
0.0
 40
2.0
  1
-
 41
1.5
100
AcDbText
1001
PHOENIX7010
1002
{
1070
    62
1070
     1
1070
    41
1040
1.0
1002
}
  0
TEXT
  5
107FE
102
{ACAD_REACTORS
330
10834
102
}
330
1F
100
AcDbEntity
  8
0
  6
Continuous
 62
     1
100
AcDbText
 10
315.9999996997324
 20
45.74999981501354
 30
0.0
 40
2.0
  1
-
 41
1.5
100
AcDbText
1001
PHOENIX7010
1002
{
1070
    62
1070
     1
1070
    41
1040
1.0
1002
}
  0
TEXT
  5
107FF
102
{ACAD_REACTORS
330
10834
102
}
330
1F
100
AcDbEntity
  8
0
  6
Continuous
 62
     1
100
AcDbText
 10
315.9999996997324
 20
53.24999981501354
 30
0.0
 40
2.0
  1
-
 41
1.5
100
AcDbText
1001
PHOENIX7010
1002
{
1070
    62
1070
     1
1070
    41
1040
1.0
1002
}
  0
TEXT
  5
10800
102
{ACAD_REACTORS
330
10834
102
}
330
1F
100
AcDbEntity
  8
0
  6
Continuous
 62
     1
100
AcDbText
 10
315.9999996997324
 20
50.74999981501354
 30
0.0
 40
2.0
  1
-
 41
1.5
100
AcDbText
1001
PHOENIX7010
1002
{
1070
    62
1070
     1
1070
    41
1040
1.0
1002
}
  0
TEXT
  5
10801
102
{ACAD_REACTORS
330
10834
102
}
330
1F
100
AcDbEntity
  8
0
  6
Continuous
 62
     1
100
AcDbText
 10
315.9999996997324
 20
55.74999981501354
 30
0.0
 40
2.0
  1
-
 41
1.5
100
AcDbText
1001
PHOENIX7010
1002
{
1070
    62
1070
     1
1070
    41
1040
1.0
1002
}
  0
TEXT
  5
10802
102
{ACAD_REACTORS
330
10834
102
}
330
1F
100
AcDbEntity
  8
0
  6
Continuous
 62
     1
100
AcDbText
 10
315.9999996997324
 20
58.24999981501354
 30
0.0
 40
2.0
  1
-
 41
1.5
100
AcDbText
1001
PHOENIX7010
1002
{
1070
    62
1070
     1
1070
    41
1040
1.0
1002
}
  0
TEXT
  5
10803
102
{ACAD_REACTORS
330
10834
102
}
330
1F
100
AcDbEntity
  8
0
  6
Continuous
 62
     1
100
AcDbText
 10
315.9999996997324
 20
60.74999981501354
 30
0.0
 40
2.0
  1
-
 41
1.5
100
AcDbText
1001
PHOENIX7010
1002
{
1070
    62
1070
     1
1070
    41
1040
1.0
1002
}
  0
LINE
  5
10804
102
{ACAD_REACTORS
330
10834
102
}
330
1F
100
AcDbEntity
  8
0
  6
Continuous
 62
     1
100
AcDbLine
 10
327.9999999999998
 20
71.00000000000012
 30
0.0
 11
327.9999999999998
 21
37.50000000000011
 31
0.0
1001
PHOENIX7010
1002
{
1070
    62
1070
     1
1070
    41
1040
1.0
1002
}
  0
LINE
  5
10805
102
{ACAD_REACTORS
330
10834
102
}
330
1F
100
AcDbEntity
  8
0
  6
Continuous
 62
     1
100
AcDbLine
 10
314.9999999999999
 20
44.5000000000001
 30
0.0
 11
350.0
 21
44.5000000000001
 31
0.0
1001
PHOENIX7010
1002
{
1070
    62
1070
     1
1070
    41
1040
1.0
1002
}
  0
LINE
  5
10806
102
{ACAD_REACTORS
330
10834
102
}
330
1F
100
AcDbEntity
  8
0
  6
Continuous
 62
     5
100
AcDbLine
 10
415.0
 20
101.5000000000001
 30
0.0
 11
317.4999999999998
 21
101.5000000000001
 31
0.0
1001
PHOENIX7010
1002
{
1070
    62
1070
     5
1070
    41
1040
1.0
1002
}
  0
LINE
  5
10807
102
{ACAD_REACTORS
330
10834
102
}
330
1F
100
AcDbEntity
  8
0
  6
Continuous
 62
     5
100
AcDbLine
 10
415.0
 20
71.00000000000012
 30
0.0
 11
317.4999999999998
 21
71.00000000000012
 31
0.0
1001
PHOENIX7010
1002
{
1070
    62
1070
     5
1070
    41
1040
1.0
1002
}
  0
LINE
  5
10808
102
{ACAD_REACTORS
330
10834
102
}
330
1F
100
AcDbEntity
  8
0
  6
Continuous
 62
     5
100
AcDbLine
 10
314.9999999999999
 20
178.0000000000001
 30
0.0
 11
314.9999999999999
 21
5.000000000000113
 31
0.0
1001
PHOENIX7010
1002
{
1070
    62
1070
     5
1070
    41
1040
1.0
1002
}
  0
LINE
  5
10809
102
{ACAD_REACTORS
330
10834
102
}
330
1F
100
AcDbEntity
  8
0
  6
Continuous
 62
     5
370
    35
100
AcDbLine
 10
314.9999999999999
 20
28.00000000000011
 30
0.0
 11
415.0
 21
28.00000000000011
 31
0.0
1001
PHOENIX7010
1002
{
1070
    41
1040
1.0
1002
}
  0
LINE
  5
1080A
102
{ACAD_REACTORS
330
10834
102
}
330
1F
100
AcDbEntity
  8
0
  6
Continuous
 62
     5
370
    35
100
AcDbLine
 10
314.9999999999999
 20
23.00000000000011
 30
0.0
 11
415.0
 21
23.00000000000011
 31
0.0
1001
PHOENIX7010
1002
{
1070
    41
1040
1.0
1002
}
  0
LINE
  5
1080B
102
{ACAD_REACTORS
330
10834
102
}
330
1F
100
AcDbEntity
  8
0
  6
Continuous
 62
     5
370
    35
100
AcDbLine
 10
314.9999999999999
 20
23.00000000000011
 30
0.0
 11
415.0
 21
23.00000000000011
 31
0.0
1001
PHOENIX7010
1002
{
1070
    41
1040
1.0
1002
}
  0
LINE
  5
1080C
102
{ACAD_REACTORS
330
10834
102
}
330
1F
100
AcDbEntity
  8
0
  6
Continuous
 62
     1
370
    25
100
AcDbLine
 10
314.9999999999999
 20
14.00000000000011
 30
0.0
 11
415.0
 21
14.00000000000011
 31
0.0
1001
PHOENIX7010
1002
{
1070
    41
1040
1.0
1002
}
  0
LINE
  5
1080D
102
{ACAD_REACTORS
330
10834
102
}
330
1F
100
AcDbEntity
  8
0
  6
Continuous
 62
     5
100
AcDbLine
 10
350.0
 20
71.00000000000012
 30
0.0
 11
350.0
 21
37.50000000000011
 31
0.0
1001
PHOENIX7010
1002
{
1070
    62
1070
     5
1070
    41
1040
1.0
1002
}
  0
LINE
  5
1080E
102
{ACAD_REACTORS
330
10834
102
}
330
1F
100
AcDbEntity
  8
0
  6
Continuous
 62
     5
100
AcDbLine
 10
350.0
 20
28.00000000000011
 30
0.0
 11
350.0
 21
5.000000000000113
 31
0.0
1001
PHOENIX7010
1002
{
1070
    62
1070
     5
1070
    41
1040
1.0
1002
}
  0
MTEXT
  5
1080F
102
{ACAD_REACTORS
330
10834
102
}
330
1F
100
AcDbEntity
  8
0
  6
Continuous
 62
     5
370
    35
100
AcDbMText
 10
372.1764856757657
 20
29.24888752318759
 30
0.0
 40
2.5
 41
0.0
 71
     7
 72
     5
  1
Blatt/{\Q20;Sheet:   }1   /   1
 73
     1
 44
1.0
1001
PHOENIX7010
1002
{
1070
    41
1040
1.0
1002
}
1001
ACAD
1000
MTEXTBEGIN
1070
    73
1070
     1
1070
    44
1040
1.0
1070
    74
1070
     0
1000
MTEXTEND
  0
MTEXT
  5
10810
102
{ACAD_REACTORS
330
10834
102
}
330
1F
100
AcDbEntity
  8
0
  6
Continuous
 62
     5
370
    35
100
AcDbMText
 10
351.5289912646939
 20
24.52073237545164
 30
0.0
 40
2.5
 41
0.0
 71
     7
 72
     5
  1
Datum/{\Q20;Date}
 73
     1
 44
1.0
1001
PHOENIX7010
1002
{
1070
    41
1040
1.0
1002
}
1001
ACAD
1000
MTEXTBEGIN
1070
    73
1070
     1
1070
    44
1040
1.0
1070
    74
1070
     0
1000
MTEXTEND
  0
MTEXT
  5
10811
102
{ACAD_REACTORS
330
10834
102
}
330
1F
100
AcDbEntity
  8
0
  6
Continuous
 62
     5
370
    35
100
AcDbMText
 10
375.528991264694
 20
23.72415732371144
 30
0.0
 40
2.5
 41
0.0
 71
     7
 72
     5
  1
{\T0.9;Unterschrift/\Q20;Signature}
 73
     1
 44
1.0
1001
PHOENIX7010
1002
{
1070
    41
1040
1.0
1002
}
1001
ACAD
1000
MTEXTBEGIN
1070
    73
1070
     1
1070
    44
1040
1.0
1070
    74
1070
     0
1000
MTEXTEND
  0
MTEXT
  5
10812
102
{ACAD_REACTORS
330
10834
102
}
330
1F
100
AcDbEntity
  8
0
  6
Continuous
 62
     5
370
    35
100
AcDbMText
 10
316.5289912646938
 20
15.24888752318759
 30
0.0
 40
2.5
 41
0.0
 71
     7
 72
     5
  1
geprüft/\P{\Q20;checked}
 73
     1
 44
1.0
1001
PHOENIX7010
1002
{
1070
    41
1040
1.0
1002
}
1001
ACAD
1000
MTEXTBEGIN
1070
    73
1070
     1
1070
    44
1040
1.0
1070
    74
1070
     0
1000
MTEXTEND
  0
MTEXT
  5
10813
102
{ACAD_REACTORS
330
10834
102
}
330
1F
100
AcDbEntity
  8
0
  6
Continuous
 62
     5
370
    35
100
AcDbMText
 10
316.5289912646938
 20
6.248887523187589
 30
0.0
 40
2.5
 41
0.0
 71
     7
 72
     5
  1
{\T0.9;Fertigungsfreigabe/\P\Q20;Production release}
 73
     1
 44
1.0
1001
PHOENIX7010
1002
{
1070
    41
1040
1.0
1002
}
1001
ACAD
1000
MTEXTBEGIN
1070
    73
1070
     1
1070
    44
1040
1.0
1070
    74
1070
     0
1000
MTEXTEND
  0
MTEXT
  5
10814
102
{ACAD_REACTORS
330
10834
102
}
330
1F
100
AcDbEntity
  8
0
  6
Continuous
 62
     5
370
    35
100
AcDbMText
 10
342.2178658257174
 20
33.60592166613924
 30
0.0
 40
2.5
 41
0.0
 71
     7
 72
     5
  1
2 802 578
 73
     1
 44
1.0
1001
PHOENIX7010
1002
{
1070
    41
1040
1.0
1002
}
1001
ACAD
1000
MTEXTBEGIN
1070
    73
1070
     1
1070
    44
1040
1.0
1070
    74
1070
     0
1000
MTEXTEND
  0
MTEXT
  5
10815
102
{ACAD_REACTORS
330
10834
102
}
330
1F
100
AcDbEntity
  8
0
  6
Continuous
 62
     5
370
    35
100
AcDbMText
 10
342.2178658257174
 20
29.24888752318759
 30
0.0
 40
2.5
 41
0.0
 71
     7
 72
     5
  1
29.11.2004 HR
 73
     1
 44
1.0
1001
PHOENIX7010
1002
{
1070
    41
1040
1.0
1002
}
1001
ACAD
1000
MTEXTBEGIN
1070
    73
1070
     1
1070
    44
1040
1.0
1070
    74
1070
     0
1000
MTEXTEND
  0
LINE
  5
10816
102
{ACAD_REACTORS
330
10834
102
}
330
1F
100
AcDbEntity
  8
0
  6
Continuous
 62
     5
100
AcDbLine
 10
415.0
 20
149.5000000000001
 30
0.0
 11
317.4999999999998
 21
149.5000000000001
 31
0.0
1001
PHOENIX7010
1002
{
1070
    41
1040
1.0
1002
}
  0
LINE
  5
10817
102
{ACAD_REACTORS
330
10834
102
}
330
1F
100
AcDbEntity
  8
0
  6
Continuous
 62
     5
370
    35
100
AcDbLine
 10
415.0
 20
169.5000000000001
 30
0.0
 11
317.4999999999998
 21
169.5000000000001
 31
0.0
1001
PHOENIX7010
1002
{
1070
    41
1040
1.0
1002
}
  0
LINE
  5
10818
102
{ACAD_REACTORS
330
10834
102
}
330
1F
100
AcDbEntity
  8
0
  6
Continuous
 62
     5
370
    35
100
AcDbLine
 10
415.0
 20
180.5000000000001
 30
0.0
 11
317.4999999999998
 21
180.5000000000001
 31
0.0
1001
PHOENIX7010
1002
{
1070
    41
1040
1.0
1002
}
  0
ARC
  5
10819
102
{ACAD_REACTORS
330
10834
102
}
330
1F
100
AcDbEntity
  8
0
  6
Continuous
 62
     5
100
AcDbCircle
 10
317.4999999999998
 20
147.0000000000001
 30
0.0
 40
2.5
100
AcDbArc
 50
90.0
 51
180.0
1001
PHOENIX7010
1002
{
1070
    41
1040
1.0
1002
}
  0
ARC
  5
1081A
102
{ACAD_REACTORS
330
10834
102
}
330
1F
100
AcDbEntity
  8
0
  6
Continuous
 62
     5
100
AcDbCircle
 10
317.4999999999998
 20
167.0
 30
0.0
 40
2.5
100
AcDbArc
 50
90.0
 51
180.0
1001
PHOENIX7010
1002
{
1070
    41
1040
1.0
1002
}
  0
ARC
  5
1081B
102
{ACAD_REACTORS
330
10834
102
}
330
1F
100
AcDbEntity
  8
0
  6
Continuous
 62
     5
100
AcDbCircle
 10
317.4999999999998
 20
178.0000000000001
 30
0.0
 40
2.5
100
AcDbArc
 50
90.0
 51
180.0
1001
PHOENIX7010
1002
{
1070
    41
1040
1.0
1002
}
  0
MTEXT
  5
1081C
102
{ACAD_REACTORS
330
10834
102
}
330
1F
100
AcDbEntity
  8
0
  6
Continuous
 62
     5
370
    35
100
AcDbMText
 10
317.4904144324187
 20
106.1420006354828
 30
0.0
 40
2.0
 41
0.0
 71
     7
 72
     5
  1
{\C1;Bem.: Erstellt nach Vorlage / \Q20;Dim.: constructed by specification:}
 73
     1
 44
1.0
1001
PHOENIX7010
1002
{
1070
    41
1040
1.0
1002
}
1001
ACAD
1000
MTEXTBEGIN
1070
    73
1070
     1
1070
    44
1040
1.0
1070
    74
1070
     0
1000
MTEXTEND
  0
MTEXT
  5
1081D
102
{ACAD_REACTORS
330
10834
102
}
330
1F
100
AcDbEntity
  8
0
  6
Continuous
 62
     5
370
    35
100
AcDbMText
 10
318.2310194173415
 20
103.0621268735633
 30
0.0
 40
2.0
 41
0.0
 71
     7
 72
     5
  1
{\C1;-}
 73
     1
 44
1.0
1001
PHOENIX7010
1002
{
1070
    41
1040
1.0
1002
}
1001
ACAD
1000
MTEXTBEGIN
1070
    73
1070
     1
1070
    44
1040
1.0
1070
    74
1070
     0
1000
MTEXTEND
  0
MTEXT
  5
1081E
102
{ACAD_REACTORS
330
10834
102
}
330
1F
100
AcDbEntity
  8
0
  6
Continuous
 62
     5
370
    35
100
AcDbMText
 10
319.2942762589885
 20
144.7604021928944
 30
0.0
 40
2.5
 41
0.0
 71
     7
 72
     5
  1
{\C1;Allg.Tol.:}
 73
     1
 44
1.0
1001
PHOENIX7010
1002
{
1070
    41
1040
1.0
1002
}
1001
ACAD
1000
MTEXTBEGIN
1070
    73
1070
     1
1070
    44
1040
1.0
1070
    74
1070
     0
1000
MTEXTEND
  0
MTEXT
  5
1081F
102
{ACAD_REACTORS
330
10834
102
}
330
1F
100
AcDbEntity
  8
0
  6
Continuous
 62
     5
370
    35
100
AcDbMText
 10
339.7913305013808
 20
145.7387216645193
 30
0.0
 40
2.5
 41
0.0
 71
     7
 72
     5
  1
DIN 16901 für Kunststoffteil
 73
     1
 44
1.0
1001
PHOENIX7010
1002
{
1070
    41
1040
1.0
1002
}
1001
ACAD
1000
MTEXTBEGIN
1070
    73
1070
     1
1070
    44
1040
1.0
1070
    74
1070
     0
1000
MTEXTEND
  0
MTEXT
  5
10820
102
{ACAD_REACTORS
330
10834
102
}
330
1F
100
AcDbEntity
  8
0
  6
Continuous
 62
     5
370
    35
100
AcDbMText
 10
339.7913305013808
 20
141.4898652776519
 30
0.0
 40
2.5
 41
0.0
 71
     7
 72
     5
  1
DIN ISO 2768-mk für Bearbeitung
 73
     1
 44
1.0
1001
PHOENIX7010
1002
{
1070
    41
1040
1.0
1002
}
1001
ACAD
1000
MTEXTBEGIN
1070
    73
1070
     1
1070
    44
1040
1.0
1070
    74
1070
     0
1000
MTEXTEND
  0
MTEXT
  5
10821
102
{ACAD_REACTORS
330
10834
102
}
330
1F
100
AcDbEntity
  8
0
  6
Continuous
 62
     5
370
    35
100
AcDbMText
 10
339.7913305013808
 20
133.1355030484365
 30
0.0
 40
2.5
 41
0.0
 71
     7
 72
     5
  1
{\Q20;DIN ISO 2768-mk for machining}
 73
     1
 44
1.0
1001
PHOENIX7010
1002
{
1070
    41
1040
1.0
1002
}
1001
ACAD
1000
MTEXTBEGIN
1070
    73
1070
     1
1070
    44
1040
1.0
1070
    74
1070
     0
1000
MTEXTEND
  0
MTEXT
  5
10822
102
{ACAD_REACTORS
330
10834
102
}
330
1F
100
AcDbEntity
  8
0
  6
Continuous
 62
     5
370
    35
100
AcDbMText
 10
339.7913305013808
 20
137.3843594353038
 30
0.0
 40
2.5
 41
0.0
 71
     7
 72
     5
  1
{\Q20;DIN 16901 for plastic part}
 73
     1
 44
1.0
1001
PHOENIX7010
1002
{
1070
    41
1040
1.0
1002
}
1001
ACAD
1000
MTEXTBEGIN
1070
    73
1070
     1
1070
    44
1040
1.0
1070
    74
1070
     0
1000
MTEXTEND
  0
MTEXT
  5
10823
102
{ACAD_REACTORS
330
10834
102
}
330
1F
100
AcDbEntity
  8
0
  6
Continuous
 62
     5
370
    35
100
AcDbMText
 10
319.2942762589885
 20
136.4060399636789
 30
0.0
 40
2.5
 41
0.0
 71
     7
 72
     5
  1
{\Q20;\C1;Gen.Tol.:}
 73
     1
 44
1.0
1001
PHOENIX7010
1002
{
1070
    41
1040
1.0
1002
}
1001
ACAD
1000
MTEXTBEGIN
1070
    73
1070
     1
1070
    44
1040
1.0
1070
    74
1070
     0
1000
MTEXTEND
  0
MTEXT
  5
10824
102
{ACAD_REACTORS
330
10834
102
}
330
1F
100
AcDbEntity
  8
0
  6
Continuous
 62
     5
370
    35
100
AcDbMText
 10
319.2942762589885
 20
164.7604021928944
 30
0.0
 40
2.5
 41
0.0
 71
     7
 72
     5
  1
{\C1;Werkstoff:}
 73
     1
 44
1.0
1001
PHOENIX7010
1002
{
1070
    41
1040
1.0
1002
}
1001
ACAD
1000
MTEXTBEGIN
1070
    73
1070
     1
1070
    44
1040
1.0
1070
    74
1070
     0
1000
MTEXTEND
  0
MTEXT
  5
10825
102
{ACAD_REACTORS
330
10834
102
}
330
1F
100
AcDbEntity
  8
0
  6
Continuous
 62
     5
370
    35
100
AcDbMText
 10
339.7913305013808
 20
164.8027118382896
 30
0.0
 40
2.5
 41
0.0
 71
     7
 72
     5
  1
-
 73
     1
 44
1.0
1001
PHOENIX7010
1002
{
1070
    41
1040
1.0
1002
}
1001
ACAD
1000
MTEXTBEGIN
1070
    73
1070
     1
1070
    44
1040
1.0
1070
    74
1070
     0
1000
MTEXTEND
  0
MTEXT
  5
10826
102
{ACAD_REACTORS
330
10834
102
}
330
1F
100
AcDbEntity
  8
0
  6
Continuous
 62
     5
370
    35
100
AcDbMText
 10
319.971247442415
 20
160.5538554514223
 30
0.0
 40
2.5
 41
0.0
 71
     7
 72
     5
  1
-
 73
     1
 44
1.0
1001
PHOENIX7010
1002
{
1070
    41
1040
1.0
1002
}
1001
ACAD
1000
MTEXTBEGIN
1070
    73
1070
     1
1070
    44
1040
1.0
1070
    74
1070
     0
1000
MTEXTEND
  0
MTEXT
  5
10827
102
{ACAD_REACTORS
330
10834
102
}
330
1F
100
AcDbEntity
  8
0
  6
Continuous
 62
     5
370
    35
100
AcDbMText
 10
339.7913305013808
 20
156.4483496090742
 30
0.0
 40
2.5
 41
0.0
 71
     7
 72
     5
  1
{\Q20;-}
 73
     1
 44
1.0
1001
PHOENIX7010
1002
{
1070
    41
1040
1.0
1002
}
1001
ACAD
1000
MTEXTBEGIN
1070
    73
1070
     1
1070
    44
1040
1.0
1070
    74
1070
     0
1000
MTEXTEND
  0
MTEXT
  5
10828
102
{ACAD_REACTORS
330
10834
102
}
330
1F
100
AcDbEntity
  8
0
  6
Continuous
 62
     5
370
    35
100
AcDbMText
 10
319.971247442415
 20
152.1994932222069
 30
0.0
 40
2.5
 41
0.0
 71
     7
 72
     5
  1
{\Q20;-}
 73
     1
 44
1.0
1001
PHOENIX7010
1002
{
1070
    41
1040
1.0
1002
}
1001
ACAD
1000
MTEXTBEGIN
1070
    73
1070
     1
1070
    44
1040
1.0
1070
    74
1070
     0
1000
MTEXTEND
  0
MTEXT
  5
10829
102
{ACAD_REACTORS
330
10834
102
}
330
1F
100
AcDbEntity
  8
0
  6
Continuous
 62
     5
370
    35
100
AcDbMText
 10
319.2942762589885
 20
156.4060399636789
 30
0.0
 40
2.5
 41
0.0
 71
     7
 72
     5
  1
{\Q20;\C1;Material:}
 73
     1
 44
1.0
1001
PHOENIX7010
1002
{
1070
    41
1040
1.0
1002
}
1001
ACAD
1000
MTEXTBEGIN
1070
    73
1070
     1
1070
    44
1040
1.0
1070
    74
1070
     0
1000
MTEXTEND
  0
MTEXT
  5
1082A
102
{ACAD_REACTORS
330
10834
102
}
330
1F
100
AcDbEntity
  8
0
  6
Continuous
 62
     5
370
    35
100
AcDbMText
 10
319.2942762589885
 20
172.2466907925511
 30
0.0
 40
2.5
 41
0.0
 71
     7
 72
     5
  1
{\C1;Artikel-Nr./\P\Q20;Art-No.:}
 73
     1
 44
1.0
1001
PHOENIX7010
1002
{
1070
    41
1040
1.0
1002
}
1001
ACAD
1000
MTEXTBEGIN
1070
    73
1070
     1
1070
    44
1040
1.0
1070
    74
1070
     0
1000
MTEXTEND
  0
MTEXT
  5
1082B
102
{ACAD_REACTORS
330
10834
102
}
330
1F
100
AcDbEntity
  8
0
  6
Continuous
 62
     5
370
    35
100
AcDbMText
 10
343.8410013521217
 20
172.4665922501285
 30
0.0
 40
5.0
 41
0.0
 71
     7
 72
     5
  1
{\C7;-}
 73
     1
 44
1.0
1001
PHOENIX7010
1002
{
1070
    41
1040
1.0
1002
}
1001
ACAD
1000
MTEXTBEGIN
1070
    73
1070
     1
1070
    44
1040
1.0
1070
    74
1070
     0
1000
MTEXTEND
  0
INSERT
  5
1082C
102
{ACAD_REACTORS
330
10834
102
}
330
1F
100
AcDbEntity
  8
0
  6
Continuous
 62
     5
370
    35
100
AcDbBlockReference
  2
PH_GRPBLK
 10
314.9999999999999
 20
37.50000000000011
 30
0.0
1001
PHOENIX7010
1002
{
1070
    41
1040
1.0
1002
}
  0
LWPOLYLINE
  5
1082D
102
{ACAD_REACTORS
330
107CF
102
}
330
1F
100
AcDbEntity
  8
0
  6
Continuous
 62
     7
 60
     1
370
    50
100
AcDbPolyline
 90
        3
 70
     1
 43
0.0
 10
399.8834749940255
 20
50.36453811398029
 10
399.8834749940255
 20
54.51453811398028
 10
404.0334749940255
 20
54.51453811398028
 42
2.414213562373094
1001
PHOENIX7010
1002
{
1070
    41
1040
1.0
1002
}
  0
LWPOLYLINE
  5
1082E
102
{ACAD_REACTORS
330
107D0
102
}
330
1F
100
AcDbEntity
  8
0
  6
Continuous
 62
     7
 60
     1
370
    50
100
AcDbPolyline
 90
        5
 70
     1
 43
0.0
 10
407.4334749940256
 20
58.16453811398037
 10
400.7334749940254
 20
50.36453811398029
 10
412.7334749940255
 20
50.36453811398029
 10
412.7334749940255
 20
58.16453811398026
 10
407.4334749940256
 20
51.2645381139804
1001
PHOENIX7010
1002
{
1070
    41
1040
1.0
1002
}
  0
MTEXT
  5
108F2
102
{ACAD_REACTORS
330
108F7
102
}
330
1F
100
AcDbEntity
  8
0
  6
Continuous
 62
     5
370
    35
100
AcDbMText
 10
318.8800602381664
 20
95.42896167163702
 30
0.0
 40
4.0
 41
0.0
 71
     7
 72
     5
  1
{\C7;Artikel / \Q20;Article:}
 73
     1
 44
1.0
1001
PHOENIX7010
1002
{
1070
    41
1040
1.0
1002
}
1001
ACAD
1000
MTEXTBEGIN
1070
    73
1070
     1
1070
    44
1040
1.0
1070
    74
1070
     0
1000
MTEXTEND
  0
MTEXT
  5
108F3
102
{ACAD_REACTORS
330
108F7
102
}
330
1F
100
AcDbEntity
  8
0
  6
Continuous
 62
     5
370
    35
100
AcDbMText
 10
318.9304981780733
 20
89.18090043987115
 30
0.0
 40
4.0
 41
0.0
 71
     7
 72
     5
  1
{\C7;ELD 620}
 73
     1
 44
1.0
1001
PHOENIX7010
1002
{
1070
    41
1040
1.0
1002
}
1001
ACAD
1000
MTEXTBEGIN
1070
    73
1070
     1
1070
    44
1040
1.0
1070
    74
1070
     0
1000
MTEXTEND
  0
MTEXT
  5
108F4
102
{ACAD_REACTORS
330
108F7
102
}
330
1F
100
AcDbEntity
  8
0
  6
Continuous
 62
     5
370
    35
100
AcDbMText
 10
318.9304981780733
 20
82.18090043987116
 30
0.0
 40
4.0
 41
0.0
 71
     7
 72
     5
  1
{\C7;GRUNDZEICHNUNG/\Q20;Basic drawing}
 73
     1
 44
1.0
1001
PHOENIX7010
1002
{
1070
    41
1040
1.0
1002
}
1001
ACAD
1000
MTEXTBEGIN
1070
    73
1070
     1
1070
    44
1040
1.0
1070
    74
1070
     0
1000
MTEXTEND
  0
MTEXT
  5
108F5
102
{ACAD_REACTORS
330
108F7
102
}
330
1F
100
AcDbEntity
  8
0
  6
Continuous
 62
     5
370
    35
100
AcDbMText
 10
318.9304981780733
 20
75.18090043987115
 30
0.0
 40
4.0
 41
0.0
 71
     7
 72
     5
  1
{\C7;-}
 73
     1
 44
1.0
1001
PHOENIX7010
1002
{
1070
    41
1040
1.0
1002
}
1001
ACAD
1000
MTEXTBEGIN
1070
    73
1070
     1
1070
    44
1040
1.0
1070
    74
1070
     0
1000
MTEXTEND
  0
INSERT
  5
108F8
102
{ACAD_REACTORS
330
108F7
102
}
330
1F
100
AcDbEntity
  8
0
  6
Continuous
 62
     7
370
    50
100
AcDbBlockReference
  2
PH_GRPBLK
 10
415.0
 20
5.000000000000113
 30
0.0
  0
ENDSEC
  0
SECTION
  2
OBJECTS
  0
DICTIONARY
  5
C
330
0
100
AcDbDictionary
281
     1
  3
ACAD_COLOR
350
376D
  3
ACAD_GROUP
350
D
  3
ACAD_LAYOUT
350
1A
  3
ACAD_MATERIAL
350
376C
  3
ACAD_MLEADERSTYLE
350
1071C
  3
ACAD_MLINESTYLE
350
17
  3
ACAD_PLOTSETTINGS
350
19
  3
ACAD_PLOTSTYLENAME
350
E
  3
ACAD_SCALELIST
350
1070A
  3
ACAD_TABLESTYLE
350
FA2D
  3
ACAD_VISUALSTYLE
350
106E0
  3
ACDB_RECOMPOSE_DATA
350
108FE
  3
AcDbVariableDictionary
350
3761
  3
DWGPROPS
350
108FF
  3
PH_OBJREACTOR_DICT
350
49
  3
PH_ROOTGROUP_DICT
350
4A
  3
PH_VARS
350
376F
  0
DICTIONARY
  5
106CB
330
2
100
AcDbDictionary
280
     1
281
     1
  3
ACAD_LAYERFILTERS
360
106CD
  3
ACAD_LAYERSTATES
360
107C8
  3
ACLYDICTIONARY
360
106CC
  0
DICTIONARY
  5
10839
330
10
100
AcDbDictionary
280
     1
281
     1
  3
ADSK_XREC_LAYER_RECONCILED
360
1083A
  0
DICTIONARY
  5
1083B
330
106C9
100
AcDbDictionary
280
     1
281
     1
  3
ADSK_XREC_LAYER_RECONCILED
360
1083C
  0
DICTIONARY
  5
1083D
330
10705
100
AcDbDictionary
280
     1
281
     1
  3
ADSK_XREC_LAYER_RECONCILED
360
1083E
  0
DICTIONARY
  5
108FC
330
107D2
100
AcDbDictionary
280
     1
281
     1
  3
ACAD_MTEXT_2008_RT
360
108FD
  0
DICTIONARY
  5
376D
102
{ACAD_REACTORS
330
C
102
}
330
C
100
AcDbDictionary
281
     1
  0
DICTIONARY
  5
D
102
{ACAD_REACTORS
330
C
102
}
330
C
100
AcDbDictionary
281
     1
  3
*A1
350
9D8
  3
*A2
350
25B3
  3
*A3
350
D873
  3
*A4
350
F159
  0
DICTIONARY
  5
1A
102
{ACAD_REACTORS
330
C
102
}
330
C
100
AcDbDictionary
281
     1
  3
Layout1
350
1E
  3
Layout2
350
26
  3
Model
350
22
  0
DICTIONARY
  5
376C
102
{ACAD_REACTORS
330
C
102
}
330
C
100
AcDbDictionary
281
     1
  3
ByBlock
350
106DE
  3
ByLayer
350
106DD
  3
Global
350
106DF
  0
DICTIONARY
  5
1071C
102
{ACAD_REACTORS
330
C
102
}
330
C
100
AcDbDictionary
281
     1
  3
Standard
350
1071D
  0
DICTIONARY
  5
17
102
{ACAD_REACTORS
330
C
102
}
330
C
100
AcDbDictionary
281
     1
  3
Standard
350
18
  0
DICTIONARY
  5
19
102
{ACAD_REACTORS
330
C
102
}
330
C
100
AcDbDictionary
281
     1
  3
A3_Randlos
350
106C7
  0
ACDBDICTIONARYWDFLT
  5
E
102
{ACAD_REACTORS
330
C
102
}
330
C
100
AcDbDictionary
281
     1
  3
Normal
350
F
100
AcDbDictionaryWithDefault
340
F
  0
DICTIONARY
  5
1070A
102
{ACAD_REACTORS
330
C
102
}
330
C
100
AcDbDictionary
281
     1
  3
A0
350
1070B
  3
A1
350
1070C
  3
A2
350
1070D
  3
A3
350
1070E
  3
A4
350
1070F
  3
A5
350
10710
  3
A6
350
10711
  3
A7
350
10712
  3
A8
350
10713
  3
A9
350
10714
  3
B0
350
10715
  3
B1
350
10716
  3
B2
350
10717
  3
B3
350
10718
  3
B4
350
10719
  3
B5
350
1071A
  3
B6
350
1071B
  0
DICTIONARY
  5
FA2D
102
{ACAD_REACTORS
330
C
102
}
330
C
100
AcDbDictionary
281
     1
  3
Standard
350
FA2E
  0
DICTIONARY
  5
106E0
102
{ACAD_REACTORS
330
C
102
}
330
C
100
AcDbDictionary
281
     1
  3
2dWireframe
350
106E6
  3
3D Hidden
350
106E8
  3
3dWireframe
350
106E7
  3
Basic
350
106E5
  3
Brighten
350
106EC
  3
ColorChange
350
106F0
  3
Conceptual
350
106E9
  3
Dim
350
106EB
  3
EdgeColorOff
350
10709
  3
Facepattern
350
106EF
  3
Flat
350
106E1
  3
FlatWithEdges
350
106E2
  3
Gouraud
350
106E3
  3
GouraudWithEdges
350
106E4
  3
JitterOff
350
10707
  3
Linepattern
350
106EE
  3
OverhangOff
350
10708
  3
Realistic
350
106EA
  3
Thicken
350
106ED
  0
XRECORD
  5
108FE
102
{ACAD_REACTORS
330
C
102
}
330
C
100
AcDbXrecord
280
     1
 90
        1
330
FA2E
330
107D2
  0
DICTIONARY
  5
3761
102
{ACAD_REACTORS
330
C
102
}
330
C
100
AcDbDictionary
281
     1
  3
CANNOSCALE
350
10876
  3
CMLEADERSTYLE
350
10874
  3
CTABLESTYLE
350
106C2
  3
DIMASSOC
350
3762
  3
INDEXCTL
350
108B1
  3
LAYEREVAL
350
10878
  3
LAYERNOTIFY
350
10879
  3
LIGHTINGUNITS
350
10877
  3
MSLTSCALE
350
10875
  3
PROJECTNAME
350
E217
  3
SORTENTS
350
108B0
  3
XCLIPFRAME
350
108FA
  0
XRECORD
  5
108FF
102
{ACAD_REACTORS
330
C
102
}
330
C
100
AcDbXrecord
280
     1
  1
DWGPROPS COOKIE
  2

  3

  4

  6

  7

  8
nowak
  9

300
=
301
=
302
=
303
=
304
=
305
=
306
=
307
=
308
=
309
=
 40
0.2940095023148148
 41
2453340.332815393
 42
2455876.487513843
  1

 90
        0
  0
DICTIONARY
  5
49
102
{ACAD_REACTORS
330
C
102
}
330
C
100
AcDbDictionary
281
     1
  0
DICTIONARY
  5
4A
102
{ACAD_REACTORS
330
C
102
}
330
C
100
AcDbDictionary
281
     1
  3
$PH$AAAACandP
350
108F6
  3
PH_GRPMEMBERS
350
431E
  0
PH_VARS
  5
376F
102
{ACAD_REACTORS
330
C
102
}
330
C
  0
DICTIONARY
  5
106CD
102
{ACAD_REACTORS
330
106CB
102
}
330
106CB
100
AcDbDictionary
281
     1
  0
DICTIONARY
  5
107C8
102
{ACAD_REACTORS
330
106CB
102
}
330
106CB
100
AcDbDictionary
281
     1
  0
DICTIONARY
  5
106CC
102
{ACAD_REACTORS
330
106CB
102
}
330
106CB
100
AcDbDictionary
281
     1
1001
ACAD
1000
<All
  0
XRECORD
  5
1083A
102
{ACAD_REACTORS
330
10839
102
}
330
10839
100
AcDbXrecord
280
     1
290
     1
  0
XRECORD
  5
1083C
102
{ACAD_REACTORS
330
1083B
102
}
330
1083B
100
AcDbXrecord
280
     1
290
     1
  0
XRECORD
  5
1083E
102
{ACAD_REACTORS
330
1083D
102
}
330
1083D
100
AcDbXrecord
280
     1
290
     1
  0
XRECORD
  5
108FD
102
{ACAD_REACTORS
330
108FC
102
}
330
108FC
100
AcDbXrecord
280
     1
 40
46997.0
  1
\pxql;{\fArial|b1|i0|c0|p34;\W1.1;BOPLA}
  0
GROUP
  5
9D8
102
{ACAD_REACTORS
330
D
102
}
330
D
100
AcDbGroup
300

 70
     0
 71
     0
  0
GROUP
  5
25B3
102
{ACAD_REACTORS
330
D
102
}
330
D
100
AcDbGroup
300

 70
     0
 71
     0
  0
GROUP
  5
D873
102
{ACAD_REACTORS
330
D
102
}
330
D
100
AcDbGroup
300

 70
     0
 71
     0
  0
GROUP
  5
F159
102
{ACAD_REACTORS
330
D
102
}
330
D
100
AcDbGroup
300

 70
     0
 71
     0
  0
LAYOUT
  5
1E
102
{ACAD_XDICTIONARY
360
10900
102
}
102
{ACAD_REACTORS
330
1A
102
}
330
1A
100
AcDbPlotSettings
  1

  2

  4

  6

 40
0.0
 41
0.0
 42
0.0
 43
0.0
 44
0.0
 45
0.0
 46
0.0
 47
0.0
 48
0.0
 49
0.0
140
0.0
141
0.0
142
1.0
143
1.0
 70
   688
 72
     0
 73
     0
 74
     5
  7

 75
    16
147
1.0
148
0.0
149
0.0
100
AcDbLayout
  1
Layout1
 70
     1
 71
     1
 10
0.0
 20
0.0
 11
420.0
 21
297.0
 12
0.0
 22
0.0
 32
0.0
 14
1.000000000000000E+20
 24
1.000000000000000E+20
 34
1.000000000000000E+20
 15
-1.000000000000000E+20
 25
-1.000000000000000E+20
 35
-1.000000000000000E+20
146
0.0
 13
0.0
 23
0.0
 33
0.0
 16
1.0
 26
0.0
 36
0.0
 17
0.0
 27
1.0
 37
0.0
 76
     0
330
1B
  0
LAYOUT
  5
26
102
{ACAD_XDICTIONARY
360
10903
102
}
102
{ACAD_REACTORS
330
1A
102
}
330
1A
100
AcDbPlotSettings
  1

  2

  4

  6

 40
0.0
 41
0.0
 42
0.0
 43
0.0
 44
0.0
 45
0.0
 46
0.0
 47
0.0
 48
0.0
 49
0.0
140
0.0
141
0.0
142
1.0
143
1.0
 70
   688
 72
     0
 73
     0
 74
     5
  7

 75
    16
147
1.0
148
0.0
149
0.0
100
AcDbLayout
  1
Layout2
 70
     1
 71
     2
 10
0.0
 20
0.0
 11
12.0
 21
9.0
 12
0.0
 22
0.0
 32
0.0
 14
0.0
 24
0.0
 34
0.0
 15
0.0
 25
0.0
 35
0.0
146
0.0
 13
0.0
 23
0.0
 33
0.0
 16
1.0
 26
0.0
 36
0.0
 17
0.0
 27
1.0
 37
0.0
 76
     0
330
23
  0
LAYOUT
  5
22
102
{ACAD_XDICTIONARY
360
10846
102
}
102
{ACAD_REACTORS
330
1A
102
}
330
1A
100
AcDbPlotSettings
  1
A3_Randlos
  2
hp deskjet 9600 series
  4
A3
  6

 40
3.841749906539915
 41
12.47774982452392
 42
3.841766357421875
 43
3.17498779296875
 44
296.9683227539062
 45
419.9889831542968
 46
-2.879999999999999
 47
-12.0
 48
0.0
 49
0.0
140
0.0
141
0.0
142
1.0
143
1.0
 70
 28336
 72
     1
 73
     3
 74
     1
  7
HP_SW.ctb
 75
    16
147
1.0
148
-0.9805307641864827
149
-0.9879462492978063
100
AcDbLayout
  1
Model
 70
     1
 71
     0
 10
0.0
 20
0.0
 11
12.0
 21
9.0
 12
0.0
 22
0.0
 32
0.0
 14
0.0
 24
0.0
 34
0.0
 15
0.0
 25
0.0
 35
0.0
146
0.0
 13
0.0
 23
0.0
 33
0.0
 16
1.0
 26
0.0
 36
0.0
 17
0.0
 27
1.0
 37
0.0
 76
     0
330
1F
331
106DB
1001
ACAD_PSEXT
1000
hp deskjet 9600 series
1000
hp deskjet 9600 series
1000
CentronicsPrinter/Plotter
1000

1070
     0
  0
MATERIAL
  5
106DE
102
{ACAD_XDICTIONARY
360
108C2
102
}
102
{ACAD_REACTORS
330
376C
102
}
330
376C
100
AcDbMaterial
  1
ByBlock
 73
     1
 78
     1
172
     1
176
     1
270
     1
274
     1
  0
MATERIAL
  5
106DD
102
{ACAD_XDICTIONARY
360
108C0
102
}
102
{ACAD_REACTORS
330
376C
102
}
330
376C
100
AcDbMaterial
  1
ByLayer
 73
     1
 78
     1
172
     1
176
     1
270
     1
274
     1
  0
MATERIAL
  5
106DF
102
{ACAD_XDICTIONARY
360
108C4
102
}
102
{ACAD_REACTORS
330
376C
102
}
330
376C
100
AcDbMaterial
  1
Global
 73
     1
 78
     1
172
     1
176
     1
270
     1
274
     1
  0
MLEADERSTYLE
  5
1071D
102
{ACAD_REACTORS
330
1071C
102
}
330
1071C
100
AcDbMLeaderStyle
170
     2
171
     1
172
     0
 90
        2
 40
0.0
 41
0.0
173
     1
 91
-1056964608
340
14
 92
       -2
290
     1
 42
2.0
291
     1
 43
0.36
  3
Standard
 44
4.0
300

342
11
174
     1
178
     6
175
     1
176
     0
 93
-1056964608
 45
4.0
292
     0
297
     0
 46
4.0
 94
-1056964608
 47
1.0
 49
1.0
140
1.0
293
     1
141
0.0
294
     1
177
     0
142
1.0
295
     0
296
     0
143
0.125
1001
ACAD_MLEADERVER
1070
     2
  0
MLINESTYLE
  5
18
102
{ACAD_REACTORS
330
17
102
}
330
17
100
AcDbMlineStyle
  2
STANDARD
 70
     0
  3

 62
   256
 51
90.0
 52
90.0
 71
     2
 49
0.5
 62
   256
  6
BYLAYER
 49
-0.5
 62
   256
  6
BYLAYER
  0
PLOTSETTINGS
  5
106C7
102
{ACAD_XDICTIONARY
360
10906
102
}
102
{ACAD_REACTORS
330
19
102
}
330
19
100
AcDbPlotSettings
  1
A3_Randlos
  2
hp deskjet 9600 series
  4
A3
  6

 40
3.841749906539915
 41
12.47774982452392
 42
3.841766357421875
 43
3.17498779296875
 44
296.9683227539062
 45
419.9889831542968
 46
-2.879999999999999
 47
-12.0
 48
0.0
 49
0.0
140
0.0
141
0.0
142
1.0
143
1.0
 70
 28336
 72
     1
 73
     3
 74
     1
  7
HP_SW.ctb
 75
    16
147
1.0
148
-0.9805307641864827
149
-0.9879462492978063
1001
ACAD_PSEXT
1000
hp deskjet 9600 series
1000
hp deskjet 9600 series
1000
CentronicsPrinter/Plotter
1000

1070
     0
  0
ACDBPLACEHOLDER
  5
F
102
{ACAD_REACTORS
330
E
102
}
330
E
  0
SCALE
  5
1070B
102
{ACAD_REACTORS
330
1070A
102
}
330
1070A
100
AcDbScale
 70
     0
300
1:1
140
1.0
141
1.0
290
     1
  0
SCALE
  5
1070C
102
{ACAD_REACTORS
330
1070A
102
}
330
1070A
100
AcDbScale
 70
     0
300
1:2
140
1.0
141
2.0
290
     0
  0
SCALE
  5
1070D
102
{ACAD_REACTORS
330
1070A
102
}
330
1070A
100
AcDbScale
 70
     0
300
1:4
140
1.0
141
4.0
290
     0
  0
SCALE
  5
1070E
102
{ACAD_REACTORS
330
1070A
102
}
330
1070A
100
AcDbScale
 70
     0
300
1:5
140
1.0
141
5.0
290
     0
  0
SCALE
  5
1070F
102
{ACAD_REACTORS
330
1070A
102
}
330
1070A
100
AcDbScale
 70
     0
300
1:8
140
1.0
141
8.0
290
     0
  0
SCALE
  5
10710
102
{ACAD_REACTORS
330
1070A
102
}
330
1070A
100
AcDbScale
 70
     0
300
1:10
140
1.0
141
10.0
290
     0
  0
SCALE
  5
10711
102
{ACAD_REACTORS
330
1070A
102
}
330
1070A
100
AcDbScale
 70
     0
300
1:16
140
1.0
141
16.0
290
     0
  0
SCALE
  5
10712
102
{ACAD_REACTORS
330
1070A
102
}
330
1070A
100
AcDbScale
 70
     0
300
1:20
140
1.0
141
20.0
290
     0
  0
SCALE
  5
10713
102
{ACAD_REACTORS
330
1070A
102
}
330
1070A
100
AcDbScale
 70
     0
300
1:30
140
1.0
141
30.0
290
     0
  0
SCALE
  5
10714
102
{ACAD_REACTORS
330
1070A
102
}
330
1070A
100
AcDbScale
 70
     0
300
1:40
140
1.0
141
40.0
290
     0
  0
SCALE
  5
10715
102
{ACAD_REACTORS
330
1070A
102
}
330
1070A
100
AcDbScale
 70
     0
300
1:50
140
1.0
141
50.0
290
     0
  0
SCALE
  5
10716
102
{ACAD_REACTORS
330
1070A
102
}
330
1070A
100
AcDbScale
 70
     0
300
1:100
140
1.0
141
100.0
290
     0
  0
SCALE
  5
10717
102
{ACAD_REACTORS
330
1070A
102
}
330
1070A
100
AcDbScale
 70
     0
300
2:1
140
2.0
141
1.0
290
     0
  0
SCALE
  5
10718
102
{ACAD_REACTORS
330
1070A
102
}
330
1070A
100
AcDbScale
 70
     0
300
4:1
140
4.0
141
1.0
290
     0
  0
SCALE
  5
10719
102
{ACAD_REACTORS
330
1070A
102
}
330
1070A
100
AcDbScale
 70
     0
300
8:1
140
8.0
141
1.0
290
     0
  0
SCALE
  5
1071A
102
{ACAD_REACTORS
330
1070A
102
}
330
1070A
100
AcDbScale
 70
     0
300
10:1
140
10.0
141
1.0
290
     0
  0
SCALE
  5
1071B
102
{ACAD_REACTORS
330
1070A
102
}
330
1070A
100
AcDbScale
 70
     0
300
100:1
140
100.0
141
1.0
290
     0
  0
TABLESTYLE
  5
FA2E
102
{ACAD_XDICTIONARY
360
10848
102
}
102
{ACAD_REACTORS
330
FA2D
102
}
330
FA2D
100
AcDbTableStyle
  3
Standard
 70
     0
 71
     0
 40
1.5
 41
1.5
280
     0
281
     0
  7
Standard
140
4.5
170
     2
 62
     0
 63
     7
283
     0
274
    -2
284
     1
 64
     0
275
    -2
285
     1
 65
     0
276
    -2
286
     1
 66
     0
277
    -2
287
     1
 67
     0
278
    -2
288
     1
 68
     0
279
    -2
289
     1
 69
     0
  7
Standard
140
6.0
170
     5
 62
     0
 63
     7
283
     0
274
    -2
284
     1
 64
     0
275
    -2
285
     1
 65
     0
276
    -2
286
     1
 66
     0
277
    -2
287
     1
 67
     0
278
    -2
288
     1
 68
     0
279
    -2
289
     1
 69
     0
  7
Standard
140
4.5
170
     5
 62
     0
 63
     7
283
     0
274
    -2
284
     1
 64
     0
275
    -2
285
     1
 65
     0
276
    -2
286
     1
 66
     0
277
    -2
287
     1
 67
     0
278
    -2
288
     1
 68
     0
279
    -2
289
     1
 69
     0
  0
VISUALSTYLE
  5
106E6
102
{ACAD_XDICTIONARY
360
10912
102
}
102
{ACAD_REACTORS
330
106E0
102
}
330
106E0
100
AcDbVisualStyle
  2

 70
     4
 71
     0
 72
     2
 73
     0
 90
        0
 40
-0.6
 41
-30.0
 62
     5
 63
     7
 74
     1
 91
        4
 64
     7
 65
   257
 75
     1
175
     1
 42
1.0
 92
        0
 66
   257
 43
1.0
 76
     1
 77
     6
 78
     2
 67
     7
 79
     5
170
     0
171
     0
290
     0
174
     0
 93
        1
 44
0.0
173
     0
291
     0
 45
0.0
1001
ACAD
1000
AcDbSavedByObjectVersion
1070
     0
  0
VISUALSTYLE
  5
106E8
102
{ACAD_XDICTIONARY
360
10916
102
}
102
{ACAD_REACTORS
330
106E0
102
}
330
106E0
100
AcDbVisualStyle
  2

 70
     6
 71
     1
 72
     2
 73
     2
 90
        0
 40
-0.6
 41
-30.0
 62
     5
 63
     7
 74
     2
 91
        2
 64
     7
 65
   257
 75
     2
175
     1
 42
40.0
 92
        0
 66
   257
 43
1.0
 76
     1
 77
     6
 78
     2
 67
     7
 79
     3
170
     0
171
     0
290
     0
174
     0
 93
        1
 44
0.0
173
     0
291
     0
 45
0.0
1001
ACAD
1000
AcDbSavedByObjectVersion
1070
     0
  0
VISUALSTYLE
  5
106E7
102
{ACAD_XDICTIONARY
360
10914
102
}
102
{ACAD_REACTORS
330
106E0
102
}
330
106E0
100
AcDbVisualStyle
  2

 70
     5
 71
     0
 72
     2
 73
     0
 90
        0
 40
-0.6
 41
-30.0
 62
     5
 63
     7
 74
     1
 91
        4
 64
     7
 65
   257
 75
     1
175
     1
 42
1.0
 92
        0
 66
   257
 43
1.0
 76
     1
 77
     6
 78
     2
 67
     7
 79
     5
170
     0
171
     0
290
     0
174
     0
 93
        1
 44
0.0
173
     0
291
     0
 45
0.0
1001
ACAD
1000
AcDbSavedByObjectVersion
1070
     0
  0
VISUALSTYLE
  5
106E5
102
{ACAD_XDICTIONARY
360
10910
102
}
102
{ACAD_REACTORS
330
106E0
102
}
330
106E0
100
AcDbVisualStyle
  2

 70
     7
 71
     1
 72
     0
 73
     1
 90
        0
 40
-0.6
 41
-30.0
 62
     5
 63
     7
 74
     0
 91
        4
 64
     7
 65
   257
 75
     1
175
     1
 42
1.0
 92
        8
 66
     7
 43
1.0
 76
     1
 77
     6
 78
     2
 67
     7
 79
     5
170
     0
171
     0
290
     0
174
     0
 93
        1
 44
0.0
173
     0
291
     1
 45
0.0
1001
ACAD
1000
AcDbSavedByObjectVersion
1070
     0
  0
VISUALSTYLE
  5
106EC
102
{ACAD_XDICTIONARY
360
1091E
102
}
102
{ACAD_REACTORS
330
106E0
102
}
330
106E0
100
AcDbVisualStyle
  2

 70
    12
 71
     2
 72
     2
 73
     0
 90
        0
 40
-0.6
 41
-30.0
 62
     5
 63
     7
 74
     1
 91
        4
 64
     7
 65
   257
 75
     1
175
     1
 42
1.0
 92
        8
 66
     7
 43
1.0
 76
     1
 77
     6
 78
     2
 67
     7
 79
     5
170
     0
171
     0
290
     0
174
     0
 93
        1
 44
50.0
173
     0
291
     1
 45
0.0
1001
ACAD
1000
AcDbSavedByObjectVersion
1070
     0
  0
VISUALSTYLE
  5
106F0
102
{ACAD_XDICTIONARY
360
10926
102
}
102
{ACAD_REACTORS
330
106E0
102
}
330
106E0
100
AcDbVisualStyle
  2

 70
    16
 71
     2
 72
     2
 73
     3
 90
        0
 40
-0.6
 41
-30.0
 62
     5
 63
     8
 74
     1
 91
        4
 64
     7
 65
   257
 75
     1
175
     1
 42
1.0
 92
        8
 66
     8
 43
1.0
 76
     1
 77
     6
 78
     2
 67
     7
 79
     5
170
     0
171
     0
290
     0
174
     0
 93
        1
 44
0.0
173
     0
291
     1
 45
0.0
1001
ACAD
1000
AcDbSavedByObjectVersion
1070
     0
  0
VISUALSTYLE
  5
106E9
102
{ACAD_XDICTIONARY
360
10918
102
}
102
{ACAD_REACTORS
330
106E0
102
}
330
106E0
100
AcDbVisualStyle
  2

 70
     9
 71
     3
 72
     2
 73
     0
 90
        0
 40
-0.6
 41
-30.0
 62
     5
 63
     7
 74
     2
 91
        2
 64
     7
 65
   257
 75
     1
175
     1
 42
40.0
 92
        8
 66
     7
 43
1.0
 76
     1
 77
     6
 78
     2
 67
     7
 79
     3
170
     0
171
     0
290
     0
174
     0
 93
        1
 44
0.0
173
     0
291
     0
 45
0.0
1001
ACAD
1000
AcDbSavedByObjectVersion
1070
     0
  0
VISUALSTYLE
  5
106EB
102
{ACAD_XDICTIONARY
360
1091C
102
}
102
{ACAD_REACTORS
330
106E0
102
}
330
106E0
100
AcDbVisualStyle
  2

 70
    11
 71
     2
 72
     2
 73
     0
 90
        0
 40
-0.6
 41
-30.0
 62
     5
 63
     7
 74
     1
 91
        4
 64
     7
 65
   257
 75
     1
175
     1
 42
1.0
 92
        8
 66
     7
 43
1.0
 76
     1
 77
     6
 78
     2
 67
     7
 79
     5
170
     0
171
     0
290
     0
174
     0
 93
        1
 44
-50.0
173
     0
291
     1
 45
0.0
1001
ACAD
1000
AcDbSavedByObjectVersion
1070
     0
  0
VISUALSTYLE
  5
10709
102
{ACAD_XDICTIONARY
360
1092C
102
}
102
{ACAD_REACTORS
330
106E0
102
}
330
106E0
100
AcDbVisualStyle
  2

 70
    22
 71
     2
 72
     2
 73
     0
 90
        0
 40
-0.6
 41
-30.0
 62
     5
 63
     7
 74
     1
 91
        4
 64
     7
 65
   257
 75
     1
175
     1
 42
1.0
 92
        8
 66
     7
 43
1.0
 76
     1
 77
     6
 78
     2
 67
     7
 79
     5
170
     0
171
     0
290
     0
174
     0
 93
        1
 44
0.0
173
     0
291
     1
 45
0.0
1001
ACAD
1000
AcDbSavedByObjectVersion
1070
     0
  0
VISUALSTYLE
  5
106EF
102
{ACAD_XDICTIONARY
360
10924
102
}
102
{ACAD_REACTORS
330
106E0
102
}
330
106E0
100
AcDbVisualStyle
  2

 70
    15
 71
     2
 72
     2
 73
     0
 90
        0
 40
-0.6
 41
-30.0
 62
     5
 63
     7
 74
     1
 91
        4
 64
     7
 65
   257
 75
     1
175
     1
 42
1.0
 92
        8
 66
     7
 43
1.0
 76
     1
 77
     6
 78
     2
 67
     7
 79
     5
170
     0
171
     0
290
     0
174
     0
 93
        1
 44
0.0
173
     0
291
     1
 45
0.0
1001
ACAD
1000
AcDbSavedByObjectVersion
1070
     0
  0
VISUALSTYLE
  5
106E1
102
{ACAD_XDICTIONARY
360
10908
102
}
102
{ACAD_REACTORS
330
106E0
102
}
330
106E0
100
AcDbVisualStyle
  2

 70
     0
 71
     2
 72
     1
 73
     1
 90
        2
 40
-0.6
 41
30.0
 62
     5
 63
     7
 74
     0
 91
        4
 64
     7
 65
   257
 75
     1
175
     1
 42
1.0
 92
        8
 66
     7
 43
1.0
 76
     1
 77
     6
 78
     2
 67
     7
 79
     5
170
     0
171
     0
290
     0
174
     0
 93
       13
 44
0.0
173
     0
291
     1
 45
0.0
1001
ACAD
1000
AcDbSavedByObjectVersion
1070
     0
  0
VISUALSTYLE
  5
106E2
102
{ACAD_XDICTIONARY
360
1090A
102
}
102
{ACAD_REACTORS
330
106E0
102
}
330
106E0
100
AcDbVisualStyle
  2

 70
     1
 71
     2
 72
     1
 73
     1
 90
        2
 40
-0.6
 41
30.0
 62
     5
 63
     7
 74
     1
 91
        4
 64
     7
 65
   257
 75
     1
175
     1
 42
1.0
 92
        0
 66
   257
 43
1.0
 76
     1
 77
     6
 78
     2
 67
     7
 79
     5
170
     0
171
     0
290
     0
174
     0
 93
       13
 44
0.0
173
     0
291
     1
 45
0.0
1001
ACAD
1000
AcDbSavedByObjectVersion
1070
     0
  0
VISUALSTYLE
  5
106E3
102
{ACAD_XDICTIONARY
360
1090C
102
}
102
{ACAD_REACTORS
330
106E0
102
}
330
106E0
100
AcDbVisualStyle
  2

 70
     2
 71
     2
 72
     2
 73
     1
 90
        2
 40
-0.6
 41
30.0
 62
     5
 63
     7
 74
     0
 91
        4
 64
     7
 65
   257
 75
     1
175
     1
 42
1.0
 92
        0
 66
     7
 43
1.0
 76
     1
 77
     6
 78
     2
 67
     7
 79
     5
170
     0
171
     0
290
     0
174
     0
 93
       13
 44
0.0
173
     0
291
     1
 45
0.0
1001
ACAD
1000
AcDbSavedByObjectVersion
1070
     0
  0
VISUALSTYLE
  5
106E4
102
{ACAD_XDICTIONARY
360
1090E
102
}
102
{ACAD_REACTORS
330
106E0
102
}
330
106E0
100
AcDbVisualStyle
  2

 70
     3
 71
     2
 72
     2
 73
     1
 90
        2
 40
-0.6
 41
30.0
 62
     5
 63
     7
 74
     1
 91
        4
 64
     7
 65
   257
 75
     1
175
     1
 42
1.0
 92
        0
 66
   257
 43
1.0
 76
     1
 77
     6
 78
     2
 67
     7
 79
     5
170
     0
171
     0
290
     0
174
     0
 93
       13
 44
0.0
173
     0
291
     1
 45
0.0
1001
ACAD
1000
AcDbSavedByObjectVersion
1070
     0
  0
VISUALSTYLE
  5
10707
102
{ACAD_XDICTIONARY
360
10928
102
}
102
{ACAD_REACTORS
330
106E0
102
}
330
106E0
100
AcDbVisualStyle
  2

 70
    20
 71
     2
 72
     2
 73
     0
 90
        0
 40
-0.6
 41
-30.0
 62
     5
 63
     7
 74
     1
 91
        4
 64
     7
 65
   257
 75
     1
175
     1
 42
1.0
 92
       10
 66
     7
 43
1.0
 76
     1
 77
     6
 78
     2
 67
     7
 79
     5
170
     0
171
     0
290
     0
174
     0
 93
        1
 44
0.0
173
     0
291
     1
 45
0.0
1001
ACAD
1000
AcDbSavedByObjectVersion
1070
     0
  0
VISUALSTYLE
  5
106EE
102
{ACAD_XDICTIONARY
360
10922
102
}
102
{ACAD_REACTORS
330
106E0
102
}
330
106E0
100
AcDbVisualStyle
  2

 70
    14
 71
     2
 72
     2
 73
     0
 90
        0
 40
-0.6
 41
-30.0
 62
     5
 63
     7
 74
     1
 91
        4
 64
     7
 65
   257
 75
     7
175
     7
 42
1.0
 92
        8
 66
     7
 43
1.0
 76
     1
 77
     6
 78
     2
 67
     7
 79
     5
170
     0
171
     0
290
     0
174
     0
 93
        1
 44
0.0
173
     0
291
     1
 45
0.0
1001
ACAD
1000
AcDbSavedByObjectVersion
1070
     0
  0
VISUALSTYLE
  5
10708
102
{ACAD_XDICTIONARY
360
1092A
102
}
102
{ACAD_REACTORS
330
106E0
102
}
330
106E0
100
AcDbVisualStyle
  2

 70
    21
 71
     2
 72
     2
 73
     0
 90
        0
 40
-0.6
 41
-30.0
 62
     5
 63
     7
 74
     1
 91
        4
 64
     7
 65
   257
 75
     1
175
     1
 42
1.0
 92
        9
 66
     7
 43
1.0
 76
     1
 77
     6
 78
     2
 67
     7
 79
     5
170
     0
171
     0
290
     0
174
     0
 93
        1
 44
0.0
173
     0
291
     1
 45
0.0
1001
ACAD
1000
AcDbSavedByObjectVersion
1070
     0
  0
VISUALSTYLE
  5
106EA
102
{ACAD_XDICTIONARY
360
1091A
102
}
102
{ACAD_REACTORS
330
106E0
102
}
330
106E0
100
AcDbVisualStyle
  2

 70
     8
 71
     2
 72
     2
 73
     0
 90
        0
 40
-0.6
 41
-30.0
 62
     5
 63
     7
 74
     1
 91
        0
 64
     7
 65
   257
 75
     1
175
     1
 42
1.0
 92
        8
 66
     8
 43
1.0
 76
     1
 77
     6
 78
     2
 67
     7
 79
     5
170
     0
171
     0
290
     0
174
     0
 93
       13
 44
0.0
173
     0
291
     0
 45
0.0
1001
ACAD
1000
AcDbSavedByObjectVersion
1070
     0
  0
VISUALSTYLE
  5
106ED
102
{ACAD_XDICTIONARY
360
10920
102
}
102
{ACAD_REACTORS
330
106E0
102
}
330
106E0
100
AcDbVisualStyle
  2

 70
    13
 71
     2
 72
     2
 73
     0
 90
        0
 40
-0.6
 41
-30.0
 62
     5
 63
     7
 74
     1
 91
        4
 64
     7
 65
   257
 75
     1
175
     1
 42
1.0
 92
       12
 66
     7
 43
1.0
 76
     1
 77
     6
 78
     2
 67
     7
 79
     5
170
     0
171
     0
290
     0
174
     0
 93
        1
 44
0.0
173
     0
291
     1
 45
0.0
1001
ACAD
1000
AcDbSavedByObjectVersion
1070
     0
  0
DICTIONARYVAR
  5
10876
102
{ACAD_REACTORS
330
3761
102
}
330
3761
100
DictionaryVariables
280
     0
  1
1:1
  0
DICTIONARYVAR
  5
10874
102
{ACAD_REACTORS
330
3761
102
}
330
3761
100
DictionaryVariables
280
     0
  1
STANDARD
  0
DICTIONARYVAR
  5
106C2
102
{ACAD_REACTORS
330
3761
102
}
330
3761
100
DictionaryVariables
280
     0
  1
STANDARD
  0
DICTIONARYVAR
  5
3762
102
{ACAD_REACTORS
330
3761
102
}
330
3761
100
DictionaryVariables
280
     0
  1
1
  0
DICTIONARYVAR
  5
108B1
102
{ACAD_REACTORS
330
3761
102
}
330
3761
100
DictionaryVariables
280
     0
  1
0
  0
DICTIONARYVAR
  5
10878
102
{ACAD_REACTORS
330
3761
102
}
330
3761
100
DictionaryVariables
280
     0
  1
1
  0
DICTIONARYVAR
  5
10879
102
{ACAD_REACTORS
330
3761
102
}
330
3761
100
DictionaryVariables
280
     0
  1
15
  0
DICTIONARYVAR
  5
10877
102
{ACAD_REACTORS
330
3761
102
}
330
3761
100
DictionaryVariables
280
     0
  1
0
  0
DICTIONARYVAR
  5
10875
102
{ACAD_REACTORS
330
3761
102
}
330
3761
100
DictionaryVariables
280
     0
  1
0
  0
DICTIONARYVAR
  5
E217
102
{ACAD_REACTORS
330
3761
102
}
330
3761
100
DictionaryVariables
280
     0
  1

  0
DICTIONARYVAR
  5
108B0
102
{ACAD_REACTORS
330
3761
102
}
330
3761
100
DictionaryVariables
280
     0
  1
127
  0
DICTIONARYVAR
  5
108FA
102
{ACAD_REACTORS
330
3761
102
}
330
3761
100
DictionaryVariables
280
     0
  1
2
  0
DICTIONARY
  5
108F6
102
{ACAD_REACTORS
330
4A
102
}
330
4A
100
AcDbDictionary
281
     1
  3
PH_GRPMEMBERS
350
108F7
  0
PH_GROUP
  5
431E
102
{ACAD_REACTORS
330
4A
102
}
330
4A
  0
DICTIONARY
  5
10900
330
1E
100
AcDbDictionary
280
     1
281
     1
  3
ACAD_XREC_ROUNDTRIP
360
10901
  0
DICTIONARY
  5
10903
330
26
100
AcDbDictionary
280
     1
281
     1
  3
ACAD_XREC_ROUNDTRIP
360
10904
  0
DICTIONARY
  5
10846
330
22
100
AcDbDictionary
280
     1
281
     1
  3
ACAD_XREC_ROUNDTRIP
360
10902
  3
ADSK_XREC_LAYOUTTHUMBNAIL
360
10847
  0
DICTIONARY
  5
108C2
330
106DE
100
AcDbDictionary
280
     1
281
     1
  3
ACAD_XREC_ROUNDTRIP
360
108C3
  0
DICTIONARY
  5
108C0
330
106DD
100
AcDbDictionary
280
     1
281
     1
  3
ACAD_XREC_ROUNDTRIP
360
108C1
  0
DICTIONARY
  5
108C4
330
106DF
100
AcDbDictionary
280
     1
281
     1
  3
ACAD_XREC_ROUNDTRIP
360
108C5
  0
DICTIONARY
  5
10906
330
106C7
100
AcDbDictionary
280
     1
281
     1
  3
ACAD_XREC_ROUNDTRIP
360
10907
  0
DICTIONARY
  5
10848
330
FA2E
100
AcDbDictionary
280
     1
281
     1
  3
ACAD_ROUNDTRIP_2008_TABLESTYLE_CELLSTYLEMAP
360
108FB
  3
ACAD_XREC_ROUNDTRIP
360
10905
  0
DICTIONARY
  5
10912
330
106E6
100
AcDbDictionary
280
     1
281
     1
  3
ACAD_XREC_ROUNDTRIP
360
10913
  0
DICTIONARY
  5
10916
330
106E8
100
AcDbDictionary
280
     1
281
     1
  3
ACAD_XREC_ROUNDTRIP
360
10917
  0
DICTIONARY
  5
10914
330
106E7
100
AcDbDictionary
280
     1
281
     1
  3
ACAD_XREC_ROUNDTRIP
360
10915
  0
DICTIONARY
  5
10910
330
106E5
100
AcDbDictionary
280
     1
281
     1
  3
ACAD_XREC_ROUNDTRIP
360
10911
  0
DICTIONARY
  5
1091E
330
106EC
100
AcDbDictionary
280
     1
281
     1
  3
ACAD_XREC_ROUNDTRIP
360
1091F
  0
DICTIONARY
  5
10926
330
106F0
100
AcDbDictionary
280
     1
281
     1
  3
ACAD_XREC_ROUNDTRIP
360
10927
  0
DICTIONARY
  5
10918
330
106E9
100
AcDbDictionary
280
     1
281
     1
  3
ACAD_XREC_ROUNDTRIP
360
10919
  0
DICTIONARY
  5
1091C
330
106EB
100
AcDbDictionary
280
     1
281
     1
  3
ACAD_XREC_ROUNDTRIP
360
1091D
  0
DICTIONARY
  5
1092C
330
10709
100
AcDbDictionary
280
     1
281
     1
  3
ACAD_XREC_ROUNDTRIP
360
1092D
  0
DICTIONARY
  5
10924
330
106EF
100
AcDbDictionary
280
     1
281
     1
  3
ACAD_XREC_ROUNDTRIP
360
10925
  0
DICTIONARY
  5
10908
330
106E1
100
AcDbDictionary
280
     1
281
     1
  3
ACAD_XREC_ROUNDTRIP
360
10909
  0
DICTIONARY
  5
1090A
330
106E2
100
AcDbDictionary
280
     1
281
     1
  3
ACAD_XREC_ROUNDTRIP
360
1090B
  0
DICTIONARY
  5
1090C
330
106E3
100
AcDbDictionary
280
     1
281
     1
  3
ACAD_XREC_ROUNDTRIP
360
1090D
  0
DICTIONARY
  5
1090E
330
106E4
100
AcDbDictionary
280
     1
281
     1
  3
ACAD_XREC_ROUNDTRIP
360
1090F
  0
DICTIONARY
  5
10928
330
10707
100
AcDbDictionary
280
     1
281
     1
  3
ACAD_XREC_ROUNDTRIP
360
10929
  0
DICTIONARY
  5
10922
330
106EE
100
AcDbDictionary
280
     1
281
     1
  3
ACAD_XREC_ROUNDTRIP
360
10923
  0
DICTIONARY
  5
1092A
330
10708
100
AcDbDictionary
280
     1
281
     1
  3
ACAD_XREC_ROUNDTRIP
360
1092B
  0
DICTIONARY
  5
1091A
330
106EA
100
AcDbDictionary
280
     1
281
     1
  3
ACAD_XREC_ROUNDTRIP
360
1091B
  0
DICTIONARY
  5
10920
330
106ED
100
AcDbDictionary
280
     1
281
     1
  3
ACAD_XREC_ROUNDTRIP
360
10921
  0
PH_GROUP
  5
108F7
102
{ACAD_REACTORS
330
108F6
102
}
330
108F6
  0
XRECORD
  5
10901
102
{ACAD_REACTORS
330
10900
102
}
330
10900
100
AcDbXrecord
280
     1
102
SHADEPLOT
 70
     0
102
SHADEPLOTRESLEVEL
 70
     2
102
SHADEPLOTCUSTOMDPI
 70
   300
  0
XRECORD
  5
10904
102
{ACAD_REACTORS
330
10903
102
}
330
10903
100
AcDbXrecord
280
     1
102
SHADEPLOT
 70
     0
102
SHADEPLOTRESLEVEL
 70
     2
102
SHADEPLOTCUSTOMDPI
 70
   300
  0
XRECORD
  5
10902
102
{ACAD_REACTORS
330
10846
102
}
330
10846
100
AcDbXrecord
280
     1
102
SHADEPLOT
 70
     1
102
SHADEPLOTRESLEVEL
 70
     2
102
SHADEPLOTCUSTOMDPI
 70
   300
  0
XRECORD
  5
10847
102
{ACAD_REACTORS
330
10846
102
}
330
10846
100
AcDbXrecord
280
     1
310
28000000000100007500000001000800000000000075000000000000000000000001000000000000F0FCFE0000000000FFFFFF000000000000000000000000000000000000000000000000000000000000000000330000006600000099000000CC000000FF00000000330000333300006633000099330000CC330000FF3300
310
0000660000336600006666000099660000CC660000FF66000000990000339900006699000099990000CC990000FF99000000CC000033CC000066CC000099CC0000CCCC0000FFCC000000FF000033FF000066FF000099FF0000CCFF0000FFFF000000003300330033006600330099003300CC003300FF003300003333003333
310
33006633330099333300CC333300FF33330000663300336633006666330099663300CC663300FF66330000993300339933006699330099993300CC993300FF99330000CC330033CC330066CC330099CC3300CCCC3300FFCC330000FF330033FF330066FF330099FF3300CCFF3300FFFF330000006600330066006600660099
310
006600CC006600FF00660000336600333366006633660099336600CC336600FF33660000666600336666006666660099666600CC666600FF66660000996600339966006699660099996600CC996600FF99660000CC660033CC660066CC660099CC6600CCCC6600FFCC660000FF660033FF660066FF660099FF6600CCFF6600
310
FFFF660000009900330099006600990099009900CC009900FF00990000339900333399006633990099339900CC339900FF33990000669900336699006666990099669900CC669900FF66990000999900339999006699990099999900CC999900FF99990000CC990033CC990066CC990099CC9900CCCC9900FFCC990000FF99
310
0033FF990066FF990099FF9900CCFF9900FFFF99000000CC003300CC006600CC009900CC00CC00CC00FF00CC000033CC003333CC006633CC009933CC00CC33CC00FF33CC000066CC003366CC006666CC009966CC00CC66CC00FF66CC000099CC003399CC006699CC009999CC00CC99CC00FF99CC0000CCCC0033CCCC0066CC
310
CC0099CCCC00CCCCCC00FFCCCC0000FFCC0033FFCC0066FFCC0099FFCC00CCFFCC00FFFFCC000000FF003300FF006600FF009900FF00CC00FF00FF00FF000033FF003333FF006633FF009933FF00CC33FF00FF33FF000066FF003366FF006666FF009966FF00CC66FF00FF66FF000099FF003399FF006699FF009999FF00CC
310
99FF00FF99FF0000CCFF0033CCFF0066CCFF0099CCFF00CCCCFF00FFCCFF0000FFFF0033FFFF0066FFFF0099FFFF00CCFFFF00FFFFFF00000000000D0D0D001A1A1A00282828003535350043434300505050005D5D5D006B6B6B00787878008686860093939300A1A1A100AEAEAE00BBBBBB00C9C9C900D6D6D600E4E4E400
310
F1F1F100FFFFFF0000000000000000000000000000000000000000000000000000000000000000000000000000000000E1E1E1E1E1E1E1E1E1E1E1E1E1E1E1E1E1E1E1E1E1E1E1E1E1E1E1E1E1E1E1E1E1E1E1E1E1E1E1E1E1E1E1E1E1BEBEBEBEBEBEBEBEBEBEBEBEBEBEBEBEBEBEBEBEBEBEBEBEBEBEBEBEBEBEBEBEBEBE
310
BEBEBEBEBEBEBEBEBEBEBEBEBEBEBEBEBEBEBEBEBEBEBEBEBEBEBEBEBEBEBEBEBEBEBEBEBEBEBEBEBEBEBEBEBEBEBEBEBEBEBEBEBEBEBEBEBEBEBEBEBEBEBEBEBEBEBEBEBEBEBEBEBEBEBEBEBEBEBEBEBEBEBEBEBEBEBEBEBEBEBEBEBEBEBEBEBEBEBEBEBEBEBEBEBEBEBEBEBEBEBEBEBEBEBEBEBEBEBEBEBEBEBEBEBEBEBE
310
BEBEBEBEBEE1E1E1E1E1E1E1E1E1E1E1E1E1E1E1E1E1E1E1E1E1E1E1E1E1E1E1E1E1E1E1E1E1E1E1E1E1E1E1E1E1E1E1E1E1E1E1E1E1E1E1E1E1E1E1E1E1E1E1E1E1E1E1E1E1E1E1E1E1E1E1E1E1E1E1E1E1E1E1E1E1E1E1E1E1E1E1E1E1E1BEE1E1E1E1E1E1E1E1E1E1E1E1E1E1E1E1E1E1E1E1E1E1E1E1E1E1E1E1E1E1E1
310
E1E1E1E1E1E1E1E1E1E1E1E1E1E1E1E1E1BEE1E1E1E1E1E1E1E1E1E1E1E1E1E1E1E1E1E1E1E1E1E1E1E1E1E1E1E1E1E1E1E1E1E1E1E1E1E1E1E1BEE1E1E1E1E1E1E1E1E1E1E1E1E1E1E1E1E1E1E1E1E1E1E1E1E1E1E1E1E1E1E1E1E1E1E1E1E1E1E1E1E1E1E1E1E1E1E1E1E1E1E1E1E1E1E1E1E1E1E1E1E1E1E1E1E1E1E1E1
310
E1E1E1E1E1E1BEE1E1E1E1E1E1E1E1E1E1E1E1E1E1E1E1E1E1E1E1E1E1E1E1E1E1E1E1E1E1E1E1E1E1E1E1E1E1E1E1E1E1E1E1E1E1E1E1E1E1E1E1E1E1E1E1E1E1E1E1E1E1E1E1E1E1E1E1E1E1E1E1E1E1E1E1E1E1E1E1E1E1E1E1E1E1E1E1E1E1BEE1E1E1E1E1E1E128282828282828282828282828282828282828282828
310
28282828282828282828282828282828282828BE28282828282828282828282828282828282828282828282828282828282828282828282828282828BE2828282828282828282828282828282828282828282828282828282828282828280F2828282828282828282828280F282828282828282828BE282828282828282828
310
28282828282828E1BEE1E1E1E1E1E1E1E1E1E1E1E1E1E1E1E1E1E1E1E1E1E1E1E1E1E1E1E1E1E1E1E1E1E1E1E1E1E1E1E1E1E1E1E1E1E1E1E1E1E1E1E1E1E1E1E1E1E1E1E1E1E1E1E1E1E1E1E1E1E1E1E1E1E1E1E1E1E1E1E1E1E1E1E1E1E1E1E1E1E1BEE1E1E1E1E1E1E128E1E1E1E1E1E1E1E1E1E1E1E1E1E1E1E1E1E1E1
310
E1E1E1E1E1E1E1E1E1E1E1E1E1E1E1E1E1E1E1E1E1E1E1E1E1E1E1E1E1E1E1E1E1E1E1E1E1E1E1E1E1E1E1E1E1E1E1E1E1E1E1E1E1E1E1E1E1E1E1E1E1E1E1E1E1E1E1E1E1E1E1E1E1E1E1E1E1E1E1E1E1E1E1E1E1E1E1E1E1E1E1E1E1E1E1E10F0F0F0F0F0F0F0F0F0F0F0F0F0FE1E1E1E1E1E1E1E1E1BEE1E1E1E1E1E1E1
310
E1E1E1E1E1E1E1E128E1BEE1E1E1E1E1E1E1E1E1E1E1E1E1E1E1E1E1E1E1E1E1E1E1E1E1E1E1E1E1E1E1E1E1E1E1E1E1E1E1E1E1E1E1E1E1E1E1E1E1E1E1E1E1E1E1E1E1E1E1E1E1E1E1E1E1E1E1E1E1E1E1E1E1E1E1E1E1E1E1E1E1E1E1E1E1E1E1E1E1E1BEE1E1E1E1E1E1E128E1E1E1E1E1E1E1E1E1E1E1E1E1E1E1E1E1
310
E1E1E1E1E1E1E1E1E1E1E1E1E1E1E1E1E1E1E1E1E1E1E1E1E1E1E1E1E1E1E1E1E1E1E1E1E1E1E1E1E1E1E1E1E1E1E1E1E1E1E1E1E1E1E1E1E1E1E1E1E1E1E1E1E1E1E1E1E1E1E1E1E1E1E1E1E1E1E1E1E1E1E1E1E1E1E1E1E1E1E1E1E1E1E1E1E1E10F0F0F0F0F0F0F0F0F0F0F0F0F0FE1E1E1E1E1E1E1E1E1BEE1E1E1E1E1
310
E1E1E1E1E1E1E1E1E1E128E1BEE1E1E1E1E1E1E1E1E1E1E1E1E1E1E1E1E1E1E1E1E1E1E1E1E1E1E1E1E1E1E1E1E1E1E1E1E1E1E1E1E1E1E1E1E1E1E1E1E1E1E1E1E1E1E1E1E1E1E1E1E1E1E1E1E1E1E1E1E1E1E1E1E1E1E1E1E1E1E1E1E1E1E1E1E1E1E1E1E1E1BEE1E1E1E1E1E1E128E1E1E1E1E1E1E1E1E1E1E1E1E1E1E1
310
E1E1E1E1E1E1E1E1E1E1E1E1E1E1E1E1E1E1E1E1E1E1E1E1E1E1E1E1E1E1E1E1E1E1E1E1E1E1E1E1E1E1E1E1E1E1E1E1E1E1E1E1E1E1E1E1E1E1E1E1E1E1E1E1E1E1E1E1E1E1E1E1E1E1E1E1E1E1E1E1E1E1E1E1E1E1E1E1E1E1E1E1E1E1E1E1E1E1E1E10F0F0F0F0F0F0F0F0F0F0F0F0F0FE1E1E1E1E1E1E1E1E1BEE1E1E1
310
E1E1E1E1E1E1E1E1E1E1E1E128E1BEE1E1E1E1E1E1E1E1E1E1E1E1E1E1E1E1E1E1E1E1E1E1E1E1E1E1E1E1E1E1E1E1E1E1E1E1E1E1E1E1E1E1E1E1E1E1E1E1E1E1E1E1E1E1E1E1E1E1E1E1E1E1E1E1E1E1E1E1E1E1E1E1E1E1E1E1E1E1E1E1E1E1E1E1E1E1E1E1E1E1BEE1E1E1E1E1E1E128E1E1E1E1E1E1E1E1E1E1E1E1E1
310
E1E1E1E1E1E1E1E1E1E1E1E1E1E1E1E1E1E1E1E1E1E1E1E1E1E1E1E1E1E1E1E1E1E1E1E1E1E1E1E1E1E1E1E1E1E1E1E1E1E1E1E1E1E1E1E1E1E1E1E1E1E1E1E1E1E1E1E1E1E1E1E1E1E1E1E1E1E1E1E1E1E1E1E1E1E1E1E1E1E1E1E1E1E1E1E1E1E1E1E1E1E1BEBEBEBEBEBEBEBEBEBEBEBEBE0FBEBEBEBEBEBEBEBEBEBEBE
310
BEBEBEBEBEBEBEBEBEBEBEBEBEBEBEE1BEE1E1E1E1E1E1E1E1E1E1E1E1E1E1E1E1E1E1E1E1E1E1E1E1E1E1E1E1E1E1E1E1E1E1E1E1E1E1E1E1E1E1E1E1E1E1E1E1E1E1E1E1E1E1E1E1E1E1E1E1E1E1E1E1E1E1E1E1E1E1E1E1E1E1E1E1E1E1E1E1E1E1E1E1E1E1E1E1E1E1BEE1E1E1E1E1E1E128E1E1E1E1E1E1E1E1E1E1E1
310
E1E1E1E1E1E1E1E1E1E1E1E1E1E1E1E1E1E1E1E1E1E1E1E1E1E1E1E1E1E1E1E1E1E1E1E1E1E1E1E1E1E1E1E1E1E1E1E1E1E1E1E1E1E1E1E1E1E1E1E1E1E1E1E1E1E1E1E1E1E1E1E1E1E1E1E1E1E1E1E1E1E1E1E1E1E1E1E1E1E1E1E1E1E1E1E1E1E1E1E1E1E1E1E10F0F0F0F0F0F0FE1E1E1E1E1E10FE1E1E1E1E1E1E1E1E1
310
BEE1E1E1E1E1E1E1E1E1E1E1E1E1E1E128E1BEE1E1E1E1E1E1E1E1E1E1E1E1E1E1E1E1E1E1E1E1E1E1E1E1E1E1E1E1E1E1E1E1E1E1E1E1E1E1E1E1E1E1E1E1E1E1E1E1E1E1E1E1E1E1E1E1E1E1E1E1E1E1E1E1E1E1E1E1E1E1E1E1E1E1E1E1E1E1E1E1E1E1E1E1E1E1E1E1E1E1BEE1E1E1E1E1E1E128E1E1E1E1E1E1E1E1E1
310
E1E1E1E1E1E1E1E1E1E1E1E1E1E1E1E1E1E1E1E1E1E1E1E1E1E1E1E1E1E1E1E1E1E1E1E1E1E1E1E1E1E1E1E1E1E1E1E1E1E1E1E1E1E1E1E1E1E1E1E1E1E1E1E1E1E1E1E1E1E1E1E1E1E1E1E1E1E1E1E1E1E1E1E1E1E1E1E1E1E1E1E1E1E1E1E1E1E1E1E1E1E1E1E1E1E10F0F0F0F0F0F0FE1E1E1E1E1E10FE1E1E1E1E1E1E1
310
E1E1BEE1E1E1E1E1E1E1E1E1E1E1E1E1E1E128E1BEE1E1E1E1E1E1E1E1E1E1E1E1E1E1E1E1E1E1E1E1E1E1E1E1E1E1E1E1E1E1E1E1E1E1E1E1E1E1E1E1E1E1E1E1E1E1E1E1E1E1E1E1E1E1E1E1E1E1E1E1E1E1E1E1E1E1E1E1E1E1E1E1E1E1E1E1E1E1E1E1E1E1E1E1E1E1E1E1E1E1BEE1E1E1E1E1E1E128E1E1E1E1E1E1E1
310
E1E1E1E1E1E1E1E1E1E1E1E1E1E1E1E1E1E1E1E1E1E1E1E1E1E1E1E1E1E1E1E1E1E1E1E1E1E1E1E1E1E1E1E1E1E1E1E1E1E1E1E1E1E1E1E1E1E1E1E1E1E1E1E1E1E1E1E1E1E1E1E1E1E1E1E1E1E1E1E1E1E1E1E1E1E1E1E1E1E1E1E1E1E1E1E1E1E1E1E1E1E1E1E1E1E1E1E10F0F0F0F0F0F0F0F0F0F0F0F0F0F0F0F0F0F0F
310
0F0F0F0F0F0F0F0F0F0F0F0F0F0F0F0F0F0F0F0F0FE1BEE1E1E1E1E1E1E1E1E1E1E1E1E1E1E1E1E1E1E1E1E1E1E1E1E1E1E1E1E1E1E1E1E1E1E1E1E1E1E1E1E1E1E1E1E1E1E1E1E1E1E1E1E1E1E1E1E1E1E1E1E1E1E1E1E1E1E1E1E1E1E1E1E1E1E1E1E1E1E1E1E1E1E1E1E1E1E1E1E1E1BEE1E1E1E1E1E1E128E1E1E1E1E1
310
E1E1E1E1E1E1E1E1E1E1E1E1E1E1E1E1E1E1E1E1E1E1E1E1E1E1E1E1E1E1E1E1E1E1E1E1E1E1E1E1E1E1E1E1E1E1E1E1E1E1E1E1E1E1E1E1E1E1E1E1E1E1E1E1E1E1E1E1E1E1E1E1E1E1E1E1E1E1E1E1E1E1E1E1E1E1E1E1E1E1E1E1E1E1E1E1E1E1E1E1E1E1E1E1E1E1E1E1E1E10FE1E1E1E1E1E1E1E1E1E1E1E10F0F0F0F
310
0F0F0F0F0F0FBE0F0F0F0F0F0F0F0F0F0F0F0F0F0F0F28E1BEE1E1E1E1E1E1E1E1E1E1E1E1E1E1E1E1E1E1E1E1E1E1E1E1E1E1E1E1E1E1E1E1E1E1E1E1E1E1E1E1E1E1E1E1E1E1E1E1E1E1E1E1E1E1E1E1E1E1E1E1E1E1E1E1E1E1E1E1E1E1E1E1E1E1E1E1E1E1E1E1E1E1E1E1E1E1E1E1E1E1BEE1E1E1E1E1E1E128E1E1E1
310
E1E1E1E1E1E1E1E1E1E1E1E1E1E1E1E1E1E1E1E1E1E1E1E1E1E1E1E1E1E1E1E1E1E1E1E1E1E1E1E1E1E1E1E1E1E1E1E1E1E1E1E1E1E1E1E1E1E1E1E1E1E1E1E1E1E1E1E1E1E1E1E1E1E1E1E1E1E1E1E1E1E1E1E1E1E1E1E1E1E1E1E1E1E1E1E1E1E1E1E1E1E1E1E1E1E1E1E1E1E1E1E10F0F0F0F0F0F0F0F0F0F0F0F0F0F0F
310
0F0F0F0F0F0F0F0F0F0F0F0F0F0F0F0F0F0F0F0F0F0F0F0F0FE1BEE1E1E1E1E1E1E1E1E1E1E1E1E1E1E1E1E1E1E1E1E1E1E1E1E1E1E1E1E1E1E1E1E1E1E1E1E1E1E1E1E1E1E1E1E1E1E1E1E1E1E1E1E1E1E1E1E1E1E1E1E1E1E1E1E1E1E1E1E1E1E1E1E1E1E1E1E1E1E1E1E1E1E1E1E1E1E1E1E1E1BEE1E1E1E1E1E1E128E1
310
E1E1E1E1E1E1E1E1E1E1E1E1E1E1E1E1E1E1E1E1E1E1E1E1E1E1E1E1E1E1E1E1E1E1E1E1E1E1E1E1E1E1E1E1E1E1E1E1E1E1E1E1E1E1E1E1E1E1E1E1E1E1E1E1E1E1E1E1E1E1E1E1E1E1E1E1E1E1E1E1E1E1E1E1E1E1E1E1E1E1E1E1E1E1E1E1E1E1E1E1E1E1E1E1E1E1E1E1E1E1E1E1E1E10F0F0F0F0F0F0F0F0F0F0F0F0F
310
0F0F0F0F0F0F0FE1E10F0F0F0F0F0F0F0F0F0FE10FE10FE10FE128E1BEE1E1E1E1E1E1E1E1E1E1E1E1E1E1E1E1E1E1E1E1E1E1E1E1E1E1E1E1E1E1E1E1E1E1E1E1E1E1E1E1E1E1E1E1E1E1E1E1E1E1E1E1E1E1E1E1E1E1E1E1E1E1E1E1E1E1E1E1E1E1E1E1E1E1E1E1E1E1E1E1E1E1E1E1E1E1E1E1E1E1BEE1E1E1E1E1E1E1
310
28E1E1E1E1E1E1E1E1E1E1E1E1E1E1E1E1E1E1E1E1E1E1E1E1E1E1E1E1E1E1E1E1E1E1E1E1E1E1E1E1E1E1E1E1E1E1E1E1E1E1E1E1E1E1E1E1E1E1E1E1E1E1E1E1E1E1E1E1E1E1E1E1E1E1E1E1E1E1E1E1E1E1E1E1E1E1E1E1E1E1E1E1E1E1E1E1E1E1E1E1E1E1E1E1E1E1E1E1E1E1E1E1E1E1E10F0F0F0F0FE1E1E1E1E10F
310
0F0F0F0F0F0F0FE1E1E1E1E1E1E1E1E1E1E1E1E1E1E1E1E1E1E1E1E128E1BEE1E1E1E1E1E1E1E1E1E1E1E1E1E1E1E1E1E1E1E1E1E1E1E1E1E1E1E1E1E1E1E1E1E1E1E1E1E1E1E1E1E1E1E1E1E1E1E1E1E1E1E1E1E1E1E1E1E1E1E1E1E1E1E1E1E1E1E1E1E1E1E1E1E1E1E1E1E1E1E1E1E1E1E1E1E1E1E1E1E1BEE1E1E1E1E1
310
E1E128E1E1E1E1E1E1E1E1E1E1E1E1E1E1E1E1E1E1E1E1E1E1E1E1E1E1E1E1E1E1E1E1E1E1E1E1E1E1E1E1E1E1E1E1E1E1E1E1E1E1E1E1E1E1E1E1E1E1E1E1E1E1E1E1E1E1E1E1E1E1E1E1E1E1E1E1E1E1E1E1E1E1E1E1E1E1E1E1E1E1E1E1E1E1E1E1E1E1E1E1E1E1E1E1E1E1E1E1E1E1E1E1E1E1E10F0F0F0F0FE1E1E1E1
310
E10F0F0F0F0F0F0F0FE1E1E1E1E1E1E1E1E1E1E1E1E1E1E1E1E1E1E1E1E128E1BEE1E1E1E1E1E1E1E1E1E1E1E1E1E1E1E1E1E1E1E1E1E1E1E1E1E1E1E1E1E1E1E1E1E1E1E1E1E1E1E1E1E1E1E1E1E1E1E1E1E1E1E1E1E1E1E1E1E1E1E1E1E1E1E1E1E1E1E1E1E1E1E1E1E1E1E1E1E1E1E1E1E1E1E1E1E1E1E1E1E1BEE1E1E1
310
E1E1E1E128E1E1E1E1E1E1E1E1E1E1E1E1E1E1E1E1E1E1E1E1E1E1E1E1E1E1E1E1E1E1E1E1E1E1E1E1E1E1E1E1E1E1E1E1E1E1E1E1E1E1E1E1E1E1E1E1E1E1E1E1E1E1E1E1E1E1E1E1E1E1E1E1E1E1E1E1E1E1E1E1E1E1E1E1E1E1E1E1E1E1E1E1E1E1E1E1E1E1E1E1E1E1E1E1E1E1E1E1E1E1E1E1E1E1E10F0F0F0F0FBE0F
310
0F0F0F0F0F0F0F0F0F0F0F0F0F0F0F0F0F0F0F0F0F0F0F0F0F0F0F0F0F0F0F0F0FE1BEE1E1E1E1E1E1E1E1E1E1E1E1E1E1E1E1E1E1E1E1E1E1E1E1E1E1E1E1E1E1E1E1E1E1E1E1E1E1E1E1E1E1E1E1E1E1E1E1E1E1E1E1E1E1E1E1E1E1E1E1E1E1E1E1E1E1E1E1E1E1E1E1E1E1E1E1E1E1E1E1E1E1E1E1E1E1E1E1E1E1BEE1
310
E1E1E1E1E1E128E1E1E1E1E1E1E1E1E1E1E1E1E1E1E1E1E1E1E1E1E1E1E1E1E1E1E1E1E1E1E1E1E1E1E1E1E1E1E1E1E1E1E1E1E1E1E1E1E1E1E1E1E1E1E1E1E1E1E1E1E1E1E1E1E1E1E1E1E1E1E1E1E1E1E1E1E1E1E1E1E1E1E1E1E1E1E1E1E1E1E1E1E1E1E1E1E1E1E1E1E1E1E1E1E1E1E1E1E1E1E1E1E1E1E10FBEBEBEBE
310
BEBEBEBEBEE1E1E10FE1E1E1E1E1E1E1E1E1E1E1E1BEBEBEBEBEBEBEBEBEBEBEBEE128E1BEE1E1E1E1E1E1E1E1E1E1E1E1E1E1E1E1E1E1E1E1E1E1E1E1E1E1E1E1E1E1E1E1E1E1E1E1E1E1E1E1E1E1E1E1E1E1E1E1E1E1E1E1E1E1E1E1E1E1E1E1E1E1E1E1E1E1E1E1E1E1E1E1E1E1E1E1E1E1E1E1E1E1E1E1E1E1E1E1E1E1
310
BEE1E1E1E1E1E1E128E1E1E1E1E1E1E1E1E1E1E1E1E1E1E1E1E1E1E1E1E1E1E1E1E1E1E1E1E1E1E1E1E1E1E1E1E1E1E1E1E1E1E1E1E1E1E1E1E1E1E1E1E1E1E1E1E1E1E1E1E1E1E1E1E1E1E1E1E1E1E1E1E1E1E1E1E1E1E1E1E1E1E1E1E1E1E1E1E1E1E1E1E1E1E1E1E1E1E1E1E1E1E1E1E1E1E1E1E1E1E1E1E1E1E10FBEBE
310
BEBEBEBEBEBEBEBEBEBE0FE1E1E1E1E1E1E1E1E1E1E1E1E1E1E1E1E2E2E2E2E2E2E2E2E128E1BEE1E1E1E1E1E1E1E1E1E1E1E1E1E1E1E1E1E1E1E1E1E1E1E1E1E1E1E1E1E1E1E1E1E1E1E1E1E1E1E1E1E1E1E1E1E1E1E1E1E1E1E1E1E1E1E1E1E1E1E1E1E1E1E1E1E1E1E1E1E1E1E1E1E1E1E1E1E1E1E1E1E1E1E1E1E1E1E1
310
E1E1BEE1E1E1E1E1E1E128E1E1E1E1E1E1E1E1E1E1E1E1E1E1E1E1E1E1E1E1E1E1E1E1E1E1E1E1E1E1E1E1E1E1E1E1E1E1E1E1E1E1E1E1E1E1E1E1E1E1E1E1E1E1E1E1E1E1E1E1E1E1E1E1E1E1E1E1E1E1E1E1E1E1E1E1E1E1E1E1E1E1E1E1E1E1E1E1E1E1E1E1E1E1E1E1E1E1E1E1E1E1E1E1E1E1E1E1E1E1E1E1E1E1E10F
310
BEE1E1E1BEBEE1E1E1E1E1E10FE1E1E1E1E1E1E1E1E1E1E1E1E1E1E1E1E2E2E2E2E2E2E2E2E128E1BEE1E1E1E1E1E1E1E1E1E1E1E1E1E1E1E1E1E1E1E1E1E1E1E1E1E1E1E1E1E1E1E1E1E1E1E1E1E1E1E1E1E1E1E1E1E1E1E1E1E1E1E1E1E1E1E1E1E1E1E1E1E1E1E1E1E1E1E1E1E1E1E1E1E1E1E1E1E1E1E1E1E1E1E1E1E1
310
E1E1E1E1BEE1E1E1E1E1E1E128E1E1E1E1E1E1E1E1E1E1E1E1E1E1E1E1E1E1E1E1E1E1E1E1E1E1E1E1E1E1E1E1E1E1E1E1E1E1E1E1E1E1E1E1E1E1E1E1E1E1E1E1E1E1E1E1E1E1E1E1E1E1E1E1E1E1E1E1E1E1E1E1E1E1E1E1E1E1E1E1E1E1E1E1E1E1E1E1E1E1E1E1E1E1E1E1E1E1E1E1E1E1E1E1E1E1E1E1E1E1E1E1E1E1
310
E10FBEE1E1E1BEBEE1E1E1E1E1E10FE1E1E1E1E1E1E1E1E1E1E1E1E1E1E1E1E1E1E1E1E1E1E1E1E128E1BEE1E1E1E1E1E1E1E1E1E1E1E1E1E1E1E1E1E1E1E1E1E1E1E1E1E1E1E1E1E1E1E1E1E1E1E1E1E1E1E1E1E1E1E1E1E1E1E1E1E1E1E1E1E1E1E1E1E1E1E1E1E1E1E1E1E1E1E1E1E1E1E1E1E1E1E1E1E1E1E1E1E1E1E1
310
E1E1E1E1E1E1BEE1E1E1E1E1E1E128E1E1E1E1E1E1E1E1E1E1E1E1E1E1E1E1E1E1E1E1E1E1E1E1E1E1E1E1E1E1E1E1E1E1E1E1E1E1E1E1E1E1E1E1E1E1E1E1E1E1E1E1E1E1E1E1E1E1E1E1E1E1E1E1E1E1E1E1E1E1E1E1E1E1E1E1E1E1E1E1E1E1E1E1E1E1E1E1E1E1E1E1E1E1E1E1E1E1E1E1E1E1E1E1E1E1E1E1E1E1E1E1
310
E1E1E10FBEE1E1E1BEBEE1E1E1E1E1E10FE1E1E1E1E1E1E1E1E1E1E1E1E1E1E1E1E1E1BEE2BEBEBEBEBE28E1BEE1E1E1E1E1E1E1E1E1E1E1E1E1E1E1E1E1E1E1E1E1E1E1E1E1E1E1E1E1E1E1E1E1E1E1E1E1E1E1E1E1E1E1E1E1E1E1E1E1E1E1E1E1E1E1E1E1E1E1E1E1E1E1E1E1E1E1E1E1E1E1E1E1E1E1E1E1E1E1E1E1E1
310
E1E1E1E1E1E1E1E1BEE1E1E1E1E1E1E128E1E1E1E1E1E1E1E1E1E1E1E1E1E1E1E1E1E1E1E1E1E1E1E1E1E1E1E1E1E1E1E1E1E1E1E1E1E1E1E1E1E1E1E1E1E1E1E1E1E1E1E1E1E1E1E1E1E1E1E1E1E1E1E1E1E1E1E1E1E1E1E1E1E1E1E1E1E1E1E1E1E1E1E1E1E1E1E1E1E1E1E1E1E1E1E1E1E1E1E1E1E1E1E1E1E1E1E1E1E1
310
E1E1E1E1E10FBEE1E1E1BEBEE1E1E1E1E1E10FE1E1E1E1E1E1E1E1E1E1E1E1E1E1E1E1E1BEBEBEBEBEBEBEBE28E1BEE1E1E1E1E1E1E1E1E1E1E1E1E1E1E1E1E1E1E1E1E1E1E1E1E1E1E1E1E1E1E1E1E1E1E1E1E1E1E1E1E1E1E1E1E1E1E1E1E1E1E1E1E1E1E1E1E1E1E1E1E1E1E1E1E1E1E1E1E1E1E1E1E1E1E1E1E1E1E1E1
310
E1E1E1E1E1E1E1E1E1E1BEE1E1E1E1E1E1BE28E1E1E1E1E1E1E1E1E1E1E1E1E1E1E1E1E1E1E1E1E1E1E1E1E1E1E1E1E1E1E1E1E1E1E1E1E1E1E1E1E1E1E1E1E1E1E1E1E1E1E1E1E1E1E1E1E1E1E1E1E1E1E1E1E1E1E1E1E1E1E1E1E1E1E1E1E1E1E1E1E1E1E1E1E1E1E1E1E1E1E1E1E1E1E1E1E1E1E1E1E1E1E1E1E1E1E1E1
310
E1E1E1E1E1E1E10FBEE1E1E1BEBEE1E1E1E1E1E10FE1E1E1E1E1E1E1E1E1E1E1E1E1E1E1E1E1E1BEBEBEBEBEBEBE28E1BEE1E1E1E1E1E1E1E1E1E1E1E1E1E1E1E1E1E1E1E1E1E1E1E1E1E1E1E1E1E1E1E1E1E1E1E1E1E1E1E1E1E1E1E1E1E1E1E1E1E1E1E1E1E1E1E1E1E1E1E1E1E1E1E1E1E1E1E1E1E1E1E1E1E1E1E1E1E1
310
E1E1E1E1E1E1E1E1E1E1E1E1BEE1E1E1E1E1E1BEBEE1E1E1E1E1E1E1E1E1E1E1E1E1E1E1E1E1E1E1E1E1E1E1E1E1E1E1E1E1E1E1E1E1E1E1E1E1E1E1E1E1E1E1E1E1E1E1E1E1E1E1E1E1E1E1E1E1E1E1E1E1E1E1E1E1E1E1E1E1E1E1E1E1E1E1E1E1E1E1E1E1E1E1E1E1E1E1E1E1E1E1E1E1E1E1E1E1E1E1E1E1E1E1E1E1E1
310
E1E1E1E1E1E1E1E1E10FBEE1E1E1BEBEE1E1E1E1E1E10FE1E1E1E1E1E1E1E1E1E1E1E1E1E1E1E1E1E1BEBEBEE1BEE1BE28E1BEE1E1E1E1E1E1E1E1E1E1E1E1E1E1E1E1E1E1E1E1E1E1E1E1E1E1E1E1E1E1E1E1E1E1E1E1E1E1E1E1E1E1E1E1E1E1E1E1E1E1E1E1E1E1E1E1E1E1E1E1E1E1E1E1E1E1E1E1E1E1E1E1E1E1E1E1
310
E1E1E1E1E1E1E1E1E1E1E1E1E1E1BEE1E1E1E1E1E1BEBEE1E1E1E1E1E1E1E1E1E1E1E1E1E1E1E1E1E1E1E1E1E1E1E1E1E1E1E1E1E1E1E1E1E1E1E1E1E1E1E1E1E1E1E1E1E1E1E1E1E1E1E1E1E1E1E1E1E1E1E1E1E1E1E1E1E1E1E1E1E1E1E1E1E1E1E1E1E1E1E1E1E1E1E1E1E1E1E1E1E1E1E1E1E1E1E1E1E1E1E1E1E1E1E1
310
E1E1E1E1E1E1E1E1E1E1E10FBEE1E1E1BEBEE1E1E1E1E1E10FE1E1E1E1E1E1E1E1E1E1E1E1E1E1E1E1E1E1E1E1E1E1E1E1E128E1BEE1E1E1E1E1E1E1E1E1E1E1E1E1E1E1E1E1E1E1E1E1E1E1E1E1E1E1E1E1E1E1E1E1E1E1E1E1E1E1E1E1E1E1E1E1E1E1E1E1E1E1E1E1E1E1E1E1E1E1E1E1E1E1E1E1E1E1E1E1E1E1E1E1E1
310
E1E1E1E1E1E1E1E1E1E1E1E1E1E1E1E1BEE1E1E1E1E1E1BEBEE1E1E1E1E1E1E1E1E1E1E1E1E1E1E1E1E1E1E1E1E1E1E1E1E1E1E1E1E1E1E1E1E1E1E1E1E1E1E1E1E1E1E1E1E1E1E1E1E1E1E1E1E1E1E1E1E1E1E1E1E1E1E1E1E1E1E1E1E1E1E1E1E1E1E1E1E1E1E1E1E1E1E1E1E1E1E1E1E1E1E1E1E1E1E1E1E1E1E1E1E1E1
310
E1E1E1E1E1E1E1E1E1E1E1E1E10FBEE1E1E1BEBEE1E1E1E1E1E10FE1E1E1E1E1E1E1E1E1E1E1E1E1E1E1E1E1E1E1E1E1E1E1E1E128E1BEE1E1E1E1E1E1E1E1E1E1E1E1E1E1E1E1E1E1E1E1E1E1E1E1E1E1E1E1E1E1E1E1E1E1E1E1E1E1E1E1E1E1E1E1E1E1E1E1E1E1E1E1E1E1E1E1E1E1E1E1E1E1E1E1E1E1E1E1E1E1E1E1
310
E1E1E1E1E1E1E1E1E1E1E1E1E1E1E1E1E1E1BEE1E1E1E1E1E1BEBEE1E1E1E1E1E1E1E1E1E1E1E1E1E1E1E1E1E1E1E1E1E1E1E1E1E1E1E1E1E1E1E1E1E1E1E1E1E1E1E1E1E1E1E1E1E1E1E1E1E1E1E1E1E1E1E1E1E1E1E1E1E1E1E1E1E1E1E1E1E1E1E1E1E1E1E1E1E1E1E1E1E1E1E1E1E1E1E1E1E1E1E1E1E1E1E1E1E1E1E1
310
E1E1E1E1E1E1E1E1E1E1E1E1E1E1E10FBEE1E1E1BEBEE1E1E1E1E1E10FE1E1E1E1E1E1E1E1E1E1E1E1E1E1E1E1E1E1E1E1E1E1E1E1E128E1BEE1E1E1E1E1E1E1E1E1E1E1E1E1E1E1E1E1E1E1E1E1E1E1E1E1E1E1E1E1E1E1E1E1E1E1E1E1E1E1E1E1E1E1E1E1E1E1E1E1E1E1E1E1E1E1E1E1E1E1E1E1E1E1E1E1E1E1E1E1E1
310
E1E1E1E1E1E1E1E1E1E1E1E1E1E1E1E1E1E1E1E1BEE1E1E1E1E1E1BEBEE1E1E1E1E1E1E1E1E1E1E1E1E1E1E1E1E1E1E1E1E1E1E1E1E1E1E1E1E1E1E1E1E1E1E1E1E1E1E1E1E1E1E1E1E1E1E1E1E1E1E1E1E1E1E1E1E1E1E1E1E1E1E1E1E1E1E1E1E1E1E1E1E1E1E1E1E1E1E1E1E1E1E1E1E1E1E1E1E1E1E1E1E1E1E1E1E1E1
310
E1E1E1E1E1E1E1E1E1E1E1E1E1E1E1E1E10FBEE1E1E1BEBEE1E1E1E1E1E10FE1E1E1E1E1E1E1E1E1E1E1E1E1E1E1E1E1E1E1E1E1E1E1E1E128E1BEE1E1E1E1E1E1E1E1E1E1E1E1E1E1E1E1E1E1E1E1E1E1E1E1E1E1E1E1E1E1E1E1E1E1E1E1E1E1E1E1E1E1E1E1E1E1E1E1E1E1E1E1E1E1E1E1E1E1E1E1E1E1E1E1E1E1E1E1
310
E1E1E1E1E1E1E1E1E1E1E1E1E1E1E1E1E1E1E1E1E1E1BEE1E1E1E1E1E1BEBEE1E1E1E1E1E1E1E1E1E1E1E1E1E1E1E1E1E1E1E1E1E1E1E1E1E1E1E1E1E1E1E1E1E1E1E1E1E1E1E1E1E1E1E1E1E1E1E1E1E1E1E1E1E1E1E1E1E1E1E1E1E1E1E1E1E1E1E1E1E1E1E1E1E1E1E1E1E1E1E1E1E1E1E1E1E1E1E1E1E1E1E1E1E1E1E1
310
E1E1E1E1E1E1E1E1E1E1E1E1E1E1E1E1E1E1E10F0F0F0F0F0F0F0F0F0F0F0F0F0F0F0F0F0F0F0F0F0F0F0F0F0F0F0F0F0F0F0F0F0F0F0F0F0F0F0FE1BEE1E1E1E1E1E1E1E1E1E1E1E1E1E1E1E1E1E1E1E1E1E1E1E1E1E1E1E1E1E1E1E1E1E1E1E1E1E1E1E1E1E1E1E1E1E1E1E1E1E1E1E1E1E1E1E1E1E1E1E1E1E1E1E1E1E1
310
E1E1E1E1E1E1E1E1E1E1E1E1E1E1E1E1E1E1E1E1E1E1E1E1BEE1E1E1E1E1E1BEBEE1E1E1E1E1E1E1E1E1E1E1E1E1E1E1E1E1E1E1E1E1E1E1E1E1E1E1E1E1E1E1E1E1E1E1E1E1E1E1E1E1E1E1E1E1E1E1E1E1E1E1E1E1E1E1E1E1E1E1E1E1E1E1E1E1E1E1E1E1E1E1E1E1E1E1E1E1E1E1E1E1E1E1E1E1E1E1E1E1E1E1E1E1E1
310
E1E1E1E1E1E1E1E1E1E1E1E1E1E1E1E1E1E1E1E1E10FE1E1E1E1E1E1E1E1E1E1E1E1E1E1E1E1E1E1E1E1E1E1E1E2E2E1E1E1E1E1E1E1E1E1E1E1E1E128E1BEE1E1E1E1E1E1E1E1E1E1E1E1E1E1E1E1E1E1E1E1E1E1E1E1E1E1E1E1E1E1E1E1E1E1E1E1E1E1E1E1E1E1E1E1E1E1E1E1E1E1E1E1E1E1E1E1E1E1E1E1E1E1E1E1
310
E1E1E1E1E1E1E1E1E1E1E1E1E1E1E1E1E1E1E1E1E1E1E1E1E1E1BEE1E1E1E1E1E1BEBEE1E1E1E1E1E1E1E1E1E1E1E1E1E1E1E1E1E1E1E1E1E1E1E1E1E1E1E1E1E1E1E1E1E1E1E1E1E1E1E1E1E1E1E1E1E1E1E1E1E1E1E1E1E1E1E1E1E1E1E1E1E1E1E1E1E1E1E1E1E1E1E1E1E1E1E1E1E1E1E1E1E1E1E1E1E1E1E1E1E1E1E1
310
E1E1E1E1E1E1E1E1E1E1E1E1E1E1E1E1E1E1E1E1E1E1E10FE1E1E1E1E1E1E1E1E1E2E2E2E2E2E2E2E2E2E2E2E2E2E2E2E2E1E1E1E1E1E1E1E1E1E1E1E1E128E1BEE1E1E1E1E1E1E1E1E1E1E1E1E1E1E1E1E1E1E1E1E1E1E1E1E1E1E1E1E1E1E1E1E1E1E1E1E1E1E1E1E1E1E1E1E1E1E1E1E1E1E1E1E1E1E1E1E1E1E1E1E1E1
310
E1E1E1E1E1E1E1E1E1E1E1E1E1E1E1E1E1E1E1E1E1E1E1E1E1E1E1E1BEE1E1E1E1E1E1BEBEE1E1E1E1E1E1E1E1E1E1E1E1E1E1E1E1E1E1E1E1E1E1E1E1E1E1E1E1E1E1E1E1E1E1E1E1E1E1E1E1E1E1E1E1E1E1E1E1E1E1E1E1E1E1E1E1E1E1E1E1E1E1E1E1E1E1E1E1E1E1E1E1E1E1E1E1E1E1E1E1E1E1E1E1E1E1E1E1E1E1
310
E1E1E1E1E1E1E1E1E1E1E1E1E1E1E1E1E1E1E1E1E1E1E1E1E10FE1E1E1E1E1E1E1E1E1E2E2E1E1E1E2E1E1E2E1E1E1E2E2E1E1E1E1E1E1E1E1E1E1E1E1E1E1E128E1BEE1E1E1E1E1E1E1E1E1E1E1E1E1E1E1E1E1E1E1E1E1E1E1E1E1E1E1E1E1E1E1E1E1E1E1E1E1E1E1E1E1E1E1E1E1E1E1E1E1E1E1E1E1E1E1E1E1E1E1E1
310
E1E1E1E1E1E1E1E1E1E1E1E1E1E1E1E1E1E1E1E1E1E1E1E1E1E1E1E1E1E1BEE1E1E1E1E1E1BEBEE1E1E1E1E1E1E1E1E1E1E1E1E1E1E1E1E1E1E1E1E1E1E1E1E1E1E1E1E1E1E1E1E1E1E1E1E1E1E1E1E1E1E1E1E1E1E1E1E1E1E1E1E1E1E1E1E1E1E1E1E1E1E1E1E1E1E1E1E1E1E1E1E1E1E1E1E1E1E1E1E1E1E1E1E1E1E1E1
310
E1E1E1E1E1E1E1E1E1E1E1E1E1E1E1E1E1E1E1E1E1E1E1E1E1E1E10FE2E2E2E2E2E2E2E2E2E2E2E2E2E2E2E2E2E2E2E1E1E1E1E1E1E1E1E1E1E1E1E1E1E1E1E1E1E128E1BEE1E1E1E1E1E1E1E1E1E1E1E1E1E1E1E1E1E1E1E1E1E1E1E1E1E1E1E1E1E1E1E1E1E1E1E1E1E1E1E1E1E1E1E1E1E1E1E1E1E1E1E1E1E1E1E1E1E1
310
E1E1E1E1E1E1E1E1E1E1E1E1E1E1E1E1E1E1E1E1E1E1E1E1E1E1E1E1E1E1E1E1BEE1E1E1E1E1E1BEBEE1E1E1E1E1E1E1E1E1E1E1E1E1E1E1E1E1E1E1E1E1E1E1E1E1E1E1E1E1E1E1E1E1E1E1E1E1E1E1E1E1E1E1E1E1E1E1E1E1E1E1E1E1E1E1E1E1E1E1E1E1E1E1E1E1E1E1E1E1E1E1E1E1E1E1E1E1E1E1E1E1E1E1E1E1E1
310
E1E1E1E1E1E1E1E1E1E1E1E1E1E1E1E1E1E1E1E1E1E1E1E1E1E1E1E1E10FE1E2E1E1E2E2E2E1E1E2E2E2E2E2E2E2E2E2E2E1E1E1E1E1E1E1E1E1E1E1E1E1E1E1E1E1E1E128E1BEE1E1E1E1E1E1E1E1E1E1E1E1E1E1E1E1E1E1E1E1E1E1E1E1E1E1E1E1E1E1E1E1E1E1E1E1E1E1E1E1E1E1E1E1E1E1E1E1E1E1E1E1E1E1E1E1
310
E1E1E1E1E1E1E1E1E1E1E1E1E1E1E1E1E1E1E1E1E1E1E1E1E1E1E1E1E1E1E1E1E1E1BEE1E1E1E1E1E1BEBEE1E1E1E1E1E1E1E1E1E1E1E1E1E1E1E1E1E1E1E1E1E1E1E1E1E1E1E1E1E1E1E1E1E1E1E1E1E1E1E1E1E1E1E1E1E1E1E1E1E1E1E1E1E1E1E1E1E1E1E1E1E1E1E1E1E1E1E1E1E1E1E1E1E1E1E1E1E1E1E1E1E1E1E1
310
E1E1E1E1E1E1E1E1E1E1E1E1E1E1E1E1E1E1E1E1E1E1E1E1E1E1E1E1E1E1E10FE1E1E1E1E1E1E1E1E1E1E1E1E1E1E1E1E1E1E1E1E1E1E1E1E1E1E1E1E1E1E1E1E1E1E1E1E1E128E1BEE1E1E1E1E1E1E1E1E1E1E1E1E1E1E1E1E1E1E1E1E1E1E1E1E1E1E1E1E1E1E1E1E1E1E1E1E1E1E1E1E1E1E1E1E1E1E1E1E1E1E1E1E1E1
310
E1E1E1E1E1E1E1E1E1E1E1E1E1E1E1E1E1E1E1E1E1E1E1E1E1E1E1E1E1E1E1E1E1E1E1E1BEE1E1E1E1E1E1BEBEE1E1E1E1E1E1E1E1E1E1E1E1E1E1E1E1E1E1E1E1E1E1E1E1E1E1E1E1E1E1E1E1E1E1E1E1E1E1E1E1E1E1E1E1E1E1E1E1E1E1E1E1E1E1E1E1E1E1E1E1E1E1E1E1E1E1E1E1E1E1E1E1E1E1E1E1E1E1E1E1E1E1
310
E1E1E1E1E1E1E1E1E1E1E1E1E1E1E1E1E1E1E1E1E1E1E1E1E1E1E1E1E1E1E1E1E10FE1E1E1E1E1E1E1E1E1E2E2E2E2E2E2E2E2E2E2E2E2E2E2E2E2E2E2E2E2E1E1E1E1E1E1E1E1E128E1BEE1E1E1E1E1E1E1E1E1E1E1E1E1E1E1E1E1E1E1E1E1E1E1E1E1E1E1E1E1E1E1E1E1E1E1E1E1E1E1E1E1E1E1E1E1E1E1E1E1E1E1E1
310
E1E1E1E1E1E1E1E1E1E1E1E1E1E1E1E1E1E1E1E1E1E1E1E1E1E1E1E1E1E1E1E1E1E1E1E1E1E1BEE1E1E1E1E1E1BEBEE1E1E1E1E1E1E1E1E1E1E1E1E1E1E1E1E1E1E1E1E1E1E1E1E1E1E1E1E1E1E1E1E1E1E1E1E1E1E1E1E1E1E1E1E1E1E1E1E1E1E1E1E1E1E1E1E1E1E1E1E1E1E1E1E1E1E1E1E1E1E1E1E1E1E1E1E1E1E1E1
310
E1E1E1E1E1E1E1E1E1E1E1E1E1E1E1E1E1E1E1E1E1E1E1E1E1E1E1E1E1E1E1E1E1E1E10FE1E1E1E1E1E1E1E1E1E2E2E2E2E2E2E2E2E2E2E2E2E2E2E2E2E2E2E2E2E1E1E1E1E1E1E1E1E128E1BEE1E1E1E1E1E1E1E1E1E1E1E1E1E1E1E1E1E1E1E1E1E1E1E1E1E1E1E1E1E1E1E1E1E1E1E1E1E1E1E1E1E1E1E1E1E1E1E1E1E1
310
E1E1E1E1E1E1E1E1E1E1E1E1E1E1E1E1E1E1E1E1E1E1E1E1E1E1E1E1E1E1E1E1E1E1E1E1E1E1E1E1BEE1E1E1E1E1E1BEBEE1E1E1E1E1E1E1E1E1E1E1E1E1E1E1E1E1E1E1E1E1E1E1E1E1E1E1E1E1E1E1E1E1E1E1E1E1E1E1E1E1E1E1E1E1E1E1E1E1E1E1E1E1E1E1E1E1E1E1E1E1E1E1E1E1E1E1E1E1E1E1E1E1E1E1E1E1E1
310
E1E1E1E1E1E1E1E1E1E1E1E1E1E1E1E1E1E1E1E1E1E1E1E1E1E1E1E1E1E1E1E1E1E1E1E1E10FE2E2E2E2E2E2E2E2E2E2E2E2E2E1E2E2E2E2E1E1E1E1E1E1E1E1E1E1E1E1E1E1E1E1E1E1E1E128E1BEE1E1E1E1E1E1E1E1E1E1E1E1E1E1E1E1E1E1E1E1E1E1E1E1E1E1E1E1E1E1E1E1E1E1E1E1E1E1E1E1E1E1E1E1E1E1E1E1
310
E1E1E1E1E1E1E1E1E1E1E1E1E1E1E1E1E1E1E1E1E1E1E1E1E1E1E1E1E1E1E1E1E1E1E1E1E1E1E1E1E1E1BEE1E1E1E1E1E1BEBEE1E1E1E1E1E1E1E1E1E1E1E1E1E1E1E1E1E1E1E1E1E1E1E1E1E1E1E1E1E1E1E1E1E1E1E1E1E1E1E1E1E1E1E1E1E1E1E1E1E1E1E1E1E1E1E1E1E1E1E1E1E1E1E1E1E1E1E1E1E1E1E1E1E1E1E1
310
E1E1E1E1E1E1E1E1E1E1E1E1E1E1E1E1E1E1E1E1E1E1E1E1E1E1E1E1E1E1E1E1E1E1E1E1E1E1E10FE2E2E2E2E2E2E2E2E2E2E2E1E2E2E2E2E2E2E1E1E1E1E1E1E1E1E1E1E1E1E1E1E1E1E1E1E1E128E1BEE1E1E1E1E1E1E1E1E1E1E1E1E1E1E1E1E1E1E1E1E1E1E1E1E1E1E1E1E1E1E1E1E1E1E1E1E1E1E1E1E1E1E1E1E1E1
310
E1E1E1E1E1E1E1E1E1E1E1E1E1E1E1E1E1E1E1E1E1E1E1E1E1E1E1E1E1E1E1E1E1E1E1E1E1E1E1E1E1E1E1E1BEE1E1E1E1E1E1BEBEE1E1E1E1E1E1E1E1E1E1E1E1E1E1E1E1E1E1E1E1E1E1E1E1E1E1E1E1E1E1E1E1E1E1E1E1E1E1E1E1E1E1E1E1E1E1E1E1E1E1E1E1E1E1E1E1E1E1E1E1E1E1E1E1E1E1E1E1E1E1E1E1E1E1
310
E1E1E1E1E1E1E1E1E1E1E1E1E1E1E1E1E1E1E1E1E1E1E1E1E1E1E1E1E1E1E1E1E1E1E1E1E1E1E1E1E10FE1E2E1E2E2E2E1E2E1E2E2E1E2E1E2E2E2E2E1E1E1E1E1E1E1E1E1E1E1E1E1E1E1E1E1E1E1E128E1BEE1E1E1E1E1E1E1E1E1E1E1E1E1E1E1E1E1E1E1E1E1E1E1E1E1E1E1E1E1E1E1E1E1E1E1E1E1E1E1E1E1E1E1E1
310
E1E1E1E1E1E1E1E1E1E1E1E1E1E1E1E1E1E1E1E1E1E1E1E1E1E1E1E1E1E1E1E1E1E1E1E1E1E1E1E1E1E1E1E1E1E1BEE1E1E1E1E1E1BEBEE1E1E1E1E1E1E1E1E1E1E1E1E1E1E1E1E1E1E1E1E1E1E1E1E1E1E1E1E1E1E1E1E1E1E1E1E1E1E1E1E1E1E1E1E1E1E1E1E1E1E1E1E1E1E1E1E1E1E1E1E1E1E1E1E1E1E1E1E1E1E1E1
310
E1E1E1E1E1E1E1E1E1E1E1E1E1E1E1E1E1E1E1E1E1E1E1E1E1E1E1E1E1E1E1E1E1E1E1E1E1E1E1E1E1E1E10F0F0F0F0F0F0F0F0F0F0F0F0F0F0F0F0F0F0F0F0F0F0F0F0F0F0F0F0F0F0F0F0F0F0F0F0F0F0F0FE1BEE1E1E1E1E1E1E1E1E1E1E1E1E1E1E1E1E1E1E1E1E1E1E1E1E1E1E1E1E1E1E1E1E1E1E1E1E1E1E1E1E1E1
310
E1E1E1E1E1E1E1E1E1E1E1E1E1E1E1E1E1E1E1E1E1E1E1E1E1E1E1E1E1E1E1E1E1E1E1E1E1E1E1E1E1E1E1E1E1E1E1E1BEE1E1E1E1E1E1BEBEE1E1E1E1E1E1E1E1E1E1E1E1E1E1E1E1E1E1E1E1E1E1E1E1E1E1E1E1E1E1E1E1E1E1E1E1E1E1E1E1E1E1E1E1E1E1E1E1E1E1E1E1E1E1E1E1E1E1E1E1E1E1E1E1E1E1E1E1E1E1
310
E1E1E1E1E1E1E1E1E1E1E1E1E1E1E1E1E1E1E1E1E1E1E1E1E1E1E1E1E1E1E1E1E1E1E1E1E1E1E1E1E1E1E1E1E10FBEE1E1E1E1E1E1E1E1E1E1E1E1E1E1E1E1E1E1E1E1E1E1E1E1E1E1E1E1E1E1E1E1E1E1E1E1E128E1BEE1E1E1E1E1E1E1E1E1E1E1E1E1E1E1E1E1E1E1E1E1E1E1E1E1E1E1E1E1E1E1E1E1E1E1E1E1E1E1E1
310
E1E1E1E1E1E1E1E1E1E1E1E1E1E1E1E1E1E1E1E1E1E1E1E1E1E1E1E1E1E1E1E1E1E1E1E1E1E1E1E1E1E1E1E1E1E1E1E1E1E1BEE1E1E1E1E1E1BEBEE1E1E1E1E1E1E1E1E1E1E1E1E1E1E1E1E1E1E1E1E1E1E1E1E1E1E1E1E1E1E1E1E1E1E1E1E1E1E1E1E1E1E1E1E1E1E1E1E1E1E1E1E1E1E1E1E1E1E1E1E1E1E1E1E1E1E1E1
310
E1E1E1E1E1E1E1E1E1E1E1E1E1E1E1E1E1E1E1E1E1E1E1E1E1E1E1E1E1E1E1E1E1E1E1E1E1E1E1E1E1E1E1E1E1E1E10FBEBEBEBEBEBEBEBEBEBEBEBEBEBEBEBEBEBEBEBEBEBEBEBEBEBEBEBEBEBEBEBEBEBEBEBEE1E128E1BEE1E1E1E1E1E1E1E1E1E1E1E1E1E1E1E1E1E1E1E1E1E1E1E1E1E1E1E1E1E1E1E1E1E1E1E1E1E1
310
E1E1E1E1E1E1E1E1E1E1E1E1E1E1E1E1E1E1E1E1E1E1E1E1E1E1E1E1E1E1E1E1E1E1E1E1E1E1E1E1E1E1E1E1E1E1E1E1E1E1E1E1BEE1E1E1E1E1E1BEBEE1E1E1E1E1E1E1E1E1E1E1E1E1E1E1E1E1E1E1E1E1E1E1E1E1E1E1E1E1E1E1E1E1E1E1E1E1E1E1E1E1E1E1E1E1E1E1E1E1E1E1E1E1E1E1E1E1E1E1E1E1E1E1E1E1E1
310
E1E1E1E1E1E1E1E1E1E1E1E1E1E1E1E1E1E1E1E1E1E1E1E1E1E1E1E1E1E1E1E1E1E1E1E1E1E1E1E1E1E1E1E1E1E1E1E1E10FE1E1E1E1E1E1E1E1E1E1E1E1E1E1E1E1E1E1E1E1E1E1E1E1E1E1E1E1E1E1E1E1E1E1E1E1E1E128E1BEE1E1E1E1E1E1E1E1E1E1E1E1E1E1E1E1E1E1E1E1E1E1E1E1E1E1E1E1E1E1E1E1E1E1E1E1
310
E1E1E1E1E1E1E1E1E1E1E1E1E1E1E1E1E1E1E1E1E1E1E1E1E1E1E1E1E1E1E1E1E1E1E1E1E1E1E1E1E1E1E1E1E1E1E1E1E1E1E1E1E1E1BEE1E1E1E1E1E1BEBEE1E1E1E1E1E1E1E1E1E1E1E1E1E1E1E1E1E1E1E1E1E1E1E1E1E1E1E1E1E1E1E1E1E1E1E1E1E1E1E1E1E1E1E1E1E1E1E1E1E1E1E1E1E1E1E1E1E1E1E1E1E1E1E1
310
E1E1E1E1E1E1E1E1E1E1E1E1E1E1E1E1E1E1E1E1E1E1E1E1E1E1E1E1E1E1E1E1E1E1E1E1E1E1E1E1E1E1E1E1E1E1E1E1E1E1E10FE1E1E1E1E1E1E1E1E1E2E2E2E2E2E2E2E2E2E2E2E2E2E2E2E2E2E1E1E1E1E1E1E1E1E1E1E1E128E1BEE1E1E1E1E1E1E1E1E1E1E1E1E1E1E1E1E1E1E1E1E1E1E1E1E1E1E1E1E1E1E1E1E1E1
310
E1E1E1E1E1E1E1E1E1E1E1E1E1E1E1E1E1E1E1E1E1E1E1E1E1E1E1E1E1E1E1E1E1E1E1E1E1E1E1E1E1E1E1E1E1E1E1E1E1E1E1E1E1E1E1E1BEE1E1E1E1E1E1BEBEE1E1E1E1E1E1E1E1E1E1E1E1E1E1E1E1E1E1E1E1E1E1E1E1E1E1E1E1E1E1E1E1E1E1E1E1E1E1E1E1E1E1E1E1E1E1E1E1E1E1E1E1E1E1E1E1E1E1E1E1E1E1
310
E1E1E1E1E1E1E1E1E1E1E1E1E1E1E1E1E1E1E1E1E1E1E1E1E1E1E1E1E1E1E1E1E1E1E1E1E1E1E1E1E1E1E1E1E1E1E1E1E1E1E1E1E10FE1E1E1E1E1E1E1E1E1E2E2E2E2E2E2E2E1E2E2E2E2E2E2E2E2E2E1E1E1E1E1E1E1E1E1E1E1E128E1BEE1E1E1E1E1E1E1E1E1E1E1E1E1E1E1E1E1E1E1E1E1E1E1E1E1E1E1E1E1E1E1E1
310
E1E1E1E1E1E1E1E1E1E1E1E1E1E1E1E1E1E1E1E1E1E1E1E1E1E1E1E1E1E1E1E1E1E1E1E1E1E1E1E1E1E1E1E1E1E1E1E1E1E1E1E1E1E1E1E1E1E1BEE1E1E1E1E1E1BEBEE1E1E1E1E1E1E1E1E1E1E1E1E1E1E1E1E1E1E1E1E1E1E1E1E1E1E1E1E1E1E1E1E1E1E1E1E1E1E1E1E1E1E1E1E1E1E1E1E1E1E1E1E1E1E1E1E1E1E1E1
310
E1E1E1E1E1E1E1E1E1E1E1E1E1E1E1E1E1E1E1E1E1E1E1E1E1E1E1E1E1E1E1E1E1E1E1E1E1E1E1E1E1E1E1E1E1E1E1E1E1E1E1E1E1E1E10FE10F0F0F0F0F0F0F0F0FE10F0F0F0F0F0F0F0F0F0F0F0F0F0F0F0FE1E1E1E1E1E1E1E1E1E1E128E1BEE1E1E1E1E1E1E1E1E1E1E1E1E1E1E1E1E1E1E1E1E1E1E1E1E1E1E1E1E1E1
310
E1E1E1E1E1E1E1E1E1E1E1E1E1E1E1E1E1E1E1E1E1E1E1E1E1E1E1E1E1E1E1E1E1E1E1E1E1E1E1E1E1E1E1E1E1E1E1E1E1E1E1E1E1E1E1E1E1E1E1E1BEE1E1E1E1E1E1BEBEE1E1E1E1E1E1E1E1E1E1E1E1E1E1E1E1E1E1E1E1E1E1E1E1E1E1E1E1E1E1E1E1E1E1E1E1E1E1E1E1E1E1E1E1E1E1E1E1E1E1E1E1E10F0FBEE1E1
310
E1E1E1E1E1E1E1E1E1E1E1E1E1E1E1E1E1E1E1E1E1E1E1E1E1E1E1E1E1E1E1E1E1E1E1E1E1E1E1E1E1E1E1E1E1E1E1E1E1E1E1E1E1E1E1E1E10FE10F0F0F0F0F0F0F0F0F0F0F0FE10FE10F0F0F0F0F0F0F0F0F0F0FE1E1E1E1E1E1E1E1E1E1E128E1BEE1E1E1E1E1E1E1E1E1E1E1E1E1E1E1E1E1E1E1E1E1E1E1E1E1E1E1E1
310
E1E1E1E1E1E1E1E1E1E1E1E1E1E1E1E1E1E1E1E1E1E1E1E1E1E1E1E1E1E1E1E1E1E1E1E1E1E1E1E1E1E1E1E1E1E1E1E1E1E1E1E1E1E1E1E1E1E1E1E1E1E1BEE1E1E1E1E1E1BEBEE1E1E1E1E1E1E1E1E1E1E1E1E1E1E1E1E1E1E1E1E1E1E1E1E1E1E1E1E1E1E1E1E1E1E1E1E1E1E1E1E1E1E1E1E1E1E1E1E1E1E1E1E10F0F0F
310
E1E1E1E1E1E1E1E1E1E1E1E1E1E1E1E1E1E1E1E1E1E1E1E1E1E1E1E1E1E1E1E1E1E1E1E1E1E1E1E1E1E1E1E1E1E1E1E1E1E1E1E1E1E1E1E1E1E1E10F0F0F0F0F0F0F0F0F0F0F0F0F0F0F0F0F0F0F0F0F0F0F0F0F0F0F0F0F0F0F0F0F0F0F0F0F0F0F0FE1BEE1E1E1E1E1E1E1E1E1E1E1E1E1E1E1E1E1E1E1E1E1E1E1E1E1E1
310
E1E1E1E1E1E1E1E1E1E1E1E1E1E1E1E1E1E1E1E1E1E1E1E1E1E1E1E1E1E1E1E1E1E1E1E1E1E1E1E1E1E1E1E1E1E1E1E1E1E1E1E1E1E1E1E1E1E1E1E1E1E1E1E1BEE1E1E1E1E1E1BEBEE1E1E1E1E1E1E1E1E1E1E1E1E1E1E1E1E1E1E1E1E1E1E1E1E1E1E1E1E1E1E1E1E1E1E1E1E1E1E1E1E1E1E1E1E1E1E1E1E1E1E1E1E1E1
310
E10FE1E1E1E1E1E1E1E1E1E1E1E1E1E1E1E1E1E1E1E1E1E1E1E1E1E1E1E1E1E1E1E1E1E1E1E1E1E1E1E1E1E1E1E1E1E1E1E1E1E1E1E1E1E1E1E1E1E1E10FBEBEBEBEBEE1E1E1E1E2E1E2E1E1E1E1E1E1E1E1E1E1E1E1E1E1E1E1E1E1E1E10F0F0F0F0F0F28E1BEE1E1E1E1E1E1E1E1E1E1E1E1E1E1E1E1E1E1E1E1E1E1E1E1
310
E1E1E1E1E1E1E1E1E1E1E1E1E1E1E1E1E1E1E1E1E1E1E1E1E1E1E1E1E1E1E1E1E1E1E1E1E1E1E1E1E1E1E1E1E1E1E1E1E1E1E1E1E1E1E1E1E1E1E1E1E1E1E1E1E1E1BEE1E1E1E1E1E1BE28E1E1E1E1E1E1E1E1E1E1E1E1E1E1E1E1E1E1E1E1E1E1E1E1E1E1E1E1E1E1E1E1E1E1E1E1E1E1E1E1E1E1E1E1E1E1E1E1E1E1E1E1
310
E10F0FBEE1E1E1E1E1E1E1E1E1E1E1E1E1E1E1E1E1E1E1E1E1E1E1E1E1E1E1E1E1E1E1E1E1E1E1E1E1E1E1E1E1E1E1E1E1E1E1E1E1E1E1E1E1E1E1E1E1E1E10FE1BEBEBEBEE1E1E1E1E2E2E2E1E1E1E1E1E1E1E1E1E1E1E1E1E1E1E1E1E1E1BE0FBEBEBEBEBEBEE1BEE1E1E1E1E1E1E1E1E1E1E1E1E1E1E1E1E1E1E1E1E1E1
310
E1E1E1E1E1E1E1E1E1E1E1E1E1E1E1E1E1E1E1E1E1E1E1E1E1E1E1E1E1E1E1E1E1E1E1E1E1E1E1E1E1E1E1E1E1E1E1E1E1E1E1E1E1E1E1E1E1E1E1E1E1E1E1E1E1E1E1E1BEE1E1E1E1E1E1BEBEE1E1E1E1E1E1E1E1E1E1E1E1E1E1E1E1E1E1E1E1E1E1E1E1E1E1E1E1E1E1E1E1E1E1E1E1E1E1E1E1E1E1E1E1E1E1E1E1E1E1
310
E1E1E1E10F0FE1E1E1E1E1E1E1E1E1E1E1E1E1E1E1E1E1E1E1E1E1E1E1E1E1E1E1E1E1E1E1E1E1E1E1E1E1E1E1E1E1E1E1E1E1E1E1E1E1E1E1E1E1E1E1E1E1E1E10FBEBEBEBEBEBEBEBEE1E2E1E2E1E1E1E1E1E1E1E1E1E1E1E1E1E1E1E1E1E1E1E1E10F0FE10F0F28E1BEE1E1E1E1E1E1E1E1E1E1E1E1E1E1E1E1E1E1E1E1
310
E1E1E1E1E1E1E1E1E1E1E1E1E1E1E1E1E1E1E1E1E1E1E1E1E1E1E1E1E1E1E1E1E1E1E1E1E1E1E1E1E1E1E1E1E1E1E1E1E1E1E1E1E1E1E1E1E1E1E1E1E1E1E1E1E1E1E1E1E1E1BEE1E1E1E1E1E1BEBEE1E1E1E1E1E1E1E1E1E1E1E1E1E1E1E1E1E1E1E1E1E1E1E1E1E1E1E1E1E1E1E1E1E1E1E1E1E1E1E1E1E1E1E1E1E1E1E1
310
E1E1E1E1E1E1E1BEE1E1E1E1E1E1E1E1E1E1E1E1E1E1E1E1E1E1E1E1E1E1E1E1E1E1E1E1E1E1E1E1E1E1E1E1E1E1E1E1E1E1E1E1E1E1E1E1E1E1E1E1E1E1E1E1E1E1E10FE1E1E1E1E1E1E1E10F0F0F0F0F0F0F0F0F0F0F0F0F0F0F0F0F0F0F0F0F0FE1E1E1E1E1E1E1E128E1BEE1E1E1E1E1E1E1E1E1E1E1E1E1E1E1E1E1E1
310
E1E1E1E1E1E1E1E1E1E1E1E1E1E1E1E1E1E1E1E1E1E1E1E1E1E1E1E1E1E1E1E1E1E1E1E1E1E1E1E1E1E1E1E1E1E1E1E1E1E1E1E1E1E1E1E1E1E1E1E1E1E1E1E1E1E1E1E1E1E1E1E1BEE1E1E1E1E1E1BEBEE1E1E1E1E1E1E1E1E1E1E1E1E1E1E1E1E1E1E1E1E1E1E1E1E1E1E1E2E2BEE2E2E2E2E2E2E2E2BEE2E2E2E2E2E2E2
310
E2E2BEE2BEE1E1E1E1BEE1E1E1E1E1E1E1E1E1E1E1E1E1E1E1E1E1E1E1E1E1E1E1E1E1E1E1E1E1E1E1E1E1E1E1E1E1E1E1E1E1E1E1E1E1E1E1E1E1E1E1E1E1E1E1E1E1E1E10FE1BEBEBEBEBEBEE1E10F0F0F0F0F0F0F0F0F0F0F0F0F0F0F0F0F0F0F0F0F0FE1E1E1E1E1E1E128E1BEE1E1E1E1E1E1E1E1E1E1E1E1E1E1E1E1
310
E1E1E1E1E1E1E1E1E1E1E1E1E1E1E1E1E1E1E1E1E1E1E1E1E1E1E1E1E1E1E1E1E1E1E1E1E1E1E1E1E1E1E1E1E1E1E1E1E1E1E1E1E1E1E1E1E1E1E1E1E1E1E1E1E1E1E1E1E1E1E1E1E1E1BEE1E1E1E1E1E1BEBEE1E1E1E1E1E1E1E1E1E1E1E1E1E1E1E1E1E1E1E1E1E1E1E1E1E1BEBEBEBEBEBEE2E2E2E2E2E2BEE2E2E2E2E2
310
E2E2E2BEBEBEE2BEBEBEBEE2BEE1E1E1E1E1E1E1E1E1E1E1E1E1E1E1E1E1E1E1E1E1E1E1E1E1E1E1E1E1E1E1E1E1E1E1E1E1E1E1E1E1E1E1E1E1E1E1E1E1E1E1E1E1E1E1E1E1E10FBEBEBEBEBEBEBEE10F0F0F0F0F0F0F0F0F0F0F0F0F0F0F0F0F0F0FE1E1E1E1E1E1E1E1E1E1E128E1BEE1E1E1E1E1E1E1E1E1E1E1E1E1E1
310
E1E1E1E1E1E1E1E1E1E1E1E1E1E1E1E1E1E1E1E1E1E1E1E1E1E1E1E1E1E1E1E1E1E1E1E1E1E1E1E1E1E1E1E1E1E1E1E1E1E1E1E1E1E1E1E1E1E1E1E1E1E1E1E1E1E1E1E1E1E1E1E1E1E1E1E1BEE1E1E1E1E1E1BEBEE1E1E1E1E1E1E1E1E1E1E1E1E1E1E1E1E1E1E1E1E1E1E1E1E1E1E1BEBEBEBEBEE1E1E1E1E1E1BEE1E1E1
310
E1E1E1E1BEBEBEBEBEE1E1E1E1BEE1E1E1E1E1E1E1E1E1E1E1E1E1E1E1E1E1E1E1E1E1E1E1E1E1E1E1E1E1E1E1E1E1E1E1E1E1E1E1E1E1E1E1E1E1E1E1E1E1E1E1E1E1E1E1E1E1E1E10FE1E1E1E1E1E1E1E1E10F0F0F0F0F0F0F0F0F0F0F0F0F0F0F0F0F0FE1E1E1E10FE1E1E1E1E1E128E1BEE1E1E1E1E1E1E1E1E1E1E1E1
310
E1E1E1E1E1E1E1E1E1E1E1E1E1E1E1E1E1E1E1E1E1E1E1E1E1E1E1E1E1E1E1E1E1E1E1E1E1E1E1E1E1E1E1E1E1E1E1E1E1E1E1E1E1E1E1E1E1E1E1E1E1E1E1E1E1E1E1E1E1E1E1E1E1E1E1E1E1E1BEE1E1E1E1E1E1BEBEE1E1E1E1E1E1E1E1E1E1E1E1E1E1E1E1E1E1E1E1E1E1E1E1E1E1E1BEBEBEBEBEBEBEBEBEBEBEBEBE
310
BEBEBEBEBEBEBEE2BEBEBEE1E1E1E1BEE1E1E1E1E1E1E1E1E1E1E1E1E1E1E1E1E1E1E1E1E1E1E1E1E1E1E1E1E1E1E1E1E1E1E1E1E1E1E1E1E1E1E1E1E1E1E1E1E1E1E1E1E1E1E1E1E1E1E10FE1E1E1E1E1E1E1E10F0F0F0F0F0F0F0F0F0F0F0F0F0F0F0F0F0F0F0F0F0F0F0FE1E1E1E1E1E128E1BEE1E1E1E1E1E1E1E1E1E1
310
E1E1E1E1E1E1E1E1E1E1E1E1E1E1E1E1E1E1E1E1E1E1E1E1E1E1E1E1E1E1E1E1E1E1E1E1E1E1E1E1E1E1E1E1E1E1E1E1E1E1E1E1E1E1E1E1E1E1E1E1E1E1E1E1E1E1E1E1E1E1E1E1E1E1E1E1E1E1E1E1BEE1E1E1E1E1E1BEBEE1E1E1E1E1E1E1E1E1E1E1E1E1E1E1E1E1E1E1E1E1E1E1E1E1E1E1BEBEBEE2BEBEBEBEBEBEBE
310
BEBEBEBEBEBEBEBEBEE2BEBEE2E1E1E1E1BEE1E1E1E1E1E1E1E1E1E1E1E1E1E1E1E1E1E1E1E1E1E1E1E1E1E1E1E1E1E1E1E1E1E1E1E1E1E1E1E1E1E1E1E1E1E1E1E1E1E1E1E1E1E1E1E1E1E1E10FBEBEBEBEBEBEBEE10F0F0F0F0F0F0F0F0F0F0F0F0F0F0F0F0F0F0F0F0FE1E1E1E1E1E1E1E1E128E1BEE1E1E1E1E1E1E1E1
310
E1E1E1E1E1E1E1E1E1E1E1E1E1E1E1E1E1E1E1E1E1E1E1E1E1E1E1E1E1E1E1E1E1E1E1E1E1E1E1E1E1E1E1E1E1E1E1E1E1E1E1E1E1E1E1E1E1E1E1E1E1E1E1E1E1E1E1E1E1E1E1E1E1E1E1E1E1E1E1E1E1E1BEE1E1E1E1E1E1BEBEE1E1E1E1E1E1E1E1E1E1E1E1E1E1E1E1E1E1E1E1E1E1E1E1E1E1E1E2BEBEE2E1E1E1E2E2
310
E2E2E2BEBEBEBEBEBEBEBEBEBEBEBEBEBEBEBEBEBEE1E1E1E1E1E1E1E1E1E1E1E1E1E1E1E1E1E1E1E1E1E1E1E1E1E1E1E1E1E1E1E1E1E1E1E1E1E1E1E1E1E1E1E1E1E1E1E1E1E1E1E1E1E1E1E1E1E10F0FBEBE0FBEBE0F0F0F0F0F0F0F0F0F0F0F0F0F0F0F0F0F0F0F0F0F0F0F0F0F0F0F0F0F0F0F0F0FE1BEE1E1E1E1E1E1
310
E1E1E1E1E1E1E1E1E1E1E1E1E1E1E1E1E1E1E1E1E1E1E1E1E1E1E1E1E1E1E1E1E1E1E1E1E1E1E1E1E1E1E1E1E1E1E1E1E1E1E1E1E1E1E1E1E1E1E1E1E1E1E1E1E1E1E1E1E1E1E1E1E1E1E1E1E1E1E1E1E1E1E1E1BEE1E1E1E1E1E1BEBEE1E1E1E1E1E1E1E1E1E1E1E1E1E1E1E1E1E1E1E1E1E1E1E1E1E1E1E1E1E1E1E1E1E1
310
E1E1E1E1BEE1E1E1E1E1E1E1E1E1E1E1E1E1E1E1E1BEE1E1E1E1E1E1E1E1E1E1E1E1E1E1E1E1E1E1E1E1E1E1E1E1E1E1E1E1E1E1E1E1E1E1E1E1E1E1E1E1E1E1E1E1E1E1E1E1E1E1E1E1E1E1E1E1E1E1E10FE1E1E1E1E1E1E1E1E1E1E1E1E1E1E1E1E1E1E1E1E1E1E1E1E1E1E1E1E1E1E1E1E1E1E1E1E1E128E1BEE1E1E1E1
310
E1E1E1E1E1E1E1E1E1E1E1E1E1E1E1E1E1E1E1E1E1E1E1E1E1E1E1E1E1E1E1E1E1E1E1E1E1E1E1E1E1E1E1E1E1E1E1E1E1E1E1E1E1E1E1E1E1E1E1E1E1E1E1E1E1E1E1E1E1E1E1E1E1E1E1E1E1E1E1E1E1E1E1E1E1E1BEE1E1E1E1E1E1BEBEE1E1E1E1E1E1E1E1E1E1E1E1E1E1E1E1E1E1E1E1E1E1E1E1E1E1E1E1E1E1E1E1
310
E1E1E1E1E1E1E1E1E1E1E1E1E1E1E1E1E1E1E1E1E1E1E1BEE1E1E1E1E1E1E1E1E1E1E1E1E1E1E1E1E1E1E1E1E1E1E1E1E1E1E1E1E1E1E1E1E1E1E1E1E1E1E1E1E1E1E1E1E1E1E1E1E1E1E1E1E1E1E1E1E1E1E10FE10FE1E1E1E1E1E1E1E1E1E1E1E1E1E1E1E1E1E1E1E1E1E1E1E1E1E1E1E1E1E1E1E1E1E1E1E128E1BEE1E1
310
E1E1E1E1E1E1E1E1E1E1E1E1E1E1E1E1E1E1E1E1E1E1E1E1E1E1E1E1E1E1E1E1E1E1E1E1E1E1E1E1E1E1E1E1E1E1E1E1E1E1E1E1E1E1E1E1E1E1E1E1E1E1E1E1E1E1E1E1E1E1E1E1E1E1E1E1E1E1E1E1E1E1E1E1E1E1E1E1BEE1E1E1E1E1E1BEBEE1E1E1E1E1E1E1E1E1E1E1E1E1E1E1E1E1E1E1E1E1E1E1E1E1E1E1E1E1E1
310
E1E1E1E1E1E1E1E1E1E1E1E1E1E1E1E1E1E1E1E1E1E1E1E1E1BEE1E1E1E1E1E1E1E1E1E1E1E1E1E1E1E1E1E1E1E1E1E1E1E1E1E1E1E1E1E1E1E1E1E1E1E1E1E1E1E1E1E1E1E1E1E1E1E1E1E1E1E1E1E1E1E1E1E1E10FBEBEBEBEBEBEBEE10F0FE1E1E1E1E1E1E1E1E1E1E1E1E1E1E1E1E1E1E1E1E1E1E1E1E1E1E1E128E1BE
310
E1E1E1E1E1E1E1E1E1E1E1E1E1E1E1E1E1E1E1E1E1E1E1E1E1E1E1E1E1E1E1E1E1E1E1E1E1E1E1E1E1E1E1E1E1E1E1E1E1E1E1E1E1E1E1E1E1E1E1E1E1E1E1E1E1E1E1E1E1E1E1E1E1E1E1E1E1E1E1E1E1E1E1E1E1E1E1E1E1E1BEE1E1E1E1E1E1BEBEE1E1E1E1E1E1E1E1E1E1E1E1E1E1E1E1E1E1E1E1E1E1E1E1E1E1E1E1
310
E1E1E1E1E1E1E1E1E1E1E1E1E1E1E1E1E1E1E1E1E1E1E1E1E1E1E1E1E1E1E1E1E1E1E1E1E1E1E1E1E1E1E1E1E1E1E1E1E1E1E1E1E1E1E1E1E1E1E1E1E1E1E1E1E1E1E1E1E1E1E1E1E1E1E1E1E1E1E1E1E1E1E1E1E1E1E10FE1BEBEBEBEBEBEE1E1E1E1E1E1E1E1E1E1E1E1E1E1E1E1E1E1E1E1E1E1E1E1E1E1E1E1E1E1E128
310
E1BEE1E1E1E1E1E1E1E1E1E1E1E1E1E1E1E1E1E1E1E1E1E1E1E1E1E1E1E1E1E1E1E1E1E1E1E1E1E1E1E1E1E1E1E1E1E1E1E1E1E1E1E1E1E1E1E1E1E1E1E1E1E1E1E1E1E1E1E1E1E1E1E1E1E1E1E1E1E1E1E1E1E1E1E1E1E1E1E1E1E1BEE1E1E1E1E1E1BEBEE1E1E1E1E1E1E1E1E1E1E1E1E1E1E1E1E1E1E1E1E1E1E1E1E1E1
310
E1E1E1E1E1E1E1E1E1E1E1E1E1E1E1E1E1E1E1E1E1E1E1E1E1E1E1E1E1E1E1E1E1E1E1E1E1E1E1E1E1E1E1E1E1E1E1E1E1E1E1E1E1E1E1E1E1E1E1E1E1E1E1E1E1E1E1E1E1E1E1E1E1E1E1E1E1E1E1E1E1E1E1E1E1E1E1E1E10FE10FE1E1E1E1E1E1E1E1E1E1E1E1E1E1E1E1E1E1E1E1E1E1E1E1E1E1E1E1E1E1E1E1E1E1E1
310
E128E1BEE1E1E1E1E1E1E1E1E1E1E1E1E1E1E1E1E1E1E1E1E1E1E1E1E1E1E1E1E1E1E1E1E1E1E1E1E1E1E1E1E1E1E1E1E1E1E1E1E1E1E1E1E1E1E1E1E1E1E1E1E1E1E1E1E1E1E1E1E1E1E1E1E1E1E1E1E1E1E1E1E1E1E1E1E1E1E1E1E1E1BEE1E1E1E1E1E1BEBEE1E1E1E1E1E1E1E1E1E1E1E1E1E1E1E1E1E1E1E1E1E1E1E1
310
E1E1E1E1E1E1E1E1E1E1E1E1E1E1E1E1E1E1E1E1E1E1E1E1E1E1E1E1E1E1E1E1E1E1E1E1E1E1E1E1E1E1E1E1E1E1E1E1E1E1E1E1E1E1E1E1E1E1E1E1E1E1E1E1E1E1E1E1E1E1E1E1E1E1E1E1E1E1E1E1E1E1E1E1E1E1E1E1E1E1E10FE1BEBEBEBEBEBEBEE1E1E1E1E1E1E1E1E1E1E1E1E1E1E1E1E1E1E1E1E1E1E1E1E1E1E1
310
E1E1E128E1BEE1E1E1E1E1E1E1E1E1E1E1E1E1E1E1E1E1E1E1E1E1E1E1E1E1E1E1E1E1E1E1E1E1E1E1E1E1E1E1E1E1E1E1E1E1E1E1E1E1E1E1E1E1E1E1E1E1E1E1E1E1E1E1E1E1E1E1E1E1E1E1E1E1E1E1E1E1E1E1E1E1E1E1E1E1E1E1E1E1E1BEE1E1E1E1E1E1BEBEE1E1E1E1E1E1E1E1E1E1E1E1E1E1E1E1E1E1E1E1E1E1
310
E1E1E1E1E1E1E1E1E1E1E1E1E1E1E1E1E1E1E1E1E1E1E1E1E1E1E1E1E1E1E1E1E1E1E1E1E1E1E1E1E1E1E1E1E1E1E1E1E1E1E1E1E1E1E1E1E1E1E1E1E1E1E1E1E1E1E1E1E1E1E1E1E1E1E1E1E1E1E1E1E1E1E1E1E1E1E1E1E1E1E1E1E10FBEBEBEBEBEBEBEBE0F0FE1E1E1E1E1E1E1E1E1E1E1E1E1E1E1E1E1E1E1E1E1E1E1
310
E1E1E1E1E128E1BEE1E1E1E1E1E1E1E1E1E1E1E1E1E1E1E1E1E1E1E1E1E1E1E1E1E1E1E1E1E1E1E1E1E1E1E1E1E1E1E1E1E1E1E1E1E1E1E1E1E1E1E1E1E1E1E1E1E1E1E1E1E1E1E1E1E1E1E1E1E1E1E1E1E1E1E1E1E1E1E1E1E1E1E1E1E1E1E1E1E1BEE1E1E1E1E1E1BEBEE1E1E1E1E1E1E1E1E1E1E1E1E1E1E1E1E1E1E1E1
310
E1E1E1E1E1E1E1E1E1E1E1E1E1E1E1E1E1E1E1E1E1E1E1E1E1E1E1E1E1E1E1E1E1E1E1E1E1E1E1E1E1E1E1E1E1E1E1E1E1E1E1E1E1E1E1E1E1E1E1E1E1E1E1E1E1E1E1E1E1E1E1E1E1E1E1E1E1E1E1E1E1E1E1E1E1E1E1E1E1E1E1E1E1E1E10F0F0F0F0F0F0F0F0F0F0F0F0F0F0F0F0F0F0F0F0F0F0F0F0F0F0F0F0F0F0F0F
310
0F0F0F0F0F0F0F0FE1BEE1E1E1E1E1E1E1E1E1E1E1E1E1E1E1E1E1E1E1E1E1E1E1E1E1E1E1E1E1E1E1E1E1E1E1E1E1E1E1E1E1E1E1E1E1E1E1E1E1E1E1E1E1E1E1E1E1E1E1E1E1E1E1E1E1E1E1E1E1E1E1E1E1E1E1E1E1E1E1E1E1E1E1E1E1E1E1E1E1E1BEE1E1E1E1E1E1BEBEE1E1E1E1E1E1E1E1E1E1E1E1E1E1E1E1E1E1
310
E1E1E1E1E1E1E1E1E1E1E1E1E1E1E1E1E1E1E1E1E1E1E1E1E1E1E1E1E1E1E1E1E1E1E1E1E1E1E1E1E1E1E1E1E1E1E1E1E1E1E1E1E1E1E1E1E1E1E1E1E1E1E1E1E1E1E1E1E1E1E1E1E1E1E1E1E1E1E1E1E1E1E1E1E1E1E1E1E1E1E1E1E1E1E1E1E10FBEBEBEE1BEBEBEE1E1E1E1E1E1E1E1E1E1E1E1E1E1E1E1E1E1E1E1E1E1
310
E1E1E1E1E1E1E1E1E128E1BEE1E1E1E1E1E1E1E1E1E1E1E1E1E1E1E1E1E1E1E1E1E1E1E1E1E1E1E1E1E1E1E1E1E1E1E1E1E1E1E1E1E1E1E1E1E1E1E1E1E1E1E1E1E1E1E1E1E1E1E1E1E1E1E1E1E1E1E1E1E1E1E1E1E1E1E1E1E1E1E1E1E1E1E1E1E1E1E1E1E1BEE1E1E1E1E1E1BEBEE1E1E1E1E1E1E1E1E1E1E1E1E1E1E1E1
310
E1E1E1E1E1E1E1E1E1E1E1E1E1E1E1E1E1E1E1E1E1E1E1E1E1E1E1E1E1E1E1E1E1E1E1E1E1E1E1E1E1E1E1E1E1E1E1E1E1E1E1E1E1E1E1E1E1E1E1E1E1E1E1E1E1E1E1E1E1E1E1E1E1E1E1E1E1E1E1E1E1E1E1E1E1E1E1E1E1E1E1E1E1E1E1E1E1E1E10FE1BEBEBEBEBEBEE1E1E1E2E2E1E1E1E1E1E1E1E1E1E1E1E1E1E1E1
310
E1E1E1E1E1E1E1E1E1E1E128E1BEE1E1E1E1E1E1E1E1E1E1E1E1E1E1E1E1E1E1E1E1E1E1E1E1E1E1E1E1E1E1E1E1E1E1E1E1E1E1E1E1E1E1E1E1E1E1E1E1E1E1E1E1E1E1E1E1E1E1E1E1E1E1E1E1E1E1E1E1E1E1E1E1E1E1E1E1E1E1E1E1E1E1E1E1E1E1E1E1E1E1BEE1E1E1E1E1E1BEBEE1E1E1E1E1E1E1E1E1E1E1E1E1E1
310
E1E1E1E1E1E1E1E1E1E1E1E1E1E1E1E1E1E1E1E1E1E1E1E1E1E1E1E1E1E1E1E1E1E1E1E1E1E1E1E1E1E1E1E1E1E1E1E1E1E1E1E1E1E1E1E1E1E1E1E1E1E1E1E1E1E1E1E1E1E1E1E1E1E1E1E1E1E1E1E1E1E1E1E1E1E1E1E1E1E1E1E1E1E1E1E1E1E1E1E1E10FBEBEBEBEBEBEBEBEBEE1E1E1E1E1E1E1E1E1E1E1E1E1E1E1E1
310
E1E1E1E1E1E1E1E1E1E1E1E1E128E1BEE1E1E1E1E1E1E1E1E1E1E1E1E1E1E1E1E1E1E1E1E1E1E1E1E1E1E1E1E1E1E1E1E1E1E1E1E1E1E1E1E1E1E1E1E1E1E1E1E1E1E1E1E1E1E1E1E1E1E1E1E1E1E1E1E1E1E1E1E1E1E1E1E1E1E1E1E1E1E1E1E1E1E1E1E1E1E1E1E1E1BEE1E1E1E1E1E1BEBEE1E1E1E1E1E1E1E1E1E1E1E1
310
E1E1E1E1E1E1E1E1E1E1E1E1E1E1E1E1E1E1E1E1E1E1E1E1E1E1E1E1E1E1E1E1E1E1E1E1E1E1E1E1E1E1E1E1E1E1E1E1E1E1E1E1E1E1E1E1E1E1E1E1E1E1E1E1E1E1E1E1E1E1E1E1E1E1E1E1E1E1E1E1E1E1E1E1E1E1E1E1E1E1E1E1E1E1E1E1E1E1E1E1E1E1E10F0FBEBEBEBEBEBEBE0FBE0F0F0F0F0F0F0F0F0F0F0F0F0F
310
0F0F0F0F0F0F0F0F0F0F0F0F0F0F0F0FE1BEE1E1E1E1E1E1E1E1E1E1E1E1E1E1E1E1E1E1E1E1E1E1E1E1E1E1E1E1E1E1E1E1E1E1E1E1E1E1E1E1E1E1E1E1E1E1E1E1E1E1E1E1E1E1E1E1E1E1E1E1E1E1E1E1E1E1E1E1E1E1E1E1E1E1E1E1E1E1E1E1E1E1E1E1E1E1E1E1E1E1BEE1E1E1E1E1E1BEBEE1E1E1E1E1E1E1E1E1E1
310
E1E1E1E1E1E1E1E1E1E1E1E1E1E1E1E1E1E1E1E1E1E1E1E1E1E1E1E1E1E1E1E1E1E1E1E1E1E1E1E1E1E1E1E1E1E1E1E1E1E1E1E1E1E1E1E1E1E1E1E1E1E1E1E1E1E1E1E1E1E1E1E1E1E1E1E1E1E1E1E1E1E1E1E1E1E1E1E1E1E1E1E1E1E1E1E1E1E1E1E1E1E1E1E1E1E1E1E1E1E1E1E1E1E1E1E1E1E1E1E1E1E1E1E1E1E1E1
310
E1E1E1E1E1E1E1E1E1E1E1E1E1E1E1E1E128E1BEE1E1E1E1E1E1E1E1E1E1E1E1E1E1E1E1E1E1E1E1E1E1E1E1E1E1E1E1E1E1E1E1E1E1E1E1E1E1E1E1E1E1E1E1E1E1E1E1E1E1E1E1E1E1E1E1E1E1E1E1E1E1E1E1E1E1E1E1E1E1E1E1E1E1E1E1E1E1E1E1E1E1E1E1E1E1E1E1E1E1BEE1E1E1E1E1E1BEBEE1E1E1E1E1E1E1E1
310
E1E1E1E1E1E1E1E1E1E1E1E1E1E1E1E1E1E1E1E1E1E1E1E1E1E1E1E1E1E1E1E1E1E1E1E1E1E1E1E1E1E1E1E1E1E1E1E1E1E1E1E1E1E1E1E1E1E1E1E1E1E1E1E1E1E1E1E1E1E1E1E1E1E1E1E1E1E1E1E1E1E1E1E1E1E1E1E1E1E1E1E1E1E1E1E1E1E1E1E1E1E1E1E1E1E1E1E1E1E1E1E1E1E1E1E1E1E1E1E1E1E1E1E1E1E1E1
310
E1E1E1E1E1E1E1E1E1E1E1E1E1E1E1E1E1E1E128E1BEE1E1E1E1E1E1E1E1E1E1E1E1E1E1E1E1E1E1E1E1E1E1E1E1E1E1E1E1E1E1E1E1E1E1E1E1E1E1E1E1E1E1E1E1E1E1E1E1E1E1E1E1E1E1E1E1E1E1E1E1E1E1E1E1E1E1E1E1E1E1E1E1E1E1E1E1E1E1E1E1E1E1E1E1E1E1E1E1E1E1BEE1E1E1E1E1E1BEBEE1E1E1E1E1E1
310
E1E1E1E1E1E1E1E1E1E1E1E1E1E1E1E1E1E1E1E1E1E1E2E2E2E1E1E1E1E1E1E1BEE1E1E1E1E1E1E1E1E2E2E2E1E1E1E1E1E1E1E1E1E1E1E1E1E1E1E1E1E1E1E1E1E1E1E1E2E1E1E1E1E1E1E1E1E1E1E1E1E1E1E1E1E1E1E1E1E2E2E2E1E1E1E1E1E1E1E1BEE1E1E1E1E1E1E1E2E2E2BEBEBEBEBEBEE2E1E1E1E1E1E1E1E1E1
310
E1E1E1E1E1E1E1E1E1E1E1E1E1E1E1E1E1E1E1E1E128E1BEE1E1E1E1E1E1E1E1E1E1E1E1E1E1E1E1E1E1E1E1E1E1E1E1E1E1E1E1E1E1E1E1E1E1E1E1E1E1E1E1E1E1E1E1E1E1E1E1E1E1E1E1E1E1E1E1E1E1E1E1E1E1E1E1E1E1E1E1E1E1E1E1E1E1E1E1E1E1E1E1E1E1E1E1E1E1E1E1E1E1BEE1E1E1E1E1E1BEBEE1E1E1E1
310
E1E1E1E1E1E1E1E1E1E1E1E1E1E1E1E1E1E1E1E1E1E1E1E2E2E2E2E2E2E2E2E2E2E2E2E2E2E2E2E2E2E2E2E2E2E2E2E1E1E1E1E1E1E1E1E1E1E1E1E1E1E1E1E1E1E1BEBEBEBEBEE1E1E1E1E1E1E1E1E1E1E1E1E1E1E1E1E1E1E1E2E1E1E2E2E2E2E2E2E2E2E2E2E2E2E2E2E2E2E2E2E1E1E2E1E1E1E1E1BEE1E1E1E1E1E1E1
310
E1E1E1E1E1E1E1E1E1E1E1E1E1E1E1E1E1E1E1E1E1E1E128E1BEE1E1E1E1E1E1E1E1E1E1E1E1E1E1E1E1E1E1E1E1E1E1E1E1E1E1E1E1E1E1E1E1E1E1E1E1E1E1E1E1E1E1E1E1E1E1E1E1E1E1E1E1E1E1E1E1E1E1E1E1E1E1E1E1E1E1E1E1E1E1E1E1E1E1E1E1E1E1E1E1E1E1E1E1E1E1E1E1E1E1BEE1E1E1E1E1E1BEBEE1E1
310
E1E1E1E1E1E1E1E1E1E1E1E1E1E1E1E1E1E1E1E1E1E1E1E1E1E2E2E2E2E2E2E2E2E2E2E2E2E2E2E2E2E2E2E2E2E2E2E2E2E2E1E1E1E1E1E1E1E1E1E1E1E1E1E1E1E1E1E1BEBEBEBEE2E1E1E1E1E1E1E1E1E1E1E1E1E1E1E1E1E1E1E1E2E1E1E1E2E2E2E2E2E2E2E2E2E2E2E2E2E2E2E2E1E1E1E1E2E1E1E1BEBEE1E1E1E1E1
310
E1E1E1E1E1E1E1E1E1E1E1E1E1E1E1E1E1E1E1E1E1E1E1E1E128E1BEE1E1E1E1E1E1E1E1E1E1E1E1E1E1E1E1E1E1E1E1E1E1E1E1E1E1E1E1E1E1E1E1E1E1E1E1E1E1E1E1E1E1E1E1E1E1E1E1E1E1E1E1E1E1E1E1E1E1E1E1E1E1E1E1E1E1E1E1E1E1E1E1E1E1E1E1E1E1E1E1E1E1E1E1E1E1E1E1E1E1BEE1E1E1E1E1E1BEBE
310
E1E1E1E1E1E1E1E1E1E1E1E1E1E1E1E1E1E1E1E1E1E1E1E1E1E1E2E2E2E2E2E1E1E1E1E1E1E1BEE1E1E1E1E1E1E1E1E2E2E2E2E2E1E1E1E1E1E1E1E1E1E1E1E1E1E1E1E1E1E1E2BEBEE2E2E1E1E1E1E1E1E1E1E1E1E1E1E1E1E1E1E1E1E2E2E1E1BEE2E1E1E1E1E1E1E1BEE1E1E1E1E1E1E2E2BEE1E1E2E1E1E1E1BEE1E1E1
310
E1E1E1E1E1E1E1E1E1E1E1E1E1E1E1E1E1E1E1E1E1E1E1E1E1E1E128E1BEE1E1E1E1E1E1E1E1E1E1E1E1E1E1E1E1E1E1E1E1E1E1E1E1E1E1E1E1E1E1E1E1E1E1E1E1E1E1E1E1E1E1E1E1E1E1E1E1E1E1E1E1E1E1E1E1E1E1E1E1E1E1E1E1E1E1E1E1E1E1E1E1E1E1E1E1E1E1E1E1E1E1E1E1E1E1E1E1E1E1BEE1E1E1E1E1E1
310
BEBEE1E1E1E1E1E1E1E1E1E1E1E1E1E1E1E1E1E1E1E1E1E1E1E1E1E1E1E2E2E2E2E2E1E1E1E1E1E1BEE1E1E1E1E1E1E1E2E2E2E2E2E2E1E1E1E1E1E1E1E1E1E1E1E1E1E1E1E1E1E1E2BEBEE2E2E1E1E1E1E1E1E1E1E1E1E1E1E1E1E1E1E1E1E1E2E2E2E2E2E1E1E1E1E1E1E1BEE1E1E1E1E1E1E2E2E2E2E1E2E10F0F0FBEE1
310
E1E1E1E1E1E1E1E1E1E1E1E1E1E1E1E1E1E1E1E1E1E1E1E1E1E1E1E1E128E1BEE1E1E1E1E1E1E1E1E1E1E1E1E1E1E1E1E1E1E1E1E1E1E1E1E1E1E1E1E1E1E1E1E1E1E1E1E1E1E1E1E1E1E1E1E1E1E1E1E1E1E1E1E1E1E1E1E1E1E1E1E1E1E1E1E1E1E1E1E1E1E1E1E1E1E1E1E1E1E1E1E1E1E1E1E1E1E1E1E1E1BEE1E1E1E1
310
E1E1BEBEE1E1E1E1E1E1E1E1E1E1E1E1E1E1E1E1E1E1E1E1E1E1E1E1E1E1BEBEBEBEBEBEBEBEBEBEBEBEBEBEBEBEBEBEBEBEBEBEBEBEBEBEE1E1E1E1E1E1E1E1E1E1E1E1E1E1E1E1E1BEBEBEBEBEBEBEE1E1E1E1E1E1E1E1E1E1E1E1E1E1E1E1E1E2BEE2E2E2E2BEBEBEBEBEBEBEBEBEBEBEBEBEBEE2E2E2E2BEE2E10F0F0F
310
BEE1E1E1E1E1E1E1E1E1E1E1E1E1E1E1E1E1E1E1E1E1E1E1E1E1E1E1E1E1E128E1BEE1E1E1E1E1E1E1E1E1E1E1E1E1E1E1E1E1E1E1E1E1E1E1E1E1E1E1E1E1E1E1E1E1E1E1E1E1E1E1E1E1E1E1E1E1E1E1E1E1E1E1E1E1E1E1E1E1E1E1E1E1E1E1E1E1E1E1E1E1E1E1E1E1E1E1E1E1E1E1E1E1E1E1E1E1E1E1E1E1E1BEE1E1
310
E1E1E1E1BEBEE1E1E1E1E1E1E1E1E1E1E1E1E1E1E1E1E1E1E1E1E1E1E1E1E1E1E1E2E2E2E2E2E1E1E1E1E1E1BEE1E1E1E1E1E1E1E2E2E2E2E2E2E1E1E1E1E1E1E1E1E1E1E1E1E1E1E1E1E1E1E2BEBEE2E2E1E1E1E1E1E1E1E1E1E1E1E1E1E1E1E1E1E1BEE2E2E2E2E2E1E1E1E1E1E1E1BEE1E1E1E1E1E1E2E2E2E2E1BEE10F
310
0F0FBEE1E1E1E1E1E1E1E1E1E1E1E1E1E1E1E1E1E1E1E1E1E1E1E1E1E1E1E1E1E128E1BEE1E1E1E1E1E1E1E1E1E1E1E1E1E1E1E1E1E1E1E1E1E1E1E1E1E1E1E1E1E1E1E1E1E1E1E1E1E1E1E1E1E1E1E1E1E1E1E1E1E1E1E1E1E1E1E1E1E1E1E1E1E1E1E1E1E1E1E1E1E1E1E1E1E1E1E1E1E1E1E1E1E1E1E1E1E1E1E1E1E1BE
310
E1E1E1E1E1E1BEBEE1E1E1E1E1E1E1E1E1E1E1E1E1E1E1E1E1E1E1E1E1E1E1E1E1E1E2E2E2E2E2E2E1E1E1E1E1E1BEE1E1E1E1E1E1E1E1E2E2E2E2E2E1E1E1E1E1E1E1E1E1E1E1E1E1E1E1E1E1E1E2BEBEE2E2E1E1E1E1E1E1E1E1E1E1E1E1E1E1E1E1E1E1BEE2E1E2E2E2E1E1E1E1E1E1E1BEE1E1E1E1E1E1E2E2E2E1E1BE
310
E1E1E1E1BEE1E1E1E1E1E1E1E1E1E1E1E1E1E1E1E1E1E1E1E1E1E1E1E1E1E1E1E1E1E128E1BEE1E1E1E1E1E1E1E1E1E1E1E1E1E1E1E1E1E1E1E1E1E1E1E1E1E1E1E1E1E1E1E1E1E1E1E1E1E1E1E1E1E1E1E1E1E1E1E1E1E1E1E1E1E1E1E1E1E1E1E1E1E1E1E1E1E1E1E1E1E1E1E1E1E1E1E1E1E1E1E1E1E1E1E1E1E1E1E1E1
310
E1BEE1E1E1E1E1E1BEBEE1E1E1E1E1E1E1E1E1E1E1E1E1E1E1E1E1E1E1E1E1E1E1E1E1E1E2E2E2E2E2E2E2E2E2E2E2E2E2E2E2E2E2E2E2E2E2E2E2E2E2E2E1E1E1E1E1E1E1E1E1E1E1E1E1E1E1E1E1E1BEBEBEE2E2E1E1E1E1E1E1E1E1E1E1E1E1E1E1E1E1E1E1BEE1E1E1E1E2E2E2E2E2E2E2E2E2E2E2E2E2E2E2E2E2E1E1
310
E1BEE1E1E1E1BEE1E1E1E1E1E1E1E1E1E1E1E1E1E1E1E1E1E1E1E1E1E1E1E1E1E1E1E1E1E128E1BEE1E1E1E1E1E1E1E1E1E1E1E1E1E1E1E1E1E1E1E1E1E1E1E1E1E1E1E1E1E1E1E1E1E1E1E1E1E1E1E1E1E1E1E1E1E1E1E1E1E1E1E1E1E1E1E1E1E1E1E1E1E1E1E1E1E1E1E1E1E1E1E1E1E1E1E1E1E1E1E1E1E1E1E1E1E1E1
310
E1E1E1BEE1E1E1E1E1E1BEBEE1E1E1E1E1E1E1E1E1E1E1E1E1E1E1E1E1E1E1E1E1E1E1E1E1E1E1E2E2E2E2E2E2E2E2E2E2E2E2E2E2E2E2E2E2E2E2E2E2E2E2E1E1E1E1E1E1E1E1E1E1E1E1E1E1E1E1E1E1E1BEBEBEBEBEE1E1E1E1E1E1E1E1E1E1E1E1E1E1E1E1E1E1BEE2E1E1E2E2E1E1E1E1E1E1E1BEE1E1E1E1E1E1E2E2
310
E1E1E2BEE1E1E1BEBEE1E1E1E1E1E1E1E1E1E1E1E1E1E1E1E1E1E1E1E1E1E1E1E1E1E1E1E1E1E128E1BEE1E1E1E1E1E1E1E1E1E1E1E1E1E1E1E1E1E1E1E1E1E1E1E1E1E1E1E1E1E1E1E1E1E1E1E1E1E1E1E1E1E1E1E1E1E1E1E1E1E1E1E1E1E1E1E1E1E1E1E1E1E1E1E1E1E1E1E1E1E1E1E1E1E1E1E1E1E1E1E1E1E1E1E1E1
310
E1E1E1E1E1BEE1E1E1E1E1E1BEBEE1E1E1E1E1E1E1E1E1E1E1E1E1E1E1E1E1E1E1E1E1E1E1E1E1E1E1E2E2E2E2E2E2E2E2E2E2E2E2E2E2E2E2E2E2E2E2E2E2E2E2E1E1E1E1E1E1E1E1E1E1E1E1E1E1E1E1E1E1E1E1E1E1E2E2E1E1E1E1E1E1E1E1E1E1E1E1E1E1E1E1E1E1BEE2E2E2E2E2E2E2E2E2E2E2E2E2E2E2E2E2E2E2
310
E2E2E2E2BEBEBEBEBEBEBEE1E1E1E1E1E1E1E1E1E1E1E1E1E1E1E1E1E1E1E1E1E1E1E1E1E1E1E1E1E128E1BEE1E1E1E1E1E1E1E1E1E1E1E1E1E1E1E1E1E1E1E1E1E1E1E1E1E1E1E1E1E1E1E1E1E1E1E1E1E1E1E1E1E1E1E1E1E1E1E1E1E1E1E1E1E1E1E1E1E1E1E1E1E1E1E1E1E1E1E1E1E1E1E1E1E1E1E1E1E1E1E1E1E1E1
310
E1E1E1E1E1E1E1BEE1E1E1E1E1E1BE28E1E1E1E1E1E1E1E1E1E1E1E1E1E1E1E1E1E1E1E1E1E1E1E1E1E1E1E1E1E1E1E1E1E1E1E1E1E1E1E1E1E1E1E1E1E1E1E1E1E1E1E1E1E1E1E1E1E1E1E1E1E1E1E1E1E1E1E1E1E1E1E1E1E1E1E1E1E1E1E1E1E1E1E1E1E1E1E1E1E1E1E1E1BEE1E1E1E1E1E1E1E1E1E1E1E1E1E1E1E1E1
310
E1E1E1E1E1E1E1BEE1E1E1E1E1E1E1E1E1E1E1E1E1E1E1E1E1E1E1E1E1E1E1E1E1E1E1E1E1E1E1E1E1E1E128E1BEE1E1E1E1E1E1E1E1E1E1E1E1E1E1E1E1E1E1E1E1E1E1E1E1E1E1E1E1E1E1E1E1E1E1E1E1E1E1E1E1E1E1E1E1E1E1E1E1E1E1E1E1E1E1E1E1E1E1E1E1E1E1E1E1E1E1E1E1E1E1E1E1E1E1E1E1E1E1E1E1E1
310
E1E1E1E1E1E1E1E1E1BEE1E1E1E1E1E1E128E1E1E1E1E1E1E1E1E1E1E1E1E1E1E1E1E1E1E1E1E1E1E1E1E1E1E1E1E1E1E1E1E1E1E1E1E1E1E1E1E1E1E1E1E1E1E1E1E1E1E1E1E1E1E1E1E1E1E1E1E1E1E1E1E1E1E1E1E1E1E1E1E1E1E1E1E1E1E1E1E1E1E1E1E1E1E1E1E1E1E1E1E1BEE1E1E1E1E1E1E1E1E1E1E1E1E1E1E1
310
E1E1E1E1E1E1E1E1E1BEE1E1E1E1E1E1E1E1E1E1E1E1E1E1E1E1E1E1E1E1E1E1E1E1E1E1E1E1E1E1E1E1E1E1E128E1BEE1E1E1E1E1E1E1E1E1E1E1E1E1E1E1E1E1E1E1E1E1E1E1E1E1E1E1E1E1E1E1E1E1E1E1E1E1E1E1E1E1E1E1E1E1E1E1E1E1E1E1E1E1E1E1E1E1E1E1E1E1E1E1E1E1E1E1E1E1E1E1E1E1E1E1E1E1E1E1
310
E1E1E1E1E1E1E1E1E1E1E1BEE1E1E1E1E1E1E128E1E1E1E1E1E1E1E1E1E1E1E1E1E1E1E1E1E1E1E1E1E1E1E1E1E1E1E1E1E1E1E1E1E1E1E1E1E1E1E1E1E1E1E1E1E1E1E1E1E1E1E1E1E1E1E1E1E1E1E1E1E1E1E1E1E1E1E1E1E1E1E1E1E1E1E1E1E1E1E1E1E1E1E1E1E1E1E1E1E1E1E1E1BEE1E1E1E1E1E1E1E1E1E1E1E1E1
310
E1E1E1E1E1E1E1E1E1E1E1BEE1E1E1E1E1E1E1E1E1E1E1E1E1E1E1E1E1E1E1E1E1E1E1E1E1E1E1E1E1E1E1E1E1E1E128E1BEE1E1E1E1E1E1E1E1E1E1E1E1E1E1E1E1E1E1E1E1E1E1E1E1E1E1E1E1E1E1E1E1E1E1E1E1E1E1E1E1E1E1E1E1E1E1E1E1E1E1E1E1E1E1E1E1E1E1E1E1E1E1E1E1E1E1E1E1E1E1E1E1E1E1E1E1E1
310
E1E1E1E1E1E1E1E1E1E1E1E1E1BEE1E1E1E1E1E1E128E1E1E1E1E1E1E1E1E1E1E1E1E1E1E1E1E1E1E1E1E1E1E1E1E1E1E1E1E1E1E1E1E1E1E1E1E1E1E1E1E1E1E1E1E1E1E1E1E1E1E1E1E1E1E1E1E1E1E1E1E1E1E1E1E1E1E1E1E1E1E1E1E1E1E1E1E1E1E1E1E1E1E1E1E1E1E1E1E1E1E1E1E1BEBEBEBEBEBEBEBEBEBEBE0F
310
0F0F0FBEBEBEBEBEBEBEBEBEBEE2E1E1E1E1E1E1E1E1E1E1E1E1E1E1E1E1E1E1E1E1E1E1E1E1E1E1E1E1E1E1E1E1E1E1E128E1BEE1E1E1E1E1E1E1E1E1E1E1E1E1E1E1E1E1E1E1E1E1E1E1E1E1E1E1E1E1E1E1E1E1E1E1E1E1E1E1E1E1E1E1E1E1E1E1E1E1E1E1E1E1E1E1E1E1E1E1E1E1E1E1E1E1E1E1E1E1E1E1E1E1E1E1
310
E1E1E1E1E1E1E1E1E1E1E1E1E1E1E1BEE1E1E1E1E1E1E128E1E1E1E1E1E1E1E1E1E1E1E1E1E1E1E1E1E1E1E1E1E1E1E1E1E1E1E1E1E1E1E1E1E1E1E1E1E1E1E1E1E1E1E1E1E1E1E1E1E1E1E1E1E1E1E1E1E1E1E1E1E1E1E1E1E1E1E1E1E1E1E1E1E1E1E1E1E1E1E1E1E1E1E1E1E1E1E1E1E1E1E1E1E1E1E1E1E1E1E1E1E1E1
310
E10F0FE10FE1E1E1E1E1E1E1E1E1E1E1E1E1E1E1E1E1E1E1E1E1E1E1E1E1E1E1E1E1E1E1E1E1E1E1E1E1E1E1E1E1E1E1E1E1E128E1BEE1E1E1E1E1E1E1E1E1E1E1E1E1E1E1E1E1E1E1E1E1E1E1E1E1E1E1E1E1E1E1E1E1E1E1E1E1E1E1E1E1E1E1E1E1E1E1E1E1E1E1E1E1E1E1E1E1E1E1E1E1E1E1E1E1E1E1E1E1E1E1E1E1
310
E1E1E1E1E1E1E1E1E1E1E1E1E1E1E1E1E1BEE1E1E1E1E1E1E128E1E1E1E1E1E1E1E1E1E1E1E1E1E1E1E1E1E1E1E1E1E1E1E1E1E1E1E1E1E1E1E1E1E1E1E1E1E1E1E1E1E1E1E1E1E1E1E1E1E1E1E1E1E1E1E1E1E1E1E1E1E1E1E1E1E1E1E1E1E1E1E1E1E1E1E1E1E1E1E1E1E1E1E1E1E1E1E1E1E1E1E1E1E1E1E1E1E1E1E1E1
310
E1E1E1E10F0F0FE1E1E1E1E1E1E1E1E1E1E1E1E1E1E1E1E1E1E1E1E1E1E1E1E1E1E1E1E1E1E1E1E1E1E1E1E1E1E1E1E1E1E1E1E1E128E1BEE1E1E1E1E1E1E1E1E1E1E1E1E1E1E1E1E1E1E1E1E1E1E1E1E1E1E1E1E1E1E1E1E1E1E1E1E1E1E1E1E1E1E1E1E1E1E1E1E1E1E1E1E1E1E1E1E1E1E1E1E1E1E1E1E1E1E1E1E1E1E1
310
E1E1E1E1E1E1E1E1E1E1E1E1E1E1E1E1E1E1E1BEE1E1E1E1E1E1E128E1E1E1E1E1E1E1E1E1E1E1E1E1E1E1E1E1E1E1E1E1E1E1E1E1E1E1E1E1E1E1E1E1E1E1E1E1E1E1E1E1E1E1E1E1E1E1E1E1E1E1E1E1E1E1E1E1E1E1E1E1E1E1E1E1E1E1E1E1E1E1E1E1E1E1E1E1E1E1E1E1E1E1E1E1E1E1E1E1E1E1E1E1E1E1E1E1E1E1
310
E1E1E1E1E1E1E1E1E1E1E1E1E1E1E1E1E1E1E1E1E1E1E1E1E1E1E1E1E1E1E1E1E1E1E1E1E1E1E1E1E1E1E1E1E1E1E1E1E1E1E1E1E1E1E128E1BEE1E1E1E1E1E1E1E1E1E1E1E1E1E1E1E1E1E1E1E1E1E1E1E1E1E1E1E1E1E1E1E1E1E1E1E1E1E1E1E1E1E1E1E1E1E1E1E1E1E1E1E1E1E1E1E1E1E1E1E1E1E1E1E1E1E1E1E1E1
310
E1E1E1E1E1E1E1E1E1E1E1E1E1E1E1E1E1E1E1E1E1BEE1E1E1E1E1E1E128E1E1E1E1E1E1E1E1E1E1E1E1E1E1E1E1E1E1E1E1E1E1E1E1E1E1E1E1E1E1E1E1E1E1E1E1E1E1E1E1E1E1E1E1E1E1E1E1E1E1E1E1E1E1E1E1E1E1E1E1E1E1E1E1E1E1E1E1E1E1E1E1E1E1E1E1E1E1E1E1E1E1E1E1E1E1E1E1E1E1E1E1E1E1E1E1E1
310
E1E1E1E1E1E1E1E1E1E1E1E1E1E1E1E1E1E1E1E1E1E1E1E1E1E1E1E1E1E1E1E1E1E1E1E1E1E1E1E1E1E1E1E1E1E1E1E1E1E1E1E1E1E1E1E1E128E1BEE1E1E1E1E1E1E1E1E1E1E1E1E1E1E1E1E1E1E1E1E1E1E1E1E1E1E1E1E1E1E1E1E1E1E1E1E1E1E1E1E1E1E1E1E1E1E1E1E1E1E1E1E1E1E1E1E1E1E1E1E1E1E1E1E1E1E1
310
E1E1E1E1E1E1E1E1E1E1E1E1E1E1E1E1E1E1E1E1E1E1E1BEE1E1E1E1E1E1E128E1E1E1E1E1E1E1E1E1E1E1E1E1E1E1E1E1E1E1E1E1E1E1E1E1E1E1E1E1E1E1E1E1E1E1E1E1E1E1E1E1E1E1E1E1E1E1E1E1E1E1E1E1E1E1E1E1E1E1E1E1E1E1E1E1E1E1E1E1E1E1E1E1E1E1E1E1E1E1E1E1E1E1E1E1E1E1E1E1E1E1E1E1E1E1
310
E1E1E1E1E1E1E1E1E1E1E1E1E1E1E1E1E1E1E1E1E1E1E1E1E1E1E1E1E1E1E1E1E1E1E1E1E1E1E1E1E1E1E1E1E1E1E1E1E1E1E1E1E1E1E1E1E1E1E128E1BEE1E1E1E1E1E1E1E1E1E1E1E1E1E1E1E1E1E1E1E1E1E1E1E1E1E1E1E1E1E1E1E1E1E1E1E1E1E1E1E1E1E1E1E1E1E1E1E1E1E1E1E1E1E1E1E1E1E1E1E1E1E1E1E1E1
310
E1E1E1E1E1E1E1E1E1E1E1E1E1E1E1E1E1E1E1E1E1E1E1E1E1BEE1E1E1E1E1E1E128E1E1E1E1E1E1E1E1E1E1E1E1E1E1E1E1E1E1E1E1E1E1E1E1E1E1E1E1E1E1E1E1E1E1E1E1E1E1E1E1E1E1E1E1E1E1E1E1E1E1E1E1E1E1E1E1E1E1E1E1E1E1E1E1E1E1E1E1E1E1E1E1E1E1E1E1E1E1E1E1E1E1E1E1E1E1E1E1E1E1E1E1E1
310
E1E1E1E1E1E1E1E1E1E1E1E1E1E1E1E1E1E1E1E1E1E1E1E1E1E1E1E1E1E1E1E1E1E1E1E1E1E1E1E1E1E1E1E1E1E1E1E1E1E1E1E1E1E1E1E1E1E1E1E1E128E1BEE1E1E1E1E1E1E1E1E1E1E1E1E1E1E1E1E1E1E1E1E1E1E1E1E1E1E1E1E1E1E1E1E1E1E1E1E1E1E1E1E1E1E1E1E1E1E1E1E1E1E1E1E1E1E1E1E1E1E1E1E1E1E1
310
E1E1E1E1E1E1E1E1E1E1E1E1E1E1E1E1E1E1E1E1E1E1E1E1E1E1E1BEE1E1E1E1E1E1E128E1E1E1E1E1E1E1E1E1E1E1E1E1E1E1E1E1E1E1E1E1E1E1E1E1E1E1E1E1E1E1E1E1E1E1E1E1E1E1E1E1E1E1E1E1E1E1E1E1E1E1E1E1E1E1E1E1E1E1E1E1E1E1E1E1E1E1E1E1E1E1E1E1E1E1E1E1E1E1E1E1E1E1E1E1E1E1E1E1E1E1
310
E1E1E1E1E1E1E1E1E1E1E1E1E1E1E1E1E1E1E1E1E1E1E1E1E1E1E1E1E1E1E1E1E1E1E1E1E1E1E1E1E1E1E1E1E1E1E1E1E1E1E1E1E1E1E1E1E1E1E1E1E1E1E128E1BEE1E1E1E1E1E1E1E1E1E1E1E1E1E1E1E1E1E1E1E1E1E1E1E1E1E1E1E1E1E1E1E1E1E1E1E1E1E1E1E1E1E1E1E1E1E1E1E1E1E1E1E1E1E1E1E1E1E1E1E1E1
310
E1E1E1E1E1E1E1E1E1E1E1E1E1E1E1E1E1E1E1E1E1E1E1E1E1E1E1E1E1BEE1E1E1E1E1E1E128E1E1E1E1E1E1E1E1E1E1E1E1E1E1E1E1E1E1E1E1E1E1E1E1E1E1E1E1E1E1E1E1E1E1E1E1E1E1E1E1E1E1E1E1E1E1E1E1E1E1E1E1E1E1E1E1E1E1E1E1E1E1E1E1E1E1E1E1E1E1E1E1E1E1E1E1E1E1E1E1E1E1E1E1E1E1E1E1E1
310
E1E1E1E1E1E1E1E1E1E1E1E1E1E1E1E1E1E1E1E1E1E1E1E1E1E1E1E1E1E1E1E1E1E1E1E1E1E1E1E1E1E1E1E1E1E1E1E1E1E1E1E1E1E1E1E1E1E1E1E1E1E1E1E1E128E1BEE1E1E1E1E1E1E1E1E1E1E1E1E1E1E1E1E1E1E1E1E1E1E1E1E1E1E1E1E1E1E1E1E1E1E1E1E1E1E1E1E1E1E1E1E1E1E1E1E1E1E1E1E1E1E1E1E1E1E1
310
E1E1E1E1E1E1E1E1E1E1E1E1E1E1E1E1E1E1E1E1E1E1E1E1E1E1E1E1E1E1E1BEE1E1E1E1E1E1E128E1E1E1E1E1E1E1E1E1E1E1E1E1E1E1E1E1E1E1E1E1E1E1E1E1E1E1E1E1E1E1E1E1E1E1E1E1E1E1E1E1E1E1E1E1E1E1E1E1E1E1E1E1E1E1E1E1E1E1E1E1E1E1E1E1E1E1E1E1E1E1E1E1E1E1E1E1E1E1E1E1E1E1E1E1E1E1
310
E1E1E1E1E1E1E1E1E1E1E1E1E1E1E1E1E1E1E1E1E1E1E1E1E1E1E1E1E1E1E1E1E1E1E1E1E1E1E1E1E1E1E1E1E1E1E1E1E1E1E1E1E1E1E1E1E1E1E1E1E1E1E1E1E1E1E128E1BEE1E1E1E1E1E1E1E1E1E1E1E1E1E1E1E1E1E1E1E1E1E1E1E1E1E1E1E1E1E1E1E1E1E1E1E1E1E1E1E1E1E1E1E1E1E1E1E1E1E1E1E1E1E1E1E1E1
310
E1E1E1E1E1E1E1E1E1E1E1E1E1E1E1E1E1E1E1E1E1E1E1E1E1E1E1E1E1E1E1E1E1BEE1E1E1E1E1E1E128E1E1E1E1E1E1E1E1E1E1E1E1E1E1E1E1E1E1E1E1E1E1E1E1E1E1E1E1E1E1E1E1E1E1E1E1E1E1E1E1E1E1E1E1E1E1E1E1E1E1E1E1E1E1E1E1E1E1E1E1E1E1E1E1E1E1E1E1E1E1E1E1E1E1E1E1E1E1E1E1E1E1E1E1E1
310
E1E1E1E1E1E1E1E1E1E1E1E1E1E1E1E1E1E1E1E1E1E1E1E1E1E1E1E1E1E1E1E1E1E1E1E1E1E1E1E1E1E1E1E1E1E1E1E1E1E1E1E1E1E1E1E1E1E1E1E1E1E1E1E1E1E1E1E1E128E1BEE1E1E1E1E1E1E1E1E1E1E1E1E1E1E1E1E1E1E1E1E1E1E1E1E1E1E1E1E1E1E1E1E1E1E1E1E1E1E1E1E1E1E1E1E1E1E1E1E1E1E1E1E1E1E1
310
E1E1E1E1E1E1E1E1E1E1E1E1E1E1E1E1E1E1E1E1E1E1E1E1E1E1E1E1E1E1E1E1E1E1E1BEE1E1E1E1E1E1E128E1E1E1E1E1E1E1E1E1E1E1E1E1E1E1E1E1E1E1E1E1E1E1E1E1E1E1E1E1E1E1E1E1E1E1E1E1E1E1E1E1E1E1E1E1E1E1E1E1E1E1E1E1E1E1E1E1E1E1E1E1E1E1E1E1E1E1E1E1E1E1E1E1E1E1E1E1E1E1E1E1E1E1
310
E1E1E1E1E1E1E1E1E1E1E1E1E1E1E1E1E1E1E1E1E1E1E1E1E1E1E1E1E1E1E1E1E1E1E1E1E1E1E1E1E1E1E1E1E1E1E1E1E1E1E1E1E1E1E1E1E1E1E1E1E1E1E1E1E1E1E1E1E1E1E128E1BEE1E1E1E1E1E1E1E1E1E1E1E1E1E1E1E1E1E1E1E1E1E1E1E1E1E1E1E1E1E1E1E1E1E1E1E1E1E1E1E1E1E1E1E1E1E1E1E1E1E1E1E1E1
310
E1E1E1E1E1E1E1E1E1E1E1E1E1E1E1E1E1E1E1E1E1E1E1E1E1E1E1E1E1E1E1E1E1E1E1E1E1BEE1E1E1E1E1E1E128E1E1E1E1E1E1E1E1E1E1E1E1E1E1E1E1E1E1E1E1E1E1E1E1E1E1E1E1E1E1E1E1E1E1E1E1E1E1E1E1E1E1E1E1E1E1E1E1E1E1E1E1E1E1E1E1E1E1E1E1E1E1E1E1E1E1E1E1E1E1E1E1E1E1E1E1E1E1E1E1E1
310
E1E1E1E1E1E1E1E1E1E1E1E1E1E1E1E1E1E1E1E1E1E1E1E1E1E1E1E1E1E1E1E1E1E1E1E1E1E1E1E1E1E1E1E1E1E1E1E1E1E1E1E1E1E1E1E1E1E1E1E1E1E1E1E1E1E1E1E1E1E1E1E1E128E1BEE1E1E1E1E1E1E1E1E1E1E1E1E1E1E1E1E1E1E1E1E1E1E1E1E1E1E1E1E1E1E1E1E1E1E1E1E1E1E1E1E1E1E1E1E1E1E1E1E1E1E1
310
E1E1E1E1E1E1E1E1E1E1E1E1E1E1E1E1E1E1E1E1E1E1E1E1E1E1E1E1E1E1E1E1E1E1E1E1E1E1E1BEE1E1E1E1E1E1E128E1E1E1E1E1E1E1E1E1E1E1E1E1E1E1E1E1E1E1E1E1E1E1E1E1E1E1E1E1E1E1E1E1E1E1E1E1E1E1E1E1E1E1E1E1E1E1E1E1E1E1E1E1E1E1E1E1E1E1E1E1E1E1E1E1E1E1E1E1E1E1E1E1E1E1E1E1E1E1
310
E1E1E1E1E1E1E1E1E1E1E1E1E1E1E1E1E1E1E1E1E1E1E1E1E1E1E1E1E1E1E1E1E1E1E1E1E1E1E1E1E1E1E1E1E1E1E1E1E1E1E1E1E1E1E1E1E1E1E1E1E1E1E1E1E1E1E1E1E1E1E1E1E1E1E128E1BEE1E1E1E1E1E1E1E1E1E1E1E1E1E1E1E1E1E1E1E1E1E1E1E1E1E1E1E1E1E1E1E1E1E1E1E1E1E1E1E1E1E1E1E1E1E1E1E1E1
310
E1E1E1E1E1E1E1E1E1E1E1E1E1E1E1E1E1E1E1E1E1E1E1E1E1E1E1E1E1E1E1E1E1E1E1E1E1E1E1E1E1BEE1E1E1E1E1E1E128E1E1E1E1E1E1E1E1E1E1E1E1E1E1E1E1E1E1E1E1E1E1E1E1E1E1E1E1E1E1E1E1E1E1E1E1E1E1E1E1E1E1E1E1E1E1E1E1E1E1E1E1E1E1E1E1E1E1E1E1E1E1E1E1E1E1E1E1E1E1E1E1E1E1E1E1E1
310
E1E1E1E1E1E1E1E1E1E1E1E1E1E1E1E1E1E1E1E1E1E1E1E1E1E1E1E1E1E1E1E1E1E1E1E1E1E1E1E1E1E1E1E1E1E1E1E1E1E1E1E1E1E1E1E1E1E1E1E1E1E1E1E1E1E1E1E1E1E1E1E1E1E1E1E1E128E1BEE1E1E1E1E1E1E1E1E1E1E1E1E1E1E1E1E1E1E1E1E1E1E1E1E1E1E1E1E1E1E1E1E1E1E1E1E1E1E1E1E1E1E1E1E1E1E1
310
E1E1E1E1E1E1E1E1E1E1E1E1E1E1E1E1E1E1E1E1E1E1E1E1E1E1E1E1E1E1E1E1E1E1E1E1E1E1E1E1E1E1E1BEE1E1E1E1E1E1E128E1E1E1E1E1E1E1E1E1E1E1E1E1E1E1E1E1E1E1E1E1E1E1E1E1E1E1E1E1E1E1E1E1E1E1E1E1E1E1E1E1E1E1E1E1E1E1E1E1E1E1E1E1E1E1E1E1E1E1E1E1E1E1E1E1E1E1E1E1E1E1E1E1E1E1
310
E1E1E1E1E1E1E1E1E1E1E1E1E1E1E1E1E1E1E1E1E1E1E1E1E1E1E1E1E1E1E1E1E1E1E1E1E1E1E1E1E1E1E1E1E1E1E1E1E1E1E1E1E1E1E1E1E1E1E1E1E1E1E1E1E1E1E1E1E1E1E1E1E1E1E1E1E1E1E128E1BEE1E1E1E1E1E1E1E1E1E1E1E1E1E1E1E1E1E1E1E1E1E1E1E1E1E1E1E1E1E1E1E1E1E1E1E1E1E1E1E1E1E1E1E1E1
310
E1E1E1E1E1E1E1E1E1E1E1E1E1E1E1E1E1E1E1E1E1E1E1E1E1E1E1E1E1E1E1E1E1E1E1E1E1E1E1E1E1E1E1E1E1BEE1E1E1E1E1E1E128E1E1E1E1E1E1E1E1E1E1E1E1E1E1E1E1E1E1E1E1E1E1E1E1E1E1E1E1E1E1E1E1E1E1E1E1E1E1E1E1E1E1E1E1E1E1E1E1E1E1E1E1E1E1E1E1E1E1E1E1E1E1E1E1E1E1E1E1E1E1E1E1E1
310
E1E1E1E1E1E1E1E1E1E1E1E1E1E1E1E1E1E1E1E1E1E1E1E1E1E1E1E1E1E1E1E1E1E1E1E1E1E1E1E1E1E1E1E1E1E1E1E1E1E1E1E1E1E1E1E1E1E1E1E1E1E1E1E1E1E1E1E1E1E1E1E1E1E1E1E1E1E1E1E1E128E1BEE1E1E1E1E1E1E1E1E1E1E1E1E1E1E1E1E1E1E1E1E1E1E1E1E1E1E1E1E1E1E1E1E1E1E1E1E1E1E1E1E1E1E1
310
E1E1E1E1E1E1E1E1E1E1E1E1E1E1E1E1E1E1E1E1E1E1E1E1E1E1E1E1E1E1E1E1E1E1E1E1E1E1E1E1E1E1E1E1E1E1E1BEE1E1E1E1E1E1E128E1E1E1E1E1E1E1E1E1E1E1E1E1E1E1E1E1E1E1E1E1E1E1E1E1E1E1E1E1E1E1E1E1E1E1E1E1E1E1E1E1E1E1E1E1E1E1E1E1E1E1E1E1E1E1E1E1E1E1E1E1E1E1E1E1E1E1E1E1E1E1
310
E1E1E1E1E1E1E1E1E1E1E1E1E1E1E1E1E1E1E1E1E1E1E1E1E1E1E1E1E1E1E1E1E1E1E1E1E1E1E1E1E1E1E1E1E1E1E1E1E1E1E1E1E1E1E1E1E1E1E1E1E1E1E1E1E1E1E1E1E1E1E1E1E1E1E1E1E1E1E1E1E1E1E128E1BEE1E1E1E1E1E1E1E1E1E1E1E1E1E1E1E1E1E1E1E1E1E1E1E1E1E1E1E1E1E1E1E1E1E1E1E1E1E1E1E1E1
310
E1E1E1E1E1E1E1E1E1E1E1E1E1E1E1E1E1E1E1E1E1E1E1E1E1E1E1E1E1E1E1E1E1E1E1E1E1E1E1E1E1E1E1E1E1E1E1E1E1BEE1E1E1E1E1E1E128E1E1E1E1E1E1E1E1E1E1E1E1E1E1E1E1E1E1E1E1E1E1E1E1E1E1E1E1E1E1E1E1E1E1E1E1E1E1E1E1E1E1E1E1E1E1E1E1E1E1E1E1E1E1E1E1E1E1E1E1E1E1E1E1E1E1E1E1E1
310
E1E1E1E1E1E1E1E1E1E1E1E1E1E1E1E1E1E1E1E1E1E1E1E1E1E1E1E1E1E1E1E1E1E1E1E1E1E1E1E1E1E1E1E1E1E1E1E1E1E1E1E1E1E1E1E1E1E1E1E1E1E1E1E1E1E1E1E1E1E1E1E1E1E1E1E1E1E1E1E1E1E1E1E1E128E1BEE1E1E1E1E1E1E1E1E1E1E1E1E1E1E1E1E1E1E1E1E1E1E1E1E1E1E1E1E1E1E1E1E1E1E1E1E1E1E1
310
E1E1E1E1E1E1E1E1E1E1E1E1E1E1E1E1E1E1E1E1E1E1E1E1E1E1E1E1E1E1E1E1E1E1E1E1E1E1E1E1E1E1E1E1E1E1E1E1E1E1E1BEE1E1E1E1E1E1E128E1E1E1E1E1E1E1E1E1E1E1E1E1E1E1E1E1E1E1E1E1E1E1E1E1E1E1E1E1E1E1E1E1E1E1E1E1E1E1E1E1E1E1E1E1E1E1E1E1E1E1E1E1E1E1E1E1E1E1E1E1E1E1E1E1E1E1
310
E1E1E1E1E1E1E1E1E1E1E1E1E1E1E1E1E1E1E1E1E1E1E1E1E1E1E1E1E1E1E1E1E1E1E1E1E1E1E1E1E1E1E1E1E1E1E1E1E1E1E1E1E1E1E1E1E1E1E1E1E1E1E1E1E1E1E1E1E1E1E1E1E1E1E1E1E1E1E1E1E1E1E1E1E1E1E128E1BEE1E1E1E1E1E1E1E1E1E1E1E1E1E1E1E1E1E1E1E1E1E1E1E1E1E1E1E1E1E1E1E1E1E1E1E1E1
310
E1E1E1E1E1E1E1E1E1E1E1E1E1E1E1E1E1E1E1E1E1E1E1E1E1E1E1E1E1E1E1E1E1E1E1E1E1E1E1E1E1E1E1E1E1E1E1E1E1E1E1E1E1BEE1E1E1E1E1E1E128E1E1E1E1E1E1E1E1E1E1E1E1E1E1E1E1E1E1E1E1E1E1E1E1E1E1E1E1E1E1E1E1E1E1E1E1E1E1E1E1E1E1E1E1E1E1E1E1E1E1E1E1E1E1E1E1E1E1E1E1E1E1E1E1E1
310
E1E1E1E1E1E1E1E1E1E1E1E1E1E1E1E1E1E1E1E1E1E1E1E1E1E1E1E1E1E1E1E1E1E1E1E1E1E1E1E1E1E1E1E1E1E1E1E1E1E1E1E1E1E1E1E1E1E1E1E1E1E1E1E1E1E1E1E1E1E1E1E1E1E1E1E1E1E1E1E1E1E1E1E1E1E1E1E1E128E1BEE1E1E1E1E1E1E1E1E1E1E1E1E1E1E1E1E1E1E1E1E1E1E1E1E1E1E1E1E1E1E1E1E1E1E1
310
E1E1E1E1E1E1E1E1E1E1E1E1E1E1E1E1E1E1E1E1E1E1E1E1E1E1E1E1E1E1E1E1E1E1E1E1E1E1E1E1E1E1E1E1E1E1E1E1E1E1E1E1E1E1E1BEE1E1E1E1E1E1E128E1E1E1E1E1E1E1E1E1E1E1E1E1E1E1E1E1E1E1E1E1E1E1E1E1E1E1E1E1E1E1E1E1E1E1E1E1E1E1E1E1E1E1E1E1E1E1E1E1E1E1E1E1E1E1E1E1E1E1E1E1E1E1
310
E1E1E1E1E1E1E1E1E1E1E1E1E1E1E1E1E1E1E1E1E1E1E1E1E1E1E1E1E1E1E1E1E1E1E1E1E1E1E1E1E1E1E1E1E1E1E1E1E1E1E1E1E1E1E1E1E1E1E1E1E1E1E1E1E1E1E1E1E1E1E1E1E1E1E1E1E1E1E1E1E1E1E1E1E1E1E1E1E1E1E128E1BEE1E1E1E1E1E1E1E1E1E1E1E1E1E1E1E1E1E1E1E1E1E1E1E1E1E1E1E1E1E1E1E1E1
310
E1E1E1E1E1E1E1E1E1E1E1E1E1E1E1E1E1E1E1E1E1E1E1E1E1E1E1E1E1E1E1E1E1E1E1E1E1E1E1E1E1E1E1E1E1E1E1E1E1E1E1E1E1E1E1E1E1BEE1E1E1E1E1E1E128E1E1E1E1E1E1E1E1E1E1E1E1E1E1E1E1E1E1E1E1E1E1E1E1E1E1E1E1E1E1E1E1E1E1E1E1E1E1E1E1E1E1E1E1E1E1E1E1E1E1E1E1E1E1E1E1E1E1E1E1E1
310
E1E1E1E1E1E1E1E1E1E1E1E1E1E1E1E1E1E1E1E1E1E1E1E1E1E1E1E1E1E1E1E1E1E1E1E1E1E1E1E1E1E1E1E1E1E1E1E1E1E1E1E1E1E1E1E1E1E1E1E1E1E1E1E1E1E1E1E1E1E1E1E1E1E1E1E1E1E1E1E1E1E1E1E1E1E1E1E1E1E1E1E1E128E1BEE1E1E1E1E1E1E1E1E1E1E1E1E1E1E1E1E1E1E1E1E1E1E1E1E1E1E1E1E1E1E1
310
E1E1E1E1E1E1E1E1E1E1E1E1E1E1E1E1E1E1E1E1E1E1E1E1E1E1E1E1E1E1E1E1E1E1E1E1E1E1E1E1E1E1E1E1E1E1E1E1E1E1E1E1E1E1E1E1E1E1E1BEE1E1E1E1E1E1E128E1E1E1E1E1E1E1E1E1E1E1E1E1E1E1E1E1E1E1E1E1E1E1E1E1E1E1E1E1E1E1E1E1E1E1E1E1E1E1E1E1E1E1E1E1E1E1E1E1E1E1E1E1E1E1E1E1E1E1
310
E1E1E1E1E1E1E1E1E1E1E1E1E1E1E1E1E1E1E1E1E1E1E1E1E1E1E1E1E1E1E1E1E1E1E1E1E1E1E1E1E1E1E1E1E1E1E1E1E1E1E1E1E1E1E1E1E1E1E1E1E1E1E1E1E1E1E1E1E1E1E1E1E1E1E1E1E1E1E1E1E1E1E1E1E1E1E1E1E1E1E1E1E1E1E128E1BEE1E1E1E1E1E1E1E1E1E1E1E1E1E1E1E1E1E1E1E1E1E1E1E1E1E1E1E1E1
310
E1E1E1E1E1E1E1E1E1E1E1E1E1E1E1E1E1E1E1E1E1E1E1E1E1E1E1E1E1E1E1E1E1E1E1E1E1E1E1E1E1E1E1E1E1E1E1E1E1E1E1E1E1E1E1E1E1E1E1E1E1BEE1E1E1E1E1E1E128E1E1E1E1E1E1E1E1E1E1E1E1E1E1E1E1E1E1E1E1E1E1E1E1E1E1E1E1E1E1E1E1E1E1E1E1E1E1E1E1E1E1E1E1E1E1E1E1E1E1E1E1E1E1E1E1E1
310
E1E1E1E1E1E1E1E1E1E1E1E1E1E1E1E1E1E1E1E1E1E1E1E1E1E1E1E1E1E1E1E1E1E1E1E1E1E1E1E1E1E1E1E1E1E1E1E1E1E1E1E1E1E1E1E1E1E1E1E1E1E1E1E1E1E1E1E1E1E1E1E1E1E1E1E1E1E1E1E1E1E1E1E1E1E1E1E1E1E1E1E1E1E1E1E1E128E1BEE1E1E1E1E1E1E1E1E1E1E1E1E1E1E1E1E1E1E1E1E1E1E1E1E1E1E1
310
E1E1E1E1E1E1E1E1E1E1E1E1E1E1E1E1E1E1E1E1E1E1E1E1E1E1E1E1E1E1E1E1E1E1E1E1E1E1E1E1E1E1E1E1E1E1E1E1E1E1E1E1E1E1E1E1E1E1E1E1E1E1E1BEE1E1E1E1E1E1E128E1E1E1E1E1E1E1E1E1E1E1E1E1E1E1E1E1E1E1E1E1E1E1E1E1E1E1E1E1E1E1E1E1E1E1E1E1E1E1E1E1E1E1E1E1E1E1E1E1E1E1E1E1E1E1
310
E1E1E1E1E1E1E1E1E1E1E1E1E1E1E1E1E1E1E1E1E1E1E1E1E1E1E1E1E1E1E1E1E1E1E1E1E1E1E1E1E1E1E1E1E1E1E1E1E1E1E1E1E1E1E1E1E1E1E1E1E1E1E1E1E1E1E1E1E1E1E1E1E1E1E1E1E1E1E1E1E1E1E1E1E1E1E1E1E1E1E1E1E1E1E1E1E1E1E128E1BEE1E1E1E1E1E1E1E1E1E1E1E1E1E1E1E1E1E1E1E1E1E1E1E1E1
310
E1E1E1E1E1E1E1E1E1E1E1E1E1E1E1E1E1E1E1E1E1E1E1E1E1E1E1E1E1E1E1E1E1E1E1E1E1E1E1E1E1E1E1E1E1E1E1E1E1E1E1E1E1E1E1E1E1E1E1E1E1E1E1E1E1BEE1E1E1E1E1E1E128E1E1E1E1E1E1E1E1E1E1E1E1E1E1E1E1E1E1E1E1E1E1E1E1E1E1E1E1E1E1E1E1E1E1E1E1E1E1E1E1E1E1E1E1E1E1E1E1E1E1E1E1E1
310
E1E1E1E1E1E1E1E1E1E1E1E1E1E1E1E1E1E1E1E1E1E1E1E1E1E1E1E1E1E1E1E1E1E1E1E1E1E1E1E1E1E1E1E1E1E1E1E1E1E1E1E1E1E1E1E1E1E1E1E1E1E1E1E1E1E1E1E1E1E1E1E1E1E1E1E1E1E1E1E1E1E1E1E1E1E1E1E1E1E1E1E1E1E1E1E1E1E1E1E1E128E1BEE1E1E1E1E1E1E1E1E1E1E1E1E1E1E1E1E1E1E1E1E1E1E1
310
E1E1E1E1E1E1E1E1E1E1E1E1E1E1E1E1E1E1E1E1E1E1E1E1E1E1E1E1E1E1E1E1E1E1E1E1E1E1E1E1E1E1E1E1E1E1E1E1E1E1E1E1E1E1E1E1E1E1E1E1E1E1E1E1E1E1E1BEE1E1E1E1E1E1E128282828282828282828282828282828282828282828282828282828282828282828282828282828282828282828282828282828
310
2828282828282828282828282828282828282828282828282828282828282828282828282828282828282828282828282828282828282828282828282828282828282828282828282828282828282828282828282828282828282828282828282828282828282828E1BEE1E1E1E1E1E1E1E1E1E1E1E1E1E1E1E1E1E1E1E1E1
310
E1E1E1E1E1E1E1E1E1E1E1E1E1E1E1E1E1E1E1E1E1E1E1E1E1E1E1E1E1E1E1E1E1E1E1E1E1E1E1E1E1E1E1E1E1E1E1E1E1E1E1E1E1E1E1E1E1E1E1E1E1E1E1E1E1E1E1E1E1BEE1E1E1E1E1E1E1E1E1E1E1E1E1E1E1E1E1E1E1E1E1E1E1E1E1E1E1E1E1E1E1E1E1E1E1E1E1E1E1E1E1E1E1E1E1E1E1E1BEE1E1E1E1E1E1E1E1
310
E1E1E1E1E1E1E1E1E1E1E1E1E1E1E1E1E1E1E1E1E1E1E1E1E1E1E1E1E1E1E1E1BEE1E1E1E1E1E1E1E1E1E1E1E1E1E1E1E1E1E1E1E1E1E1E1E1E1E1E1E1E1E1E1E1E1E1E1E1E1E1E1E1E1E1E1E1E1E1E1E1E1E1E1E1E1E1E1E1E1E1E1E1E1E1E1E1E1E1E1E1E1E1E1E1E1E1BEE1E1E1E1E1E1E1E1E1E1E1E1E1E1E1E1E1E1E1
310
E1E1E1E1E1E1E1E1E1E1E1E1E1E1E1E1E1E1E1E1E1E1E1E1E1E1E1E1E1E1E1E1E1E1E1E1E1E1E1E1E1E1E1E1E1E1E1E1E1E1E1E1E1E1E1E1E1E1E1E1E1E1E1E1E1E1E1E1E1E1E1BEBEBEBEBEBEBEBEBEBEBEBEBEBEBEBEBEBEBEBEBEBEBEBEBEBEBEBEBEBEBEBEBEBEBEBEBEBEBEBEBEBEBEBEBEBEBEBEBEBEBEBEBEBEBEBE
310
BEBEBEBEBEBEBEBEBEBEBEBEBEBEBEBEBEBEBEBEBEBEBEBEBEBEBEBEBEBEBEBEBEBEBEBEBEBEBEBEBEBEBEBEBEBEBEBEBEBEBEBEBEBEBEBEBEBEBEBEBEBEBEBEBEBEBEBEBEBEBEBEBEBEBEBEBEBEBEBEBEBEBEBEBEBEBEBEBEBEBEBEBEBEBEBEBEBEBEBEBEBEBEBEBEBEBEBEBEBEE1E1E1E1E1E1E1E1E1E1E1E1E1E1E1E1E1
310
E1E1E1E1E1E1E1E1E1E1E1E1E1E1E1E1E1E1E1E1E1E1E1E1E1E1E1E1
  0
XRECORD
  5
108C3
102
{ACAD_REACTORS
330
108C2
102
}
330
108C2
100
AcDbXrecord
280
     1
102
MATERIAL
148
0.0
149
0.0
149
0.0
 93
        0
 94
      127
282
     0
 72
     1
 77
     1
171
     1
175
     1
179
     1
273
     0
  0
XRECORD
  5
108C1
102
{ACAD_REACTORS
330
108C0
102
}
330
108C0
100
AcDbXrecord
280
     1
102
MATERIAL
148
0.0
149
0.0
149
0.0
 93
        0
 94
      127
282
     0
 72
     1
 77
     1
171
     1
175
     1
179
     1
273
     0
  0
XRECORD
  5
108C5
102
{ACAD_REACTORS
330
108C4
102
}
330
108C4
100
AcDbXrecord
280
     1
102
MATERIAL
148
0.0
149
0.0
149
0.0
 93
        0
 94
      127
282
     0
 72
     1
 77
     1
171
     1
175
     1
179
     1
273
     0
  0
XRECORD
  5
10907
102
{ACAD_REACTORS
330
10906
102
}
330
10906
100
AcDbXrecord
280
     1
102
SHADEPLOT
 70
     1
102
SHADEPLOTRESLEVEL
 70
     2
102
SHADEPLOTCUSTOMDPI
 70
   300
  0
CELLSTYLEMAP
  5
108FB
102
{ACAD_REACTORS
330
10848
102
}
330
10848
100
AcDbCellStyleMap
 90
        3
300
CELLSTYLE
  1
TABLEFORMAT_BEGIN
 90
        5
170
     1
 91
        0
 92
    32768
 62
   257
 93
        1
300
CONTENTFORMAT
  1
CONTENTFORMAT_BEGIN
 90
        0
 91
        0
 92
        4
 93
        0
300

 40
0.0
140
1.0
 94
        5
 62
     0
340
11
144
6.0
309
CONTENTFORMAT_END
171
     1
301
MARGIN
  1
CELLMARGIN_BEGIN
 40
1.5
 40
1.5
 40
1.5
 40
1.5
 40
0.18
 40
0.18
309
CELLMARGIN_END
 94
        6
 95
        1
302
GRIDFORMAT
  1
GRIDFORMAT_BEGIN
 90
        0
 91
        1
 62
     0
 92
       -2
340
0
 93
        0
 40
0.045
309
GRIDFORMAT_END
 95
        2
302
GRIDFORMAT
  1
GRIDFORMAT_BEGIN
 90
        0
 91
        1
 62
     0
 92
       -2
340
0
 93
        0
 40
0.045
309
GRIDFORMAT_END
 95
        4
302
GRIDFORMAT
  1
GRIDFORMAT_BEGIN
 90
        0
 91
        1
 62
     0
 92
       -2
340
0
 93
        0
 40
0.045
309
GRIDFORMAT_END
 95
        8
302
GRIDFORMAT
  1
GRIDFORMAT_BEGIN
 90
        0
 91
        1
 62
     0
 92
       -2
340
0
 93
        0
 40
0.045
309
GRIDFORMAT_END
 95
       16
302
GRIDFORMAT
  1
GRIDFORMAT_BEGIN
 90
        0
 91
        1
 62
     0
 92
       -2
340
0
 93
        0
 40
0.045
309
GRIDFORMAT_END
 95
       32
302
GRIDFORMAT
  1
GRIDFORMAT_BEGIN
 90
        0
 91
        1
 62
     0
 92
       -2
340
0
 93
        0
 40
0.045
309
GRIDFORMAT_END
309
TABLEFORMAT_END
  1
CELLSTYLE_BEGIN
 90
        1
 91
        1
300
_TITLE
309
CELLSTYLE_END
300
CELLSTYLE
  1
TABLEFORMAT_BEGIN
 90
        5
170
     1
 91
        0
 92
        0
 62
   257
 93
        1
300
CONTENTFORMAT
  1
CONTENTFORMAT_BEGIN
 90
        0
 91
        0
 92
        4
 93
        0
300

 40
0.0
140
1.0
 94
        5
 62
     0
340
11
144
4.5
309
CONTENTFORMAT_END
171
     1
301
MARGIN
  1
CELLMARGIN_BEGIN
 40
1.5
 40
1.5
 40
1.5
 40
1.5
 40
0.18
 40
0.18
309
CELLMARGIN_END
 94
        6
 95
        1
302
GRIDFORMAT
  1
GRIDFORMAT_BEGIN
 90
        0
 91
        1
 62
     0
 92
       -2
340
0
 93
        0
 40
0.045
309
GRIDFORMAT_END
 95
        2
302
GRIDFORMAT
  1
GRIDFORMAT_BEGIN
 90
        0
 91
        1
 62
     0
 92
       -2
340
0
 93
        0
 40
0.045
309
GRIDFORMAT_END
 95
        4
302
GRIDFORMAT
  1
GRIDFORMAT_BEGIN
 90
        0
 91
        1
 62
     0
 92
       -2
340
0
 93
        0
 40
0.045
309
GRIDFORMAT_END
 95
        8
302
GRIDFORMAT
  1
GRIDFORMAT_BEGIN
 90
        0
 91
        1
 62
     0
 92
       -2
340
0
 93
        0
 40
0.045
309
GRIDFORMAT_END
 95
       16
302
GRIDFORMAT
  1
GRIDFORMAT_BEGIN
 90
        0
 91
        1
 62
     0
 92
       -2
340
0
 93
        0
 40
0.045
309
GRIDFORMAT_END
 95
       32
302
GRIDFORMAT
  1
GRIDFORMAT_BEGIN
 90
        0
 91
        1
 62
     0
 92
       -2
340
0
 93
        0
 40
0.045
309
GRIDFORMAT_END
309
TABLEFORMAT_END
  1
CELLSTYLE_BEGIN
 90
        2
 91
        1
300
_HEADER
309
CELLSTYLE_END
300
CELLSTYLE
  1
TABLEFORMAT_BEGIN
 90
        5
170
     1
 91
        0
 92
        0
 62
   257
 93
        1
300
CONTENTFORMAT
  1
CONTENTFORMAT_BEGIN
 90
        0
 91
        0
 92
        4
 93
        0
300

 40
0.0
140
1.0
 94
        2
 62
     0
340
11
144
4.5
309
CONTENTFORMAT_END
171
     1
301
MARGIN
  1
CELLMARGIN_BEGIN
 40
1.5
 40
1.5
 40
1.5
 40
1.5
 40
0.18
 40
0.18
309
CELLMARGIN_END
 94
        6
 95
        1
302
GRIDFORMAT
  1
GRIDFORMAT_BEGIN
 90
        0
 91
        1
 62
     0
 92
       -2
340
0
 93
        0
 40
0.045
309
GRIDFORMAT_END
 95
        2
302
GRIDFORMAT
  1
GRIDFORMAT_BEGIN
 90
        0
 91
        1
 62
     0
 92
       -2
340
0
 93
        0
 40
0.045
309
GRIDFORMAT_END
 95
        4
302
GRIDFORMAT
  1
GRIDFORMAT_BEGIN
 90
        0
 91
        1
 62
     0
 92
       -2
340
0
 93
        0
 40
0.045
309
GRIDFORMAT_END
 95
        8
302
GRIDFORMAT
  1
GRIDFORMAT_BEGIN
 90
        0
 91
        1
 62
     0
 92
       -2
340
0
 93
        0
 40
0.045
309
GRIDFORMAT_END
 95
       16
302
GRIDFORMAT
  1
GRIDFORMAT_BEGIN
 90
        0
 91
        1
 62
     0
 92
       -2
340
0
 93
        0
 40
0.045
309
GRIDFORMAT_END
 95
       32
302
GRIDFORMAT
  1
GRIDFORMAT_BEGIN
 90
        0
 91
        1
 62
     0
 92
       -2
340
0
 93
        0
 40
0.045
309
GRIDFORMAT_END
309
TABLEFORMAT_END
  1
CELLSTYLE_BEGIN
 90
        3
 91
        2
300
_DATA
309
CELLSTYLE_END
  0
XRECORD
  5
10905
102
{ACAD_REACTORS
330
10848
102
}
330
10848
100
AcDbXrecord
280
     1
102
ACAD_ROUNDTRIP_PRE2007_TABLESTYLE
 90
        4
 91
        0
  1

 92
        4
 93
        0
  2

 94
        4
 95
        0
  3

  0
XRECORD
  5
10913
102
{ACAD_REACTORS
330
10912
102
}
330
10912
100
AcDbXrecord
280
     1
102
RTVSPropertyOp0
 70
     1
102
RTVSPropertyOp1
 70
     1
102
RTVSPropertyOp2
 70
     1
102
RTVSPropertyOp3
 70
     1
102
RTVSPropertyOp4
 70
     1
102
RTVSPropertyOp5
 70
     1
102
RTVSPropertyOp6
 70
     1
102
RTVSPropertyOp7
 70
     1
102
RTVSPropertyOp8
 70
     1
102
RTVSPropertyOp9
 70
     1
102
RTVSPropertyOp10
 70
     1
102
RTVSPropertyOp11
 70
     1
102
RTVSPropertyOp12
 70
     1
102
RTVSPropertyOp13
 70
     1
102
RTVSPropertyOp14
 70
     1
102
RTVSPropertyOp15
 70
     1
102
RTVSPropertyOp16
 70
     1
102
RTVSPropertyOp17
 70
     1
102
RTVSPropertyOp18
 70
     1
102
RTVSPropertyOp19
 70
     1
102
RTVSPropertyOp20
 70
     1
102
RTVSPropertyOp21
 70
     1
102
RTVSPropertyOp22
 70
     1
102
RTVSPropertyOp23
 70
     1
102
RTVSPropertyOp24
 70
     1
102
RTVSPropertyOp25
 70
     1
102
RTVSPropertyOp26
 70
     1
102
RTVSPropertyOp27
 70
     1
  0
XRECORD
  5
10917
102
{ACAD_REACTORS
330
10916
102
}
330
10916
100
AcDbXrecord
280
     1
102
RTVSPropertyOp0
 70
     1
102
RTVSPropertyOp1
 70
     1
102
RTVSPropertyOp2
 70
     1
102
RTVSPropertyOp3
 70
     1
102
RTVSPropertyOp4
 70
     1
102
RTVSPropertyOp5
 70
     1
102
RTVSPropertyOp6
 70
     1
102
RTVSPropertyOp7
 70
     1
102
RTVSPropertyOp8
 70
     1
102
RTVSPropertyOp9
 70
     1
102
RTVSPropertyOp10
 70
     1
102
RTVSPropertyOp11
 70
     1
102
RTVSPropertyOp12
 70
     1
102
RTVSPropertyOp13
 70
     1
102
RTVSPropertyOp14
 70
     1
102
RTVSPropertyOp15
 70
     1
102
RTVSPropertyOp16
 70
     1
102
RTVSPropertyOp17
 70
     1
102
RTVSPropertyOp18
 70
     1
102
RTVSPropertyOp19
 70
     1
102
RTVSPropertyOp20
 70
     1
102
RTVSPropertyOp21
 70
     1
102
RTVSPropertyOp22
 70
     1
102
RTVSPropertyOp23
 70
     1
102
RTVSPropertyOp24
 70
     1
102
RTVSPropertyOp25
 70
     1
102
RTVSPropertyOp26
 70
     1
102
RTVSPropertyOp27
 70
     1
  0
XRECORD
  5
10915
102
{ACAD_REACTORS
330
10914
102
}
330
10914
100
AcDbXrecord
280
     1
102
RTVSPropertyOp0
 70
     1
102
RTVSPropertyOp1
 70
     1
102
RTVSPropertyOp2
 70
     1
102
RTVSPropertyOp3
 70
     1
102
RTVSPropertyOp4
 70
     1
102
RTVSPropertyOp5
 70
     1
102
RTVSPropertyOp6
 70
     1
102
RTVSPropertyOp7
 70
     1
102
RTVSPropertyOp8
 70
     1
102
RTVSPropertyOp9
 70
     1
102
RTVSPropertyOp10
 70
     1
102
RTVSPropertyOp11
 70
     1
102
RTVSPropertyOp12
 70
     1
102
RTVSPropertyOp13
 70
     1
102
RTVSPropertyOp14
 70
     1
102
RTVSPropertyOp15
 70
     1
102
RTVSPropertyOp16
 70
     1
102
RTVSPropertyOp17
 70
     1
102
RTVSPropertyOp18
 70
     1
102
RTVSPropertyOp19
 70
     1
102
RTVSPropertyOp20
 70
     1
102
RTVSPropertyOp21
 70
     1
102
RTVSPropertyOp22
 70
     1
102
RTVSPropertyOp23
 70
     1
102
RTVSPropertyOp24
 70
     1
102
RTVSPropertyOp25
 70
     1
102
RTVSPropertyOp26
 70
     1
102
RTVSPropertyOp27
 70
     1
  0
XRECORD
  5
10911
102
{ACAD_REACTORS
330
10910
102
}
330
10910
100
AcDbXrecord
280
     1
102
RTVSPropertyOp0
 70
     1
102
RTVSPropertyOp1
 70
     1
102
RTVSPropertyOp2
 70
     1
102
RTVSPropertyOp3
 70
     1
102
RTVSPropertyOp4
 70
     1
102
RTVSPropertyOp5
 70
     1
102
RTVSPropertyOp6
 70
     1
102
RTVSPropertyOp7
 70
     1
102
RTVSPropertyOp8
 70
     1
102
RTVSPropertyOp9
 70
     1
102
RTVSPropertyOp10
 70
     1
102
RTVSPropertyOp11
 70
     1
102
RTVSPropertyOp12
 70
     1
102
RTVSPropertyOp13
 70
     1
102
RTVSPropertyOp14
 70
     1
102
RTVSPropertyOp15
 70
     1
102
RTVSPropertyOp16
 70
     1
102
RTVSPropertyOp17
 70
     1
102
RTVSPropertyOp18
 70
     1
102
RTVSPropertyOp19
 70
     1
102
RTVSPropertyOp20
 70
     1
102
RTVSPropertyOp21
 70
     1
102
RTVSPropertyOp22
 70
     1
102
RTVSPropertyOp23
 70
     1
102
RTVSPropertyOp24
 70
     1
102
RTVSPropertyOp25
 70
     1
102
RTVSPropertyOp26
 70
     1
102
RTVSPropertyOp27
 70
     1
  0
XRECORD
  5
1091F
102
{ACAD_REACTORS
330
1091E
102
}
330
1091E
100
AcDbXrecord
280
     1
102
RTVSPropertyOp0
 70
     1
102
RTVSPropertyOp1
 70
     1
102
RTVSPropertyOp2
 70
     1
102
RTVSPropertyOp3
 70
     1
102
RTVSPropertyOp4
 70
     1
102
RTVSPropertyOp5
 70
     1
102
RTVSPropertyOp6
 70
     1
102
RTVSPropertyOp7
 70
     1
102
RTVSPropertyOp8
 70
     1
102
RTVSPropertyOp9
 70
     1
102
RTVSPropertyOp10
 70
     1
102
RTVSPropertyOp11
 70
     1
102
RTVSPropertyOp12
 70
     1
102
RTVSPropertyOp13
 70
     1
102
RTVSPropertyOp14
 70
     1
102
RTVSPropertyOp15
 70
     1
102
RTVSPropertyOp16
 70
     1
102
RTVSPropertyOp17
 70
     1
102
RTVSPropertyOp18
 70
     1
102
RTVSPropertyOp19
 70
     1
102
RTVSPropertyOp20
 70
     1
102
RTVSPropertyOp21
 70
     1
102
RTVSPropertyOp22
 70
     1
102
RTVSPropertyOp23
 70
     1
102
RTVSPropertyOp24
 70
     1
102
RTVSPropertyOp25
 70
     1
102
RTVSPropertyOp26
 70
     1
102
RTVSPropertyOp27
 70
     1
  0
XRECORD
  5
10927
102
{ACAD_REACTORS
330
10926
102
}
330
10926
100
AcDbXrecord
280
     1
102
RTVSPropertyOp0
 70
     1
102
RTVSPropertyOp1
 70
     1
102
RTVSPropertyOp2
 70
     1
102
RTVSPropertyOp3
 70
     1
102
RTVSPropertyOp4
 70
     1
102
RTVSPropertyOp5
 70
     1
102
RTVSPropertyOp6
 70
     1
102
RTVSPropertyOp7
 70
     1
102
RTVSPropertyOp8
 70
     1
102
RTVSPropertyOp9
 70
     1
102
RTVSPropertyOp10
 70
     1
102
RTVSPropertyOp11
 70
     1
102
RTVSPropertyOp12
 70
     1
102
RTVSPropertyOp13
 70
     1
102
RTVSPropertyOp14
 70
     1
102
RTVSPropertyOp15
 70
     1
102
RTVSPropertyOp16
 70
     1
102
RTVSPropertyOp17
 70
     1
102
RTVSPropertyOp18
 70
     1
102
RTVSPropertyOp19
 70
     1
102
RTVSPropertyOp20
 70
     1
102
RTVSPropertyOp21
 70
     1
102
RTVSPropertyOp22
 70
     1
102
RTVSPropertyOp23
 70
     1
102
RTVSPropertyOp24
 70
     1
102
RTVSPropertyOp25
 70
     1
102
RTVSPropertyOp26
 70
     1
102
RTVSPropertyOp27
 70
     1
  0
XRECORD
  5
10919
102
{ACAD_REACTORS
330
10918
102
}
330
10918
100
AcDbXrecord
280
     1
102
RTVSPropertyOp0
 70
     1
102
RTVSPropertyOp1
 70
     1
102
RTVSPropertyOp2
 70
     1
102
RTVSPropertyOp3
 70
     1
102
RTVSPropertyOp4
 70
     1
102
RTVSPropertyOp5
 70
     1
102
RTVSPropertyOp6
 70
     1
102
RTVSPropertyOp7
 70
     1
102
RTVSPropertyOp8
 70
     1
102
RTVSPropertyOp9
 70
     1
102
RTVSPropertyOp10
 70
     1
102
RTVSPropertyOp11
 70
     1
102
RTVSPropertyOp12
 70
     1
102
RTVSPropertyOp13
 70
     1
102
RTVSPropertyOp14
 70
     1
102
RTVSPropertyOp15
 70
     1
102
RTVSPropertyOp16
 70
     1
102
RTVSPropertyOp17
 70
     1
102
RTVSPropertyOp18
 70
     1
102
RTVSPropertyOp19
 70
     1
102
RTVSPropertyOp20
 70
     1
102
RTVSPropertyOp21
 70
     1
102
RTVSPropertyOp22
 70
     1
102
RTVSPropertyOp23
 70
     1
102
RTVSPropertyOp24
 70
     1
102
RTVSPropertyOp25
 70
     1
102
RTVSPropertyOp26
 70
     1
102
RTVSPropertyOp27
 70
     1
  0
XRECORD
  5
1091D
102
{ACAD_REACTORS
330
1091C
102
}
330
1091C
100
AcDbXrecord
280
     1
102
RTVSPropertyOp0
 70
     1
102
RTVSPropertyOp1
 70
     1
102
RTVSPropertyOp2
 70
     1
102
RTVSPropertyOp3
 70
     1
102
RTVSPropertyOp4
 70
     1
102
RTVSPropertyOp5
 70
     1
102
RTVSPropertyOp6
 70
     1
102
RTVSPropertyOp7
 70
     1
102
RTVSPropertyOp8
 70
     1
102
RTVSPropertyOp9
 70
     1
102
RTVSPropertyOp10
 70
     1
102
RTVSPropertyOp11
 70
     1
102
RTVSPropertyOp12
 70
     1
102
RTVSPropertyOp13
 70
     1
102
RTVSPropertyOp14
 70
     1
102
RTVSPropertyOp15
 70
     1
102
RTVSPropertyOp16
 70
     1
102
RTVSPropertyOp17
 70
     1
102
RTVSPropertyOp18
 70
     1
102
RTVSPropertyOp19
 70
     1
102
RTVSPropertyOp20
 70
     1
102
RTVSPropertyOp21
 70
     1
102
RTVSPropertyOp22
 70
     1
102
RTVSPropertyOp23
 70
     1
102
RTVSPropertyOp24
 70
     1
102
RTVSPropertyOp25
 70
     1
102
RTVSPropertyOp26
 70
     1
102
RTVSPropertyOp27
 70
     1
  0
XRECORD
  5
1092D
102
{ACAD_REACTORS
330
1092C
102
}
330
1092C
100
AcDbXrecord
280
     1
102
RTVSPropertyOp0
 70
     0
102
RTVSPropertyOp1
 70
     0
102
RTVSPropertyOp2
 70
     0
102
RTVSPropertyOp3
 70
     0
102
RTVSPropertyOp4
 70
     0
102
RTVSPropertyOp5
 70
     0
102
RTVSPropertyOp6
 70
     0
102
RTVSPropertyOp7
 70
     0
102
RTVSPropertyOp8
 70
     0
102
RTVSPropertyOp9
 70
     0
102
RTVSPropertyOp10
 70
     0
102
RTVSPropertyOp11
 70
     0
102
RTVSPropertyOp12
 70
     0
102
RTVSPropertyOp13
 70
     0
102
RTVSPropertyOp14
 70
     2
102
RTVSPropertyOp15
 70
     0
102
RTVSPropertyOp16
 70
     0
102
RTVSPropertyOp17
 70
     0
102
RTVSPropertyOp18
 70
     0
102
RTVSPropertyOp19
 70
     0
102
RTVSPropertyOp20
 70
     0
102
RTVSPropertyOp21
 70
     0
102
RTVSPropertyOp22
 70
     0
102
RTVSPropertyOp23
 70
     0
102
RTVSPropertyOp24
 70
     0
102
RTVSPropertyOp25
 70
     0
102
RTVSPropertyOp26
 70
     0
102
RTVSPropertyOp27
 70
     0
  0
XRECORD
  5
10925
102
{ACAD_REACTORS
330
10924
102
}
330
10924
100
AcDbXrecord
280
     1
102
RTVSPropertyOp0
 70
     1
102
RTVSPropertyOp1
 70
     1
102
RTVSPropertyOp2
 70
     1
102
RTVSPropertyOp3
 70
     1
102
RTVSPropertyOp4
 70
     1
102
RTVSPropertyOp5
 70
     1
102
RTVSPropertyOp6
 70
     1
102
RTVSPropertyOp7
 70
     1
102
RTVSPropertyOp8
 70
     1
102
RTVSPropertyOp9
 70
     1
102
RTVSPropertyOp10
 70
     1
102
RTVSPropertyOp11
 70
     1
102
RTVSPropertyOp12
 70
     1
102
RTVSPropertyOp13
 70
     1
102
RTVSPropertyOp14
 70
     1
102
RTVSPropertyOp15
 70
     1
102
RTVSPropertyOp16
 70
     1
102
RTVSPropertyOp17
 70
     1
102
RTVSPropertyOp18
 70
     1
102
RTVSPropertyOp19
 70
     1
102
RTVSPropertyOp20
 70
     1
102
RTVSPropertyOp21
 70
     1
102
RTVSPropertyOp22
 70
     1
102
RTVSPropertyOp23
 70
     1
102
RTVSPropertyOp24
 70
     1
102
RTVSPropertyOp25
 70
     1
102
RTVSPropertyOp26
 70
     1
102
RTVSPropertyOp27
 70
     1
  0
XRECORD
  5
10909
102
{ACAD_REACTORS
330
10908
102
}
330
10908
100
AcDbXrecord
280
     1
102
RTVSPropertyOp0
 70
     1
102
RTVSPropertyOp1
 70
     1
102
RTVSPropertyOp2
 70
     1
102
RTVSPropertyOp3
 70
     1
102
RTVSPropertyOp4
 70
     1
102
RTVSPropertyOp5
 70
     1
102
RTVSPropertyOp6
 70
     1
102
RTVSPropertyOp7
 70
     1
102
RTVSPropertyOp8
 70
     1
102
RTVSPropertyOp9
 70
     1
102
RTVSPropertyOp10
 70
     1
102
RTVSPropertyOp11
 70
     1
102
RTVSPropertyOp12
 70
     1
102
RTVSPropertyOp13
 70
     1
102
RTVSPropertyOp14
 70
     1
102
RTVSPropertyOp15
 70
     1
102
RTVSPropertyOp16
 70
     1
102
RTVSPropertyOp17
 70
     1
102
RTVSPropertyOp18
 70
     1
102
RTVSPropertyOp19
 70
     1
102
RTVSPropertyOp20
 70
     1
102
RTVSPropertyOp21
 70
     1
102
RTVSPropertyOp22
 70
     1
102
RTVSPropertyOp23
 70
     1
102
RTVSPropertyOp24
 70
     1
102
RTVSPropertyOp25
 70
     1
102
RTVSPropertyOp26
 70
     1
102
RTVSPropertyOp27
 70
     1
  0
XRECORD
  5
1090B
102
{ACAD_REACTORS
330
1090A
102
}
330
1090A
100
AcDbXrecord
280
     1
102
RTVSPropertyOp0
 70
     1
102
RTVSPropertyOp1
 70
     1
102
RTVSPropertyOp2
 70
     1
102
RTVSPropertyOp3
 70
     1
102
RTVSPropertyOp4
 70
     1
102
RTVSPropertyOp5
 70
     1
102
RTVSPropertyOp6
 70
     1
102
RTVSPropertyOp7
 70
     1
102
RTVSPropertyOp8
 70
     1
102
RTVSPropertyOp9
 70
     1
102
RTVSPropertyOp10
 70
     1
102
RTVSPropertyOp11
 70
     1
102
RTVSPropertyOp12
 70
     1
102
RTVSPropertyOp13
 70
     1
102
RTVSPropertyOp14
 70
     1
102
RTVSPropertyOp15
 70
     1
102
RTVSPropertyOp16
 70
     1
102
RTVSPropertyOp17
 70
     1
102
RTVSPropertyOp18
 70
     1
102
RTVSPropertyOp19
 70
     1
102
RTVSPropertyOp20
 70
     1
102
RTVSPropertyOp21
 70
     1
102
RTVSPropertyOp22
 70
     1
102
RTVSPropertyOp23
 70
     1
102
RTVSPropertyOp24
 70
     1
102
RTVSPropertyOp25
 70
     1
102
RTVSPropertyOp26
 70
     1
102
RTVSPropertyOp27
 70
     1
  0
XRECORD
  5
1090D
102
{ACAD_REACTORS
330
1090C
102
}
330
1090C
100
AcDbXrecord
280
     1
102
RTVSPropertyOp0
 70
     1
102
RTVSPropertyOp1
 70
     1
102
RTVSPropertyOp2
 70
     1
102
RTVSPropertyOp3
 70
     1
102
RTVSPropertyOp4
 70
     1
102
RTVSPropertyOp5
 70
     1
102
RTVSPropertyOp6
 70
     1
102
RTVSPropertyOp7
 70
     1
102
RTVSPropertyOp8
 70
     1
102
RTVSPropertyOp9
 70
     1
102
RTVSPropertyOp10
 70
     1
102
RTVSPropertyOp11
 70
     1
102
RTVSPropertyOp12
 70
     1
102
RTVSPropertyOp13
 70
     1
102
RTVSPropertyOp14
 70
     1
102
RTVSPropertyOp15
 70
     1
102
RTVSPropertyOp16
 70
     1
102
RTVSPropertyOp17
 70
     1
102
RTVSPropertyOp18
 70
     1
102
RTVSPropertyOp19
 70
     1
102
RTVSPropertyOp20
 70
     1
102
RTVSPropertyOp21
 70
     1
102
RTVSPropertyOp22
 70
     1
102
RTVSPropertyOp23
 70
     1
102
RTVSPropertyOp24
 70
     1
102
RTVSPropertyOp25
 70
     1
102
RTVSPropertyOp26
 70
     1
102
RTVSPropertyOp27
 70
     1
  0
XRECORD
  5
1090F
102
{ACAD_REACTORS
330
1090E
102
}
330
1090E
100
AcDbXrecord
280
     1
102
RTVSPropertyOp0
 70
     1
102
RTVSPropertyOp1
 70
     1
102
RTVSPropertyOp2
 70
     1
102
RTVSPropertyOp3
 70
     1
102
RTVSPropertyOp4
 70
     1
102
RTVSPropertyOp5
 70
     1
102
RTVSPropertyOp6
 70
     1
102
RTVSPropertyOp7
 70
     1
102
RTVSPropertyOp8
 70
     1
102
RTVSPropertyOp9
 70
     1
102
RTVSPropertyOp10
 70
     1
102
RTVSPropertyOp11
 70
     1
102
RTVSPropertyOp12
 70
     1
102
RTVSPropertyOp13
 70
     1
102
RTVSPropertyOp14
 70
     1
102
RTVSPropertyOp15
 70
     1
102
RTVSPropertyOp16
 70
     1
102
RTVSPropertyOp17
 70
     1
102
RTVSPropertyOp18
 70
     1
102
RTVSPropertyOp19
 70
     1
102
RTVSPropertyOp20
 70
     1
102
RTVSPropertyOp21
 70
     1
102
RTVSPropertyOp22
 70
     1
102
RTVSPropertyOp23
 70
     1
102
RTVSPropertyOp24
 70
     1
102
RTVSPropertyOp25
 70
     1
102
RTVSPropertyOp26
 70
     1
102
RTVSPropertyOp27
 70
     1
  0
XRECORD
  5
10929
102
{ACAD_REACTORS
330
10928
102
}
330
10928
100
AcDbXrecord
280
     1
102
RTVSPropertyOp0
 70
     0
102
RTVSPropertyOp1
 70
     0
102
RTVSPropertyOp2
 70
     0
102
RTVSPropertyOp3
 70
     0
102
RTVSPropertyOp4
 70
     0
102
RTVSPropertyOp5
 70
     0
102
RTVSPropertyOp6
 70
     0
102
RTVSPropertyOp7
 70
     0
102
RTVSPropertyOp8
 70
     0
102
RTVSPropertyOp9
 70
     0
102
RTVSPropertyOp10
 70
     0
102
RTVSPropertyOp11
 70
     0
102
RTVSPropertyOp12
 70
     0
102
RTVSPropertyOp13
 70
     0
102
RTVSPropertyOp14
 70
     2
102
RTVSPropertyOp15
 70
     0
102
RTVSPropertyOp16
 70
     0
102
RTVSPropertyOp17
 70
     0
102
RTVSPropertyOp18
 70
     0
102
RTVSPropertyOp19
 70
     0
102
RTVSPropertyOp20
 70
     0
102
RTVSPropertyOp21
 70
     0
102
RTVSPropertyOp22
 70
     0
102
RTVSPropertyOp23
 70
     0
102
RTVSPropertyOp24
 70
     0
102
RTVSPropertyOp25
 70
     0
102
RTVSPropertyOp26
 70
     0
102
RTVSPropertyOp27
 70
     0
  0
XRECORD
  5
10923
102
{ACAD_REACTORS
330
10922
102
}
330
10922
100
AcDbXrecord
280
     1
102
RTVSPropertyOp0
 70
     1
102
RTVSPropertyOp1
 70
     1
102
RTVSPropertyOp2
 70
     1
102
RTVSPropertyOp3
 70
     1
102
RTVSPropertyOp4
 70
     1
102
RTVSPropertyOp5
 70
     1
102
RTVSPropertyOp6
 70
     1
102
RTVSPropertyOp7
 70
     1
102
RTVSPropertyOp8
 70
     1
102
RTVSPropertyOp9
 70
     1
102
RTVSPropertyOp10
 70
     1
102
RTVSPropertyOp11
 70
     1
102
RTVSPropertyOp12
 70
     1
102
RTVSPropertyOp13
 70
     1
102
RTVSPropertyOp14
 70
     1
102
RTVSPropertyOp15
 70
     1
102
RTVSPropertyOp16
 70
     1
102
RTVSPropertyOp17
 70
     1
102
RTVSPropertyOp18
 70
     1
102
RTVSPropertyOp19
 70
     1
102
RTVSPropertyOp20
 70
     1
102
RTVSPropertyOp21
 70
     1
102
RTVSPropertyOp22
 70
     1
102
RTVSPropertyOp23
 70
     1
102
RTVSPropertyOp24
 70
     1
102
RTVSPropertyOp25
 70
     1
102
RTVSPropertyOp26
 70
     1
102
RTVSPropertyOp27
 70
     1
  0
XRECORD
  5
1092B
102
{ACAD_REACTORS
330
1092A
102
}
330
1092A
100
AcDbXrecord
280
     1
102
RTVSPropertyOp0
 70
     0
102
RTVSPropertyOp1
 70
     0
102
RTVSPropertyOp2
 70
     0
102
RTVSPropertyOp3
 70
     0
102
RTVSPropertyOp4
 70
     0
102
RTVSPropertyOp5
 70
     0
102
RTVSPropertyOp6
 70
     0
102
RTVSPropertyOp7
 70
     0
102
RTVSPropertyOp8
 70
     0
102
RTVSPropertyOp9
 70
     0
102
RTVSPropertyOp10
 70
     0
102
RTVSPropertyOp11
 70
     0
102
RTVSPropertyOp12
 70
     0
102
RTVSPropertyOp13
 70
     0
102
RTVSPropertyOp14
 70
     2
102
RTVSPropertyOp15
 70
     0
102
RTVSPropertyOp16
 70
     0
102
RTVSPropertyOp17
 70
     0
102
RTVSPropertyOp18
 70
     0
102
RTVSPropertyOp19
 70
     0
102
RTVSPropertyOp20
 70
     0
102
RTVSPropertyOp21
 70
     0
102
RTVSPropertyOp22
 70
     0
102
RTVSPropertyOp23
 70
     0
102
RTVSPropertyOp24
 70
     0
102
RTVSPropertyOp25
 70
     0
102
RTVSPropertyOp26
 70
     0
102
RTVSPropertyOp27
 70
     0
  0
XRECORD
  5
1091B
102
{ACAD_REACTORS
330
1091A
102
}
330
1091A
100
AcDbXrecord
280
     1
102
RTVSPropertyOp0
 70
     1
102
RTVSPropertyOp1
 70
     1
102
RTVSPropertyOp2
 70
     1
102
RTVSPropertyOp3
 70
     1
102
RTVSPropertyOp4
 70
     1
102
RTVSPropertyOp5
 70
     1
102
RTVSPropertyOp6
 70
     1
102
RTVSPropertyOp7
 70
     1
102
RTVSPropertyOp8
 70
     1
102
RTVSPropertyOp9
 70
     1
102
RTVSPropertyOp10
 70
     1
102
RTVSPropertyOp11
 70
     1
102
RTVSPropertyOp12
 70
     1
102
RTVSPropertyOp13
 70
     1
102
RTVSPropertyOp14
 70
     1
102
RTVSPropertyOp15
 70
     1
102
RTVSPropertyOp16
 70
     1
102
RTVSPropertyOp17
 70
     1
102
RTVSPropertyOp18
 70
     1
102
RTVSPropertyOp19
 70
     1
102
RTVSPropertyOp20
 70
     1
102
RTVSPropertyOp21
 70
     1
102
RTVSPropertyOp22
 70
     1
102
RTVSPropertyOp23
 70
     1
102
RTVSPropertyOp24
 70
     1
102
RTVSPropertyOp25
 70
     1
102
RTVSPropertyOp26
 70
     1
102
RTVSPropertyOp27
 70
     1
  0
XRECORD
  5
10921
102
{ACAD_REACTORS
330
10920
102
}
330
10920
100
AcDbXrecord
280
     1
102
RTVSPropertyOp0
 70
     1
102
RTVSPropertyOp1
 70
     1
102
RTVSPropertyOp2
 70
     1
102
RTVSPropertyOp3
 70
     1
102
RTVSPropertyOp4
 70
     1
102
RTVSPropertyOp5
 70
     1
102
RTVSPropertyOp6
 70
     1
102
RTVSPropertyOp7
 70
     1
102
RTVSPropertyOp8
 70
     1
102
RTVSPropertyOp9
 70
     1
102
RTVSPropertyOp10
 70
     1
102
RTVSPropertyOp11
 70
     1
102
RTVSPropertyOp12
 70
     1
102
RTVSPropertyOp13
 70
     1
102
RTVSPropertyOp14
 70
     1
102
RTVSPropertyOp15
 70
     1
102
RTVSPropertyOp16
 70
     1
102
RTVSPropertyOp17
 70
     1
102
RTVSPropertyOp18
 70
     1
102
RTVSPropertyOp19
 70
     1
102
RTVSPropertyOp20
 70
     1
102
RTVSPropertyOp21
 70
     1
102
RTVSPropertyOp22
 70
     1
102
RTVSPropertyOp23
 70
     1
102
RTVSPropertyOp24
 70
     1
102
RTVSPropertyOp25
 70
     1
102
RTVSPropertyOp26
 70
     1
102
RTVSPropertyOp27
 70
     1
  0
ENDSEC
  0
EOF
